osu file format v14

[General]
AudioFilename: Memme - Avalanche.mp3
AudioLeadIn: 0
PreviewTime: 57740
Countdown: 0
SampleSet: Soft
StackLeniency: 0.7
Mode: 3
LetterboxInBreaks: 0
SpecialStyle: 0
WidescreenStoryboard: 0

[Editor]
DistanceSpacing: 0.6
BeatDivisor: 4
GridSize: 4
TimelineZoom: 1.4

[Metadata]
Title:Avalanche
TitleUnicode:Avalanche
Artist:Memme
ArtistUnicode:Memme
Creator:JamesHappy
Version:7K Beginner
Source:Pump It Up Prime
Tags:parkmemme winter 4 Seasons classical drumstep dubstep PIU Antonio Lucio Vivaldi AnatOWJIya AJIekceu
BeatmapID:742449
BeatmapSetID:335394

[Difficulty]
HPDrainRate:6
CircleSize:7
OverallDifficulty:7
ApproachRate:5
SliderMultiplier:1.4
SliderTickRate:1

[Events]
//Background and Video events
0,0,"avalanche.jpg",0,0
//Break Periods
//Storyboard Layer 0 (Background)
//Storyboard Layer 1 (Fail)
//Storyboard Layer 2 (Pass)
//Storyboard Layer 3 (Foreground)
//Storyboard Sound Samples

[TimingPoints]
2883,342.857142857143,4,2,1,5,1,0
57740,-100,4,2,1,5,0,1
67340,-100,4,2,1,5,0,0
98893,342.857142857143,4,2,1,5,1,1
117064,-100,4,2,1,5,0,0

[HitObjects]
182,192,2882,5,0,0:0:0:0:
36,192,2882,1,0,0:0:0:0:
256,192,3225,1,0,0:0:0:0:
109,192,3568,1,0,0:0:0:0:
329,192,3911,1,0,0:0:0:0:
182,192,4254,1,0,0:0:0:0:
402,192,4597,1,0,0:0:0:0:
256,192,4940,1,0,0:0:0:0:
475,192,5283,1,0,0:0:0:0:
329,192,5625,1,0,0:0:0:0:
36,192,5625,1,0,0:0:0:0:
256,192,5968,1,0,0:0:0:0:
475,192,6311,1,0,0:0:0:0:
182,192,6311,1,0,0:0:0:0:
256,192,6654,1,0,0:0:0:0:
36,192,6997,1,0,0:0:0:0:
329,192,6997,1,0,0:0:0:0:
402,192,7340,1,0,0:0:0:0:
109,192,7683,1,0,0:0:0:0:
256,192,7683,1,0,0:0:0:0:
475,192,8025,1,0,0:0:0:0:
182,192,8368,1,0,0:0:0:0:
329,192,8368,1,0,0:0:0:0:
402,192,8711,1,0,0:0:0:0:
109,192,9054,1,0,0:0:0:0:
256,192,9054,1,0,0:0:0:0:
329,192,9397,1,0,0:0:0:0:
36,192,9740,1,0,0:0:0:0:
182,192,9740,1,0,0:0:0:0:
256,192,10083,1,0,0:0:0:0:
182,192,10425,1,0,0:0:0:0:
329,192,10425,1,0,0:0:0:0:
402,192,10768,1,0,0:0:0:0:
475,192,11111,1,0,0:0:0:0:
329,192,11111,1,0,0:0:0:0:
182,192,11454,1,0,0:0:0:0:
109,192,11797,1,0,0:0:0:0:
402,192,11797,1,0,0:0:0:0:
329,192,12140,1,0,0:0:0:0:
36,192,12483,1,0,0:0:0:0:
182,192,12483,1,0,0:0:0:0:
402,192,12825,1,0,0:0:0:0:
109,192,13168,1,0,0:0:0:0:
256,192,13168,1,0,0:0:0:0:
475,192,13511,1,0,0:0:0:0:
402,192,13683,1,0,0:0:0:0:
329,192,13854,1,0,0:0:0:0:
182,192,13854,1,0,0:0:0:0:
36,192,14197,1,0,0:0:0:0:
256,192,14540,1,0,0:0:0:0:
109,192,14883,1,0,0:0:0:0:
329,192,15225,1,0,0:0:0:0:
182,192,15568,1,0,0:0:0:0:
402,192,15911,1,0,0:0:0:0:
256,192,16254,1,0,0:0:0:0:
475,192,16597,1,0,0:0:0:0:
256,192,16940,1,0,0:0:0:0:
402,192,17283,1,0,0:0:0:0:
182,192,17625,1,0,0:0:0:0:
329,192,17968,1,0,0:0:0:0:
109,192,18311,1,0,0:0:0:0:
256,192,18654,1,0,0:0:0:0:
36,192,18997,1,0,0:0:0:0:
182,192,19340,1,0,0:0:0:0:
256,192,19340,128,0,19683:0:0:0:0:
329,192,19683,128,0,20025:0:0:0:0:
402,192,20025,128,0,20368:0:0:0:0:
475,192,20368,128,0,20711:0:0:0:0:
182,192,20711,128,0,21054:0:0:0:0:
256,192,21054,128,0,21397:0:0:0:0:
329,192,21397,128,0,21740:0:0:0:0:
402,192,21740,128,0,22083:0:0:0:0:
109,192,22083,128,0,22425:0:0:0:0:
182,192,22425,128,0,22768:0:0:0:0:
256,192,22768,128,0,23111:0:0:0:0:
329,192,23111,128,0,23454:0:0:0:0:
36,192,23454,128,0,23797:0:0:0:0:
109,192,23797,128,0,24140:0:0:0:0:
182,192,24140,128,0,24483:0:0:0:0:
256,192,24483,128,0,24825:0:0:0:0:
36,192,24825,128,0,25511:0:0:0:0:
329,192,24825,1,0,0:0:0:0:
182,192,25511,128,0,26197:0:0:0:0:
475,192,25511,1,0,0:0:0:0:
329,192,26197,128,0,26883:0:0:0:0:
109,192,26197,1,0,0:0:0:0:
475,192,26883,128,0,27568:0:0:0:0:
256,192,26883,1,0,0:0:0:0:
36,192,27568,128,0,27911:0:0:0:0:
182,192,27911,1,0,0:0:0:0:
475,192,27911,128,0,28254:0:0:0:0:
329,192,28254,1,0,0:0:0:0:
256,192,28597,1,0,0:0:0:0:
36,192,28940,1,0,0:0:0:0:
402,192,28940,1,0,0:0:0:0:
182,192,29283,1,0,0:0:0:0:
329,192,29454,1,0,0:0:0:0:
109,192,29797,1,0,0:0:0:0:
402,192,29968,1,0,0:0:0:0:
256,192,30140,1,0,0:0:0:0:
329,192,30483,1,0,0:0:0:0:
182,192,30654,1,0,0:0:0:0:
329,192,30825,1,0,0:0:0:0:
36,192,31168,1,0,0:0:0:0:
109,192,31340,1,0,0:0:0:0:
256,192,31340,1,0,0:0:0:0:
475,192,31683,128,0,32368:0:0:0:0:
182,192,31683,1,0,0:0:0:0:
329,192,32368,128,0,33054:0:0:0:0:
36,192,32368,1,0,0:0:0:0:
182,192,33054,128,0,33740:0:0:0:0:
402,192,33054,1,0,0:0:0:0:
36,192,33740,128,0,34425:0:0:0:0:
256,192,33740,1,0,0:0:0:0:
475,192,34425,1,0,0:0:0:0:
109,192,34768,128,0,35111:0:0:0:0:
402,192,35111,128,0,35454:0:0:0:0:
182,192,35111,1,0,0:0:0:0:
329,192,35454,1,0,0:0:0:0:
109,192,35797,1,0,0:0:0:0:
256,192,35797,1,0,0:0:0:0:
475,192,36140,1,0,0:0:0:0:
329,192,36311,1,0,0:0:0:0:
36,192,36654,1,0,0:0:0:0:
182,192,36825,1,0,0:0:0:0:
109,192,36997,1,0,0:0:0:0:
402,192,37340,1,0,0:0:0:0:
256,192,37511,1,0,0:0:0:0:
329,192,37683,1,0,0:0:0:0:
36,192,38025,1,0,0:0:0:0:
182,192,38025,128,0,38540:0:0:0:0:
475,192,38540,128,0,39225:0:0:0:0:
256,192,38540,1,0,0:0:0:0:
36,192,39225,128,0,39911:0:0:0:0:
256,192,39225,1,0,0:0:0:0:
329,192,39740,1,0,0:0:0:0:
402,192,39911,128,0,40597:0:0:0:0:
182,192,39911,1,0,0:0:0:0:
475,192,40425,1,0,0:0:0:0:
109,192,40597,128,0,41283:0:0:0:0:
329,192,40597,1,0,0:0:0:0:
256,192,41283,128,0,41968:0:0:0:0:
36,192,41968,1,0,0:0:0:0:
475,192,41968,128,0,42654:0:0:0:0:
182,192,42654,1,0,0:0:0:0:
256,192,42997,1,0,0:0:0:0:
329,192,43340,1,0,0:0:0:0:
402,192,43683,1,0,0:0:0:0:
109,192,44025,1,0,0:0:0:0:
182,192,44368,1,0,0:0:0:0:
256,192,44711,1,0,0:0:0:0:
329,192,45054,1,0,0:0:0:0:
36,192,45397,1,0,0:0:0:0:
109,192,45740,1,0,0:0:0:0:
182,192,46083,1,0,0:0:0:0:
256,192,46425,128,0,46768:0:0:0:0:
36,192,46768,1,0,0:0:0:0:
329,192,46768,1,0,0:0:0:0:
182,192,47111,1,0,0:0:0:0:
402,192,47454,1,0,0:0:0:0:
109,192,47797,1,0,0:0:0:0:
329,192,48140,1,0,0:0:0:0:
182,192,48483,1,0,0:0:0:0:
402,192,48825,1,0,0:0:0:0:
256,192,49168,1,0,0:0:0:0:
109,192,49511,1,0,0:0:0:0:
329,192,49854,1,0,0:0:0:0:
182,192,50197,1,0,0:0:0:0:
402,192,50540,1,0,0:0:0:0:
36,192,50883,1,0,0:0:0:0:
475,192,51225,1,0,0:0:0:0:
36,192,51568,1,0,0:0:0:0:
109,192,51740,1,0,0:0:0:0:
475,192,51911,1,0,0:0:0:0:
256,192,51911,1,0,0:0:0:0:
182,192,52254,1,0,0:0:0:0:
36,192,52425,1,0,0:0:0:0:
182,192,52597,1,0,0:0:0:0:
329,192,52940,1,0,0:0:0:0:
475,192,53111,1,0,0:0:0:0:
329,192,53283,1,0,0:0:0:0:
109,192,53625,1,0,0:0:0:0:
402,192,53797,1,0,0:0:0:0:
109,192,53968,1,0,0:0:0:0:
329,192,54311,1,0,0:0:0:0:
182,192,54483,1,0,0:0:0:0:
329,192,54654,1,0,0:0:0:0:
36,192,54997,128,0,55683:0:0:0:0:
109,192,54997,128,0,55683:0:0:0:0:
402,192,55683,128,0,56368:0:0:0:0:
475,192,55683,128,0,56368:0:0:0:0:
256,192,56368,128,0,57054:0:0:0:0:
182,192,57054,1,0,0:0:0:0:
329,192,57225,1,0,0:0:0:0:
182,192,57397,1,0,0:0:0:0:
329,192,57568,1,0,0:0:0:0:
182,192,57740,1,0,0:0:0:0:
36,192,57740,1,0,0:0:0:0:
256,192,58083,1,0,0:0:0:0:
329,192,58425,1,0,0:0:0:0:
475,192,58425,1,0,0:0:0:0:
256,192,58768,1,0,0:0:0:0:
109,192,59111,128,0,59797:0:0:0:0:
402,192,59111,128,0,59797:0:0:0:0:
36,192,59797,1,0,0:0:0:0:
475,192,59797,1,0,0:0:0:0:
256,192,60140,128,0,60483:0:0:0:0:
182,192,60483,1,0,0:0:0:0:
329,192,60483,1,0,0:0:0:0:
475,192,60825,1,0,0:0:0:0:
402,192,61168,1,0,0:0:0:0:
109,192,61168,1,0,0:0:0:0:
36,192,61511,1,0,0:0:0:0:
256,192,61854,128,0,62540:0:0:0:0:
182,192,62540,128,0,63225:0:0:0:0:
329,192,62540,128,0,63225:0:0:0:0:
109,192,63225,1,0,0:0:0:0:
402,192,63225,1,0,0:0:0:0:
256,192,63568,1,0,0:0:0:0:
36,192,63911,1,0,0:0:0:0:
475,192,63911,1,0,0:0:0:0:
182,192,64254,1,0,0:0:0:0:
475,192,64597,128,0,65283:0:0:0:0:
402,192,64597,128,0,65283:0:0:0:0:
109,192,65283,128,0,65968:0:0:0:0:
36,192,65283,128,0,65968:0:0:0:0:
256,192,65968,1,0,0:0:0:0:
475,192,65968,1,0,0:0:0:0:
402,192,66311,1,0,0:0:0:0:
329,192,66654,1,0,0:0:0:0:
109,192,66654,1,0,0:0:0:0:
36,192,66997,1,0,0:0:0:0:
256,192,66997,128,0,67340:0:0:0:0:
475,192,67340,1,0,0:0:0:0:
329,192,67340,1,0,0:0:0:0:
182,192,67683,1,0,0:0:0:0:
36,192,68025,1,0,0:0:0:0:
256,192,68368,1,0,0:0:0:0:
109,192,68711,1,0,0:0:0:0:
329,192,69054,1,0,0:0:0:0:
182,192,69397,1,0,0:0:0:0:
402,192,69740,1,0,0:0:0:0:
256,192,70083,128,0,70425:0:0:0:0:
475,192,70425,1,0,0:0:0:0:
329,192,70768,1,0,0:0:0:0:
475,192,71111,1,0,0:0:0:0:
256,192,71454,1,0,0:0:0:0:
402,192,71797,1,0,0:0:0:0:
182,192,72140,1,0,0:0:0:0:
329,192,72483,1,0,0:0:0:0:
109,192,72825,128,0,73511:0:0:0:0:
256,192,73168,1,0,0:0:0:0:
402,192,73511,128,0,74197:0:0:0:0:
256,192,73854,1,0,0:0:0:0:
36,192,74197,128,0,74540:0:0:0:0:
475,192,74197,1,0,0:0:0:0:
329,192,74540,1,0,0:0:0:0:
109,192,74883,1,0,0:0:0:0:
256,192,74883,1,0,0:0:0:0:
402,192,75225,1,0,0:0:0:0:
329,192,75568,1,0,0:0:0:0:
182,192,75911,1,0,0:0:0:0:
256,192,76254,1,0,0:0:0:0:
109,192,76597,1,0,0:0:0:0:
402,192,76940,128,0,77625:0:0:0:0:
256,192,77283,1,0,0:0:0:0:
109,192,77625,128,0,78311:0:0:0:0:
256,192,77968,1,0,0:0:0:0:
475,192,78311,128,0,78654:0:0:0:0:
36,192,78654,1,0,0:0:0:0:
182,192,78997,1,0,0:0:0:0:
329,192,78997,1,0,0:0:0:0:
36,192,79340,1,0,0:0:0:0:
109,192,79683,1,0,0:0:0:0:
475,192,80025,1,0,0:0:0:0:
402,192,80368,1,0,0:0:0:0:
182,192,80711,1,0,0:0:0:0:
329,192,81054,1,0,0:0:0:0:
36,192,81054,1,0,0:0:0:0:
109,192,81397,1,0,0:0:0:0:
402,192,81740,1,0,0:0:0:0:
182,192,82083,1,0,0:0:0:0:
256,192,82254,1,0,0:0:0:0:
329,192,82425,1,0,0:0:0:0:
36,192,82768,1,0,0:0:0:0:
182,192,82768,1,0,0:0:0:0:
329,192,83111,1,0,0:0:0:0:
475,192,83111,1,0,0:0:0:0:
256,192,83625,1,0,0:0:0:0:
182,192,83797,1,0,0:0:0:0:
329,192,83797,1,0,0:0:0:0:
475,192,84140,1,0,0:0:0:0:
402,192,84140,1,0,0:0:0:0:
109,192,84483,1,0,0:0:0:0:
36,192,84483,1,0,0:0:0:0:
182,192,85168,128,0,85511:0:0:0:0:
256,192,85511,1,0,0:0:0:0:
402,192,85511,1,0,0:0:0:0:
329,192,85854,128,0,86197:0:0:0:0:
256,192,86197,1,0,0:0:0:0:
109,192,86197,1,0,0:0:0:0:
36,192,86540,1,0,0:0:0:0:
182,192,86711,1,0,0:0:0:0:
475,192,86883,1,0,0:0:0:0:
329,192,87054,1,0,0:0:0:0:
109,192,87225,128,0,87911:0:0:0:0:
256,192,87568,128,0,87911:0:0:0:0:
329,192,87911,1,0,0:0:0:0:
475,192,87911,1,0,0:0:0:0:
182,192,88254,1,0,0:0:0:0:
402,192,88597,1,0,0:0:0:0:
109,192,88940,1,0,0:0:0:0:
329,192,89283,1,0,0:0:0:0:
182,192,89625,1,0,0:0:0:0:
402,192,89968,1,0,0:0:0:0:
109,192,90311,1,0,0:0:0:0:
329,192,90654,1,0,0:0:0:0:
36,192,90997,1,0,0:0:0:0:
329,192,91340,1,0,0:0:0:0:
182,192,91683,1,0,0:0:0:0:
475,192,92025,1,0,0:0:0:0:
109,192,92368,1,0,0:0:0:0:
402,192,92711,1,0,0:0:0:0:
36,192,93054,1,0,0:0:0:0:
256,192,93054,128,0,93397:0:0:0:0:
329,192,93397,1,0,0:0:0:0:
182,192,93397,1,0,0:0:0:0:
475,192,93568,1,0,0:0:0:0:
329,192,93740,1,0,0:0:0:0:
182,192,94083,1,0,0:0:0:0:
36,192,94254,1,0,0:0:0:0:
182,192,94425,1,0,0:0:0:0:
402,192,94768,1,0,0:0:0:0:
256,192,94940,1,0,0:0:0:0:
402,192,95111,1,0,0:0:0:0:
109,192,95454,1,0,0:0:0:0:
256,192,95625,1,0,0:0:0:0:
109,192,95797,1,0,0:0:0:0:
402,192,96140,128,0,96825:0:0:0:0:
475,192,96140,128,0,96825:0:0:0:0:
109,192,96825,128,0,97511:0:0:0:0:
36,192,96825,128,0,97511:0:0:0:0:
256,192,97511,1,0,0:0:0:0:
402,192,97511,1,0,0:0:0:0:
182,192,98540,1,0,0:0:0:0:
329,192,98540,1,0,0:0:0:0:
475,192,98883,1,0,0:0:0:0:
36,192,98883,1,0,0:0:0:0:
109,192,99235,1,0,0:0:0:0:
402,192,99235,1,0,0:0:0:0:
256,192,99578,1,0,0:0:0:0:
182,192,99921,1,0,0:0:0:0:
329,192,99921,1,0,0:0:0:0:
36,192,100264,128,0,101635:0:0:0:0:
256,192,100607,1,0,0:0:0:0:
109,192,100950,1,0,0:0:0:0:
402,192,101293,1,0,0:0:0:0:
182,192,101635,1,0,0:0:0:0:
329,192,101635,1,0,0:0:0:0:
36,192,101978,1,0,0:0:0:0:
475,192,101978,1,0,0:0:0:0:
256,192,102321,1,0,0:0:0:0:
109,192,102664,1,0,0:0:0:0:
402,192,102664,1,0,0:0:0:0:
475,192,103007,128,0,104378:0:0:0:0:
256,192,103350,1,0,0:0:0:0:
36,192,103693,1,0,0:0:0:0:
182,192,104035,1,0,0:0:0:0:
402,192,104378,1,0,0:0:0:0:
256,192,104721,1,0,0:0:0:0:
36,192,104721,1,0,0:0:0:0:
402,192,105064,1,0,0:0:0:0:
109,192,105407,1,0,0:0:0:0:
329,192,105407,1,0,0:0:0:0:
256,192,105750,128,0,106778:0:0:0:0:
36,192,105750,128,0,106778:0:0:0:0:
329,192,106778,1,0,0:0:0:0:
475,192,106778,1,0,0:0:0:0:
109,192,107121,128,0,107464:0:0:0:0:
329,192,107464,128,0,107807:0:0:0:0:
182,192,107807,128,0,108150:0:0:0:0:
402,192,108150,128,0,108493:0:0:0:0:
36,192,108493,128,0,109864:0:0:0:0:
182,192,108835,1,0,0:0:0:0:
475,192,109178,1,0,0:0:0:0:
329,192,109521,1,0,0:0:0:0:
256,192,109864,128,0,111235:0:0:0:0:
109,192,110207,1,0,0:0:0:0:
402,192,110550,1,0,0:0:0:0:
109,192,110893,1,0,0:0:0:0:
475,192,111235,128,0,112607:0:0:0:0:
109,192,111578,1,0,0:0:0:0:
329,192,111921,1,0,0:0:0:0:
182,192,112264,1,0,0:0:0:0:
109,192,112435,1,0,0:0:0:0:
36,192,112607,1,0,0:0:0:0:
256,192,112607,1,0,0:0:0:0:
329,192,112950,1,0,0:0:0:0:
109,192,113464,1,0,0:0:0:0:
182,192,113635,1,0,0:0:0:0:
402,192,113635,1,0,0:0:0:0:
329,192,114150,1,0,0:0:0:0:
36,192,114321,1,0,0:0:0:0:
256,192,114321,1,0,0:0:0:0:
182,192,114835,1,0,0:0:0:0:
109,192,115007,1,0,0:0:0:0:
402,192,115007,1,0,0:0:0:0:
256,192,115350,1,0,0:0:0:0:
36,192,115350,1,0,0:0:0:0:
109,192,115693,1,0,0:0:0:0:
182,192,115864,1,0,0:0:0:0:
475,192,116035,1,0,0:0:0:0:
256,192,116035,1,0,0:0:0:0:
36,192,116378,1,0,0:0:0:0:
109,192,116721,1,0,0:0:0:0:
402,192,116721,1,0,0:0:0:0:
256,192,117064,128,0,119121:0:0:0:0:
