osu file format v14

[General]
AudioFilename: Memme - Avalanche.mp3
AudioLeadIn: 0
PreviewTime: 57740
Countdown: 0
SampleSet: Soft
StackLeniency: 0.7
Mode: 3
LetterboxInBreaks: 0
SpecialStyle: 0
WidescreenStoryboard: 0

[Editor]
DistanceSpacing: 0.6
BeatDivisor: 4
GridSize: 4
TimelineZoom: 1.8

[Metadata]
Title:Avalanche
TitleUnicode:Avalanche
Artist:Memme
ArtistUnicode:Memme
Creator:JamesHappy
Version:5K Hyper
Source:Pump It Up Prime
Tags:parkmemme winter 4 Seasons classical drumstep dubstep PIU Antonio Lucio Vivaldi AnatOWJIya AJIekceu
BeatmapID:742445
BeatmapSetID:335394

[Difficulty]
HPDrainRate:7.5
CircleSize:5
OverallDifficulty:7.5
ApproachRate:5
SliderMultiplier:1.4
SliderTickRate:1

[Events]
//Background and Video events
0,0,"5K.jpg",0,0
//Break Periods
//Storyboard Layer 0 (Background)
//Storyboard Layer 1 (Fail)
//Storyboard Layer 2 (Pass)
//Storyboard Layer 3 (Foreground)
//Storyboard Sound Samples

[TimingPoints]
2883,342.857142857143,4,2,1,5,1,0
57740,-100,4,2,1,5,0,1
67340,-100,4,2,1,5,0,0
98893,342.857142857143,4,2,1,5,1,1
117064,-100,4,2,1,5,0,0

[HitObjects]
182,192,2882,5,0,0:0:0:0:
36,192,2882,1,0,0:0:0:0:
358,192,2882,1,0,0:0:0:0:
460,192,3054,1,0,0:0:0:0:
256,192,3225,1,0,0:0:0:0:
153,192,3397,1,0,0:0:0:0:
51,192,3568,1,0,0:0:0:0:
460,192,3568,1,0,0:0:0:0:
256,192,3740,1,0,0:0:0:0:
329,192,3911,1,0,0:0:0:0:
153,192,4082,1,0,0:0:0:0:
256,192,4254,1,0,0:0:0:0:
460,192,4254,1,0,0:0:0:0:
51,192,4425,1,0,0:0:0:0:
358,192,4597,1,0,0:0:0:0:
153,192,4768,1,0,0:0:0:0:
256,192,4940,1,0,0:0:0:0:
460,192,4940,1,0,0:0:0:0:
358,192,5111,1,0,0:0:0:0:
153,192,5283,1,0,0:0:0:0:
51,192,5454,1,0,0:0:0:0:
256,192,5625,1,0,0:0:0:0:
460,192,5625,128,0,5797:0:0:0:0:
51,192,5797,1,0,0:0:0:0:
358,192,5968,1,0,0:0:0:0:
153,192,6140,1,0,0:0:0:0:
460,192,6311,1,0,0:0:0:0:
51,192,6311,128,0,6483:0:0:0:0:
256,192,6483,1,0,0:0:0:0:
460,192,6654,1,0,0:0:0:0:
358,192,6825,1,0,0:0:0:0:
153,192,6997,1,0,0:0:0:0:
460,192,6997,128,0,7168:0:0:0:0:
256,192,7168,1,0,0:0:0:0:
51,192,7340,128,0,7511:0:0:0:0:
358,192,7340,1,0,0:0:0:0:
153,192,7511,1,0,0:0:0:0:
256,192,7683,1,0,0:0:0:0:
460,192,7683,128,0,7854:0:0:0:0:
358,192,7854,1,0,0:0:0:0:
153,192,8025,1,0,0:0:0:0:
51,192,8025,128,0,8197:0:0:0:0:
256,192,8197,1,0,0:0:0:0:
460,192,8368,1,0,0:0:0:0:
358,192,8368,128,0,8540:0:0:0:0:
256,192,8540,1,0,0:0:0:0:
51,192,8711,1,0,0:0:0:0:
153,192,8711,128,0,8883:0:0:0:0:
256,192,8883,1,0,0:0:0:0:
460,192,9054,1,0,0:0:0:0:
358,192,9054,128,0,9225:0:0:0:0:
256,192,9225,1,0,0:0:0:0:
51,192,9397,1,0,0:0:0:0:
153,192,9397,128,0,9568:0:0:0:0:
256,192,9568,1,0,0:0:0:0:
51,192,9740,1,0,0:0:0:0:
460,192,9740,128,0,9911:0:0:0:0:
358,192,9911,1,0,0:0:0:0:
51,192,10083,1,0,0:0:0:0:
256,192,10083,128,0,10254:0:0:0:0:
153,192,10254,1,0,0:0:0:0:
51,192,10425,1,0,0:0:0:0:
460,192,10425,128,0,10597:0:0:0:0:
358,192,10597,1,0,0:0:0:0:
51,192,10768,1,0,0:0:0:0:
256,192,10768,128,0,10940:0:0:0:0:
153,192,10940,1,0,0:0:0:0:
475,192,11111,1,0,0:0:0:0:
51,192,11111,128,0,11283:0:0:0:0:
153,192,11283,1,0,0:0:0:0:
460,192,11454,1,0,0:0:0:0:
256,192,11454,128,0,11625:0:0:0:0:
358,192,11625,1,0,0:0:0:0:
460,192,11797,1,0,0:0:0:0:
51,192,11797,128,0,11968:0:0:0:0:
153,192,11968,1,0,0:0:0:0:
460,192,12140,1,0,0:0:0:0:
256,192,12140,128,0,12311:0:0:0:0:
358,192,12311,1,0,0:0:0:0:
36,192,12483,1,0,0:0:0:0:
460,192,12483,1,0,0:0:0:0:
153,192,12568,1,0,0:0:0:0:
256,192,12654,1,0,0:0:0:0:
358,192,12740,1,0,0:0:0:0:
460,192,12825,1,0,0:0:0:0:
51,192,12825,1,0,0:0:0:0:
153,192,12911,1,0,0:0:0:0:
256,192,12997,1,0,0:0:0:0:
358,192,13083,1,0,0:0:0:0:
51,192,13168,128,0,13511:0:0:0:0:
460,192,13168,128,0,13511:0:0:0:0:
256,192,13511,1,0,0:0:0:0:
153,192,13683,1,0,0:0:0:0:
358,192,13683,1,0,0:0:0:0:
460,192,13854,1,0,0:0:0:0:
256,192,13854,1,0,0:0:0:0:
51,192,13854,1,0,0:0:0:0:
36,192,14197,1,0,0:0:0:0:
358,192,14197,1,0,0:0:0:0:
153,192,14368,1,0,0:0:0:0:
256,192,14540,1,0,0:0:0:0:
460,192,14540,1,0,0:0:0:0:
51,192,14711,1,0,0:0:0:0:
153,192,14883,1,0,0:0:0:0:
358,192,14883,1,0,0:0:0:0:
460,192,15054,1,0,0:0:0:0:
256,192,15225,1,0,0:0:0:0:
51,192,15225,1,0,0:0:0:0:
358,192,15397,1,0,0:0:0:0:
460,192,15568,1,0,0:0:0:0:
153,192,15568,1,0,0:0:0:0:
256,192,15740,1,0,0:0:0:0:
358,192,15911,1,0,0:0:0:0:
51,192,15911,1,0,0:0:0:0:
153,192,16083,1,0,0:0:0:0:
256,192,16254,1,0,0:0:0:0:
460,192,16254,1,0,0:0:0:0:
51,192,16425,1,0,0:0:0:0:
153,192,16597,1,0,0:0:0:0:
358,192,16597,1,0,0:0:0:0:
256,192,16768,1,0,0:0:0:0:
460,192,16940,1,0,0:0:0:0:
153,192,16940,1,0,0:0:0:0:
358,192,17111,1,0,0:0:0:0:
51,192,17283,1,0,0:0:0:0:
256,192,17283,1,0,0:0:0:0:
460,192,17454,1,0,0:0:0:0:
358,192,17625,1,0,0:0:0:0:
153,192,17625,1,0,0:0:0:0:
51,192,17797,1,0,0:0:0:0:
460,192,17968,1,0,0:0:0:0:
256,192,17968,1,0,0:0:0:0:
153,192,18140,1,0,0:0:0:0:
51,192,18311,1,0,0:0:0:0:
358,192,18311,1,0,0:0:0:0:
256,192,18483,1,0,0:0:0:0:
153,192,18654,1,0,0:0:0:0:
460,192,18654,1,0,0:0:0:0:
358,192,18825,1,0,0:0:0:0:
256,192,18997,1,0,0:0:0:0:
51,192,18997,1,0,0:0:0:0:
460,192,19168,1,0,0:0:0:0:
358,192,19340,1,0,0:0:0:0:
153,192,19340,1,0,0:0:0:0:
256,192,19511,1,0,0:0:0:0:
51,192,19683,1,0,0:0:0:0:
460,192,19683,1,0,0:0:0:0:
153,192,19854,1,0,0:0:0:0:
256,192,20025,1,0,0:0:0:0:
460,192,20025,1,0,0:0:0:0:
51,192,20197,1,0,0:0:0:0:
153,192,20368,1,0,0:0:0:0:
358,192,20368,1,0,0:0:0:0:
460,192,20540,1,0,0:0:0:0:
51,192,20711,1,0,0:0:0:0:
256,192,20711,1,0,0:0:0:0:
358,192,20883,1,0,0:0:0:0:
460,192,21054,1,0,0:0:0:0:
153,192,21054,1,0,0:0:0:0:
256,192,21225,1,0,0:0:0:0:
51,192,21397,1,0,0:0:0:0:
358,192,21397,1,0,0:0:0:0:
153,192,21568,1,0,0:0:0:0:
256,192,21740,1,0,0:0:0:0:
460,192,21740,1,0,0:0:0:0:
51,192,21911,1,0,0:0:0:0:
153,192,22083,1,0,0:0:0:0:
358,192,22083,1,0,0:0:0:0:
256,192,22254,1,0,0:0:0:0:
460,192,22425,1,0,0:0:0:0:
153,192,22425,1,0,0:0:0:0:
358,192,22597,1,0,0:0:0:0:
256,192,22768,1,0,0:0:0:0:
51,192,22768,1,0,0:0:0:0:
460,192,22940,1,0,0:0:0:0:
153,192,23111,1,0,0:0:0:0:
358,192,23111,1,0,0:0:0:0:
51,192,23283,1,0,0:0:0:0:
256,192,23454,1,0,0:0:0:0:
460,192,23454,1,0,0:0:0:0:
358,192,23540,1,0,0:0:0:0:
153,192,23625,1,0,0:0:0:0:
460,192,23711,1,0,0:0:0:0:
256,192,23797,1,0,0:0:0:0:
51,192,23883,1,0,0:0:0:0:
358,192,23968,1,0,0:0:0:0:
153,192,24054,1,0,0:0:0:0:
460,192,24140,1,0,0:0:0:0:
358,192,24225,1,0,0:0:0:0:
256,192,24311,1,0,0:0:0:0:
153,192,24397,1,0,0:0:0:0:
358,192,24483,1,0,0:0:0:0:
51,192,24483,1,0,0:0:0:0:
460,192,24483,1,0,0:0:0:0:
153,192,24825,1,0,0:0:0:0:
51,192,24825,128,0,26197:0:0:0:0:
358,192,24997,1,0,0:0:0:0:
153,192,25168,1,0,0:0:0:0:
358,192,25340,1,0,0:0:0:0:
460,192,25511,1,0,0:0:0:0:
153,192,25511,128,0,26197:0:0:0:0:
256,192,25683,1,0,0:0:0:0:
460,192,25854,1,0,0:0:0:0:
256,192,26025,1,0,0:0:0:0:
358,192,26197,1,0,0:0:0:0:
460,192,26197,128,0,27568:0:0:0:0:
153,192,26368,1,0,0:0:0:0:
358,192,26540,1,0,0:0:0:0:
153,192,26711,1,0,0:0:0:0:
358,192,26883,128,0,27568:0:0:0:0:
51,192,26883,1,0,0:0:0:0:
256,192,27054,1,0,0:0:0:0:
51,192,27225,1,0,0:0:0:0:
256,192,27397,1,0,0:0:0:0:
153,192,27568,1,0,0:0:0:0:
51,192,27568,1,0,0:0:0:0:
256,192,27654,1,0,0:0:0:0:
153,192,27740,1,0,0:0:0:0:
358,192,27825,1,0,0:0:0:0:
256,192,27911,1,0,0:0:0:0:
51,192,27911,1,0,0:0:0:0:
460,192,27997,1,0,0:0:0:0:
358,192,28083,1,0,0:0:0:0:
256,192,28168,1,0,0:0:0:0:
51,192,28254,1,0,0:0:0:0:
153,192,28254,1,0,0:0:0:0:
460,192,28254,128,0,28597:0:0:0:0:
256,192,28597,128,0,28940:0:0:0:0:
51,192,28940,1,0,0:0:0:0:
460,192,28940,1,0,0:0:0:0:
358,192,28940,1,0,0:0:0:0:
153,192,29283,1,0,0:0:0:0:
51,192,29283,1,0,0:0:0:0:
358,192,29283,1,0,0:0:0:0:
256,192,29454,1,0,0:0:0:0:
460,192,29454,1,0,0:0:0:0:
109,192,29797,1,0,0:0:0:0:
51,192,29797,1,0,0:0:0:0:
358,192,29968,1,0,0:0:0:0:
460,192,29968,1,0,0:0:0:0:
51,192,30140,1,0,0:0:0:0:
256,192,30140,1,0,0:0:0:0:
153,192,30140,1,0,0:0:0:0:
51,192,30483,1,0,0:0:0:0:
153,192,30483,1,0,0:0:0:0:
460,192,30654,1,0,0:0:0:0:
256,192,30654,1,0,0:0:0:0:
358,192,30654,1,0,0:0:0:0:
153,192,30825,1,0,0:0:0:0:
51,192,30825,1,0,0:0:0:0:
460,192,31168,1,0,0:0:0:0:
358,192,31254,1,0,0:0:0:0:
256,192,31340,1,0,0:0:0:0:
51,192,31340,128,0,31683:0:0:0:0:
153,192,31340,1,0,0:0:0:0:
358,192,31683,1,0,0:0:0:0:
460,192,31683,128,0,33054:0:0:0:0:
153,192,31854,1,0,0:0:0:0:
358,192,32025,1,0,0:0:0:0:
153,192,32197,1,0,0:0:0:0:
51,192,32368,1,0,0:0:0:0:
358,192,32368,128,0,33054:0:0:0:0:
256,192,32540,1,0,0:0:0:0:
51,192,32711,1,0,0:0:0:0:
256,192,32883,1,0,0:0:0:0:
51,192,33054,128,0,34425:0:0:0:0:
153,192,33054,1,0,0:0:0:0:
358,192,33225,1,0,0:0:0:0:
153,192,33397,1,0,0:0:0:0:
358,192,33568,1,0,0:0:0:0:
153,192,33740,128,0,34425:0:0:0:0:
460,192,33740,1,0,0:0:0:0:
256,192,33911,1,0,0:0:0:0:
460,192,34083,1,0,0:0:0:0:
256,192,34254,1,0,0:0:0:0:
460,192,34425,1,0,0:0:0:0:
358,192,34425,1,0,0:0:0:0:
460,192,34768,1,0,0:0:0:0:
51,192,34940,1,0,0:0:0:0:
153,192,35025,1,0,0:0:0:0:
460,192,35111,1,0,0:0:0:0:
256,192,35111,1,0,0:0:0:0:
358,192,35283,1,0,0:0:0:0:
256,192,35368,1,0,0:0:0:0:
153,192,35454,1,0,0:0:0:0:
51,192,35454,1,0,0:0:0:0:
460,192,35797,1,0,0:0:0:0:
256,192,35797,1,0,0:0:0:0:
51,192,35797,1,0,0:0:0:0:
358,192,36140,1,0,0:0:0:0:
460,192,36140,1,0,0:0:0:0:
153,192,36311,1,0,0:0:0:0:
51,192,36311,1,0,0:0:0:0:
256,192,36311,1,0,0:0:0:0:
36,192,36654,1,0,0:0:0:0:
256,192,36654,1,0,0:0:0:0:
358,192,36825,1,0,0:0:0:0:
153,192,36825,1,0,0:0:0:0:
256,192,36997,1,0,0:0:0:0:
51,192,36997,1,0,0:0:0:0:
460,192,36997,1,0,0:0:0:0:
51,192,37340,1,0,0:0:0:0:
460,192,37340,1,0,0:0:0:0:
256,192,37511,1,0,0:0:0:0:
153,192,37511,1,0,0:0:0:0:
358,192,37511,1,0,0:0:0:0:
51,192,37683,1,0,0:0:0:0:
460,192,37683,1,0,0:0:0:0:
153,192,38025,1,0,0:0:0:0:
51,192,38025,128,0,38540:0:0:0:0:
358,192,38025,1,0,0:0:0:0:
475,192,38540,128,0,39911:0:0:0:0:
256,192,38540,1,0,0:0:0:0:
358,192,38540,1,0,0:0:0:0:
153,192,38711,1,0,0:0:0:0:
358,192,38883,1,0,0:0:0:0:
153,192,39054,1,0,0:0:0:0:
36,192,39225,128,0,39911:0:0:0:0:
358,192,39225,1,0,0:0:0:0:
153,192,39397,1,0,0:0:0:0:
358,192,39568,1,0,0:0:0:0:
153,192,39740,1,0,0:0:0:0:
402,192,39911,128,0,41283:0:0:0:0:
256,192,39911,1,0,0:0:0:0:
51,192,40083,1,0,0:0:0:0:
256,192,40254,1,0,0:0:0:0:
51,192,40425,1,0,0:0:0:0:
153,192,40597,128,0,41283:0:0:0:0:
460,192,40597,1,0,0:0:0:0:
256,192,40768,1,0,0:0:0:0:
460,192,40940,1,0,0:0:0:0:
256,192,41111,1,0,0:0:0:0:
460,192,41283,1,0,0:0:0:0:
51,192,41283,128,0,41968:0:0:0:0:
358,192,41454,1,0,0:0:0:0:
256,192,41625,1,0,0:0:0:0:
153,192,41797,1,0,0:0:0:0:
358,192,41968,1,0,0:0:0:0:
475,192,41968,128,0,42654:0:0:0:0:
256,192,42140,1,0,0:0:0:0:
153,192,42311,1,0,0:0:0:0:
51,192,42483,1,0,0:0:0:0:
256,192,42654,1,0,0:0:0:0:
358,192,42654,128,0,42825:0:0:0:0:
51,192,42825,1,0,0:0:0:0:
153,192,42997,128,0,43168:0:0:0:0:
460,192,43168,1,0,0:0:0:0:
358,192,43340,128,0,43511:0:0:0:0:
51,192,43511,1,0,0:0:0:0:
153,192,43683,128,0,43854:0:0:0:0:
256,192,43854,1,0,0:0:0:0:
460,192,44025,128,0,44197:0:0:0:0:
358,192,44197,1,0,0:0:0:0:
51,192,44368,128,0,44540:0:0:0:0:
153,192,44540,1,0,0:0:0:0:
460,192,44711,128,0,44883:0:0:0:0:
358,192,44883,1,0,0:0:0:0:
51,192,45054,128,0,45225:0:0:0:0:
153,192,45225,1,0,0:0:0:0:
460,192,45397,128,0,45568:0:0:0:0:
153,192,45568,1,0,0:0:0:0:
51,192,45654,1,0,0:0:0:0:
358,192,45740,128,0,45911:0:0:0:0:
256,192,45825,1,0,0:0:0:0:
51,192,45911,1,0,0:0:0:0:
256,192,46083,128,0,46254:0:0:0:0:
358,192,46168,1,0,0:0:0:0:
460,192,46254,1,0,0:0:0:0:
51,192,46425,128,0,46768:0:0:0:0:
153,192,46425,128,0,46768:0:0:0:0:
460,192,46768,1,0,0:0:0:0:
358,192,46768,1,0,0:0:0:0:
256,192,46768,1,0,0:0:0:0:
153,192,46940,1,0,0:0:0:0:
51,192,47111,1,0,0:0:0:0:
256,192,47111,1,0,0:0:0:0:
358,192,47283,1,0,0:0:0:0:
256,192,47454,1,0,0:0:0:0:
460,192,47454,1,0,0:0:0:0:
153,192,47625,1,0,0:0:0:0:
256,192,47797,1,0,0:0:0:0:
51,192,47797,1,0,0:0:0:0:
358,192,47968,1,0,0:0:0:0:
460,192,48140,1,0,0:0:0:0:
256,192,48140,1,0,0:0:0:0:
51,192,48311,1,0,0:0:0:0:
256,192,48483,1,0,0:0:0:0:
153,192,48483,1,0,0:0:0:0:
460,192,48654,1,0,0:0:0:0:
358,192,48825,1,0,0:0:0:0:
256,192,48825,1,0,0:0:0:0:
51,192,48997,1,0,0:0:0:0:
256,192,49168,1,0,0:0:0:0:
153,192,49168,1,0,0:0:0:0:
460,192,49340,1,0,0:0:0:0:
256,192,49511,1,0,0:0:0:0:
358,192,49511,1,0,0:0:0:0:
51,192,49683,1,0,0:0:0:0:
460,192,49854,1,0,0:0:0:0:
153,192,49854,1,0,0:0:0:0:
256,192,50025,1,0,0:0:0:0:
358,192,50197,1,0,0:0:0:0:
51,192,50197,1,0,0:0:0:0:
153,192,50368,1,0,0:0:0:0:
460,192,50540,1,0,0:0:0:0:
256,192,50540,1,0,0:0:0:0:
51,192,50711,1,0,0:0:0:0:
460,192,50883,1,0,0:0:0:0:
153,192,50883,1,0,0:0:0:0:
358,192,51054,1,0,0:0:0:0:
256,192,51225,1,0,0:0:0:0:
51,192,51225,1,0,0:0:0:0:
460,192,51397,1,0,0:0:0:0:
153,192,51568,1,0,0:0:0:0:
358,192,51568,1,0,0:0:0:0:
460,192,51740,1,0,0:0:0:0:
358,192,51825,1,0,0:0:0:0:
51,192,51911,1,0,0:0:0:0:
256,192,51911,1,0,0:0:0:0:
153,192,51911,1,0,0:0:0:0:
460,192,52254,1,0,0:0:0:0:
256,192,52254,1,0,0:0:0:0:
358,192,52254,1,0,0:0:0:0:
153,192,52425,1,0,0:0:0:0:
358,192,52425,1,0,0:0:0:0:
256,192,52597,1,0,0:0:0:0:
51,192,52597,1,0,0:0:0:0:
153,192,52768,1,0,0:0:0:0:
358,192,52768,1,0,0:0:0:0:
256,192,52940,1,0,0:0:0:0:
460,192,52940,1,0,0:0:0:0:
358,192,53111,1,0,0:0:0:0:
153,192,53111,1,0,0:0:0:0:
256,192,53283,1,0,0:0:0:0:
460,192,53283,1,0,0:0:0:0:
153,192,53454,1,0,0:0:0:0:
358,192,53454,1,0,0:0:0:0:
51,192,53625,1,0,0:0:0:0:
256,192,53625,1,0,0:0:0:0:
460,192,53625,1,0,0:0:0:0:
402,192,53797,1,0,0:0:0:0:
460,192,53797,1,0,0:0:0:0:
153,192,53968,1,0,0:0:0:0:
51,192,53968,1,0,0:0:0:0:
256,192,54140,1,0,0:0:0:0:
358,192,54140,1,0,0:0:0:0:
153,192,54311,1,0,0:0:0:0:
51,192,54311,1,0,0:0:0:0:
460,192,54483,1,0,0:0:0:0:
358,192,54483,1,0,0:0:0:0:
256,192,54654,1,0,0:0:0:0:
153,192,54654,1,0,0:0:0:0:
358,192,54825,1,0,0:0:0:0:
460,192,54825,1,0,0:0:0:0:
51,192,54997,1,0,0:0:0:0:
358,192,55083,1,0,0:0:0:0:
51,192,55168,1,0,0:0:0:0:
358,192,55254,1,0,0:0:0:0:
51,192,55340,1,0,0:0:0:0:
358,192,55425,1,0,0:0:0:0:
51,192,55511,1,0,0:0:0:0:
358,192,55597,1,0,0:0:0:0:
153,192,55683,1,0,0:0:0:0:
460,192,55768,1,0,0:0:0:0:
153,192,55854,1,0,0:0:0:0:
460,192,55940,1,0,0:0:0:0:
153,192,56025,1,0,0:0:0:0:
460,192,56111,1,0,0:0:0:0:
153,192,56197,1,0,0:0:0:0:
460,192,56283,1,0,0:0:0:0:
256,192,56368,128,0,57054:0:0:0:0:
358,192,56368,128,0,57054:0:0:0:0:
51,192,57054,1,0,0:0:0:0:
460,192,57225,1,0,0:0:0:0:
51,192,57397,1,0,0:0:0:0:
460,192,57568,1,0,0:0:0:0:
153,192,57740,1,0,0:0:0:0:
358,192,57740,1,0,0:0:0:0:
256,192,57740,1,0,0:0:0:0:
256,192,58083,1,0,0:0:0:0:
460,192,58083,1,0,0:0:0:0:
153,192,58254,1,0,0:0:0:0:
329,192,58425,1,0,0:0:0:0:
475,192,58425,1,0,0:0:0:0:
51,192,58425,1,0,0:0:0:0:
256,192,58597,1,0,0:0:0:0:
153,192,58768,1,0,0:0:0:0:
460,192,58768,1,0,0:0:0:0:
358,192,58940,1,0,0:0:0:0:
256,192,59111,1,0,0:0:0:0:
51,192,59111,128,0,59797:0:0:0:0:
153,192,59283,1,0,0:0:0:0:
358,192,59368,1,0,0:0:0:0:
256,192,59454,1,0,0:0:0:0:
460,192,59540,1,0,0:0:0:0:
153,192,59625,1,0,0:0:0:0:
358,192,59711,1,0,0:0:0:0:
256,192,59797,1,0,0:0:0:0:
460,192,59797,1,0,0:0:0:0:
51,192,59968,1,0,0:0:0:0:
153,192,60025,1,0,0:0:0:0:
256,192,60083,1,0,0:0:0:0:
460,192,60140,128,0,60483:0:0:0:0:
358,192,60140,128,0,60483:0:0:0:0:
256,192,60483,1,0,0:0:0:0:
153,192,60483,1,0,0:0:0:0:
51,192,60483,1,0,0:0:0:0:
460,192,60825,1,0,0:0:0:0:
153,192,60825,1,0,0:0:0:0:
358,192,60997,1,0,0:0:0:0:
256,192,61168,1,0,0:0:0:0:
51,192,61168,1,0,0:0:0:0:
153,192,61168,1,0,0:0:0:0:
460,192,61340,1,0,0:0:0:0:
402,192,61511,1,0,0:0:0:0:
153,192,61511,1,0,0:0:0:0:
51,192,61683,1,0,0:0:0:0:
256,192,61854,1,0,0:0:0:0:
358,192,62025,1,0,0:0:0:0:
153,192,62111,1,0,0:0:0:0:
358,192,62197,1,0,0:0:0:0:
153,192,62283,1,0,0:0:0:0:
256,192,62368,1,0,0:0:0:0:
358,192,62454,1,0,0:0:0:0:
153,192,62540,128,0,63225:0:0:0:0:
51,192,62540,128,0,63225:0:0:0:0:
460,192,62540,1,0,0:0:0:0:
358,192,63225,1,0,0:0:0:0:
460,192,63225,1,0,0:0:0:0:
256,192,63225,1,0,0:0:0:0:
153,192,63568,1,0,0:0:0:0:
460,192,63568,1,0,0:0:0:0:
358,192,63740,1,0,0:0:0:0:
153,192,63911,1,0,0:0:0:0:
256,192,63911,1,0,0:0:0:0:
51,192,63911,1,0,0:0:0:0:
460,192,64083,1,0,0:0:0:0:
358,192,64254,1,0,0:0:0:0:
51,192,64254,1,0,0:0:0:0:
256,192,64425,1,0,0:0:0:0:
460,192,64597,128,0,65283:0:0:0:0:
51,192,64597,128,0,65283:0:0:0:0:
153,192,64768,1,0,0:0:0:0:
358,192,64854,1,0,0:0:0:0:
256,192,64940,1,0,0:0:0:0:
153,192,65025,1,0,0:0:0:0:
358,192,65111,1,0,0:0:0:0:
109,192,65283,128,0,65968:0:0:0:0:
256,192,65283,128,0,65968:0:0:0:0:
358,192,65968,1,0,0:0:0:0:
460,192,65968,1,0,0:0:0:0:
51,192,66311,1,0,0:0:0:0:
256,192,66311,1,0,0:0:0:0:
358,192,66483,1,0,0:0:0:0:
153,192,66654,1,0,0:0:0:0:
51,192,66654,1,0,0:0:0:0:
460,192,66654,1,0,0:0:0:0:
256,192,66825,1,0,0:0:0:0:
358,192,66825,1,0,0:0:0:0:
153,192,66911,1,0,0:0:0:0:
36,192,66997,1,0,0:0:0:0:
460,192,66997,128,0,67340:0:0:0:0:
358,192,67340,1,0,0:0:0:0:
256,192,67340,1,0,0:0:0:0:
51,192,67340,1,0,0:0:0:0:
153,192,67511,1,0,0:0:0:0:
256,192,67683,1,0,0:0:0:0:
460,192,67683,1,0,0:0:0:0:
51,192,67854,1,0,0:0:0:0:
153,192,68025,1,0,0:0:0:0:
358,192,68025,1,0,0:0:0:0:
460,192,68197,1,0,0:0:0:0:
51,192,68368,1,0,0:0:0:0:
256,192,68368,1,0,0:0:0:0:
358,192,68540,1,0,0:0:0:0:
109,192,68711,1,0,0:0:0:0:
460,192,68711,1,0,0:0:0:0:
256,192,68883,1,0,0:0:0:0:
329,192,69054,1,0,0:0:0:0:
51,192,69054,1,0,0:0:0:0:
153,192,69225,1,0,0:0:0:0:
256,192,69397,1,0,0:0:0:0:
460,192,69397,1,0,0:0:0:0:
51,192,69568,1,0,0:0:0:0:
358,192,69740,1,0,0:0:0:0:
153,192,69740,1,0,0:0:0:0:
460,192,69911,1,0,0:0:0:0:
358,192,70083,128,0,70425:0:0:0:0:
51,192,70083,1,0,0:0:0:0:
256,192,70083,1,0,0:0:0:0:
475,192,70425,1,0,0:0:0:0:
153,192,70425,1,0,0:0:0:0:
358,192,70597,1,0,0:0:0:0:
256,192,70768,128,0,71111:0:0:0:0:
51,192,70768,1,0,0:0:0:0:
153,192,70940,1,0,0:0:0:0:
460,192,71111,128,0,71454:0:0:0:0:
358,192,71111,1,0,0:0:0:0:
51,192,71283,1,0,0:0:0:0:
153,192,71454,128,0,71797:0:0:0:0:
358,192,71454,1,0,0:0:0:0:
256,192,71625,1,0,0:0:0:0:
51,192,71797,1,0,0:0:0:0:
358,192,71797,128,0,72140:0:0:0:0:
460,192,71968,1,0,0:0:0:0:
51,192,72140,128,0,72483:0:0:0:0:
256,192,72140,1,0,0:0:0:0:
153,192,72311,1,0,0:0:0:0:
256,192,72483,128,0,72825:0:0:0:0:
460,192,72483,1,0,0:0:0:0:
358,192,72654,1,0,0:0:0:0:
460,192,72825,128,0,73511:0:0:0:0:
51,192,72825,1,0,0:0:0:0:
153,192,72825,1,0,0:0:0:0:
358,192,73168,128,0,73511:0:0:0:0:
153,192,73168,1,0,0:0:0:0:
51,192,73511,128,0,74197:0:0:0:0:
256,192,73511,1,0,0:0:0:0:
358,192,73854,1,0,0:0:0:0:
153,192,73854,128,0,74197:0:0:0:0:
460,192,74197,128,0,74540:0:0:0:0:
256,192,74197,1,0,0:0:0:0:
358,192,74197,1,0,0:0:0:0:
256,192,74540,1,0,0:0:0:0:
51,192,74540,1,0,0:0:0:0:
153,192,74711,1,0,0:0:0:0:
51,192,74883,1,0,0:0:0:0:
256,192,74883,1,0,0:0:0:0:
460,192,74883,1,0,0:0:0:0:
358,192,75054,1,0,0:0:0:0:
153,192,75225,1,0,0:0:0:0:
460,192,75225,1,0,0:0:0:0:
256,192,75397,1,0,0:0:0:0:
51,192,75568,1,0,0:0:0:0:
358,192,75568,1,0,0:0:0:0:
153,192,75740,1,0,0:0:0:0:
256,192,75911,1,0,0:0:0:0:
460,192,75911,1,0,0:0:0:0:
51,192,76083,1,0,0:0:0:0:
153,192,76254,1,0,0:0:0:0:
358,192,76254,1,0,0:0:0:0:
460,192,76425,1,0,0:0:0:0:
51,192,76597,1,0,0:0:0:0:
256,192,76597,1,0,0:0:0:0:
358,192,76768,1,0,0:0:0:0:
51,192,76940,128,0,77625:0:0:0:0:
460,192,76940,1,0,0:0:0:0:
358,192,77283,1,0,0:0:0:0:
153,192,77283,128,0,77625:0:0:0:0:
460,192,77625,128,0,78311:0:0:0:0:
256,192,77625,1,0,0:0:0:0:
153,192,77968,1,0,0:0:0:0:
358,192,77968,128,0,78311:0:0:0:0:
51,192,78311,128,0,78654:0:0:0:0:
256,192,78311,1,0,0:0:0:0:
153,192,78311,1,0,0:0:0:0:
460,192,78654,1,0,0:0:0:0:
358,192,78825,1,0,0:0:0:0:
51,192,78997,1,0,0:0:0:0:
256,192,78997,1,0,0:0:0:0:
153,192,78997,1,0,0:0:0:0:
460,192,79168,1,0,0:0:0:0:
153,192,79340,1,0,0:0:0:0:
358,192,79340,1,0,0:0:0:0:
51,192,79511,1,0,0:0:0:0:
460,192,79683,1,0,0:0:0:0:
256,192,79683,1,0,0:0:0:0:
153,192,79854,1,0,0:0:0:0:
51,192,80025,1,0,0:0:0:0:
358,192,80025,1,0,0:0:0:0:
256,192,80197,1,0,0:0:0:0:
153,192,80368,1,0,0:0:0:0:
460,192,80368,1,0,0:0:0:0:
358,192,80540,1,0,0:0:0:0:
256,192,80711,1,0,0:0:0:0:
51,192,80711,1,0,0:0:0:0:
460,192,80883,1,0,0:0:0:0:
358,192,81054,1,0,0:0:0:0:
153,192,81054,1,0,0:0:0:0:
51,192,81054,128,0,81397:0:0:0:0:
256,192,81397,1,0,0:0:0:0:
460,192,81397,128,0,81740:0:0:0:0:
358,192,81740,1,0,0:0:0:0:
51,192,81740,128,0,82083:0:0:0:0:
153,192,81740,1,0,0:0:0:0:
358,192,82083,1,0,0:0:0:0:
256,192,82083,1,0,0:0:0:0:
460,192,82083,128,0,82425:0:0:0:0:
153,192,82254,1,0,0:0:0:0:
256,192,82254,1,0,0:0:0:0:
51,192,82425,1,0,0:0:0:0:
153,192,82425,1,0,0:0:0:0:
358,192,82425,1,0,0:0:0:0:
36,192,82768,1,0,0:0:0:0:
358,192,82768,1,0,0:0:0:0:
256,192,82940,1,0,0:0:0:0:
153,192,82940,1,0,0:0:0:0:
358,192,83111,1,0,0:0:0:0:
475,192,83111,1,0,0:0:0:0:
51,192,83111,1,0,0:0:0:0:
51,192,83454,1,0,0:0:0:0:
256,192,83625,1,0,0:0:0:0:
460,192,83625,1,0,0:0:0:0:
182,192,83797,1,0,0:0:0:0:
329,192,83797,1,0,0:0:0:0:
51,192,83797,1,0,0:0:0:0:
475,192,84140,1,0,0:0:0:0:
402,192,84140,1,0,0:0:0:0:
256,192,84311,1,0,0:0:0:0:
51,192,84311,1,0,0:0:0:0:
109,192,84483,1,0,0:0:0:0:
36,192,84483,1,0,0:0:0:0:
460,192,84483,128,0,85168:0:0:0:0:
358,192,84825,128,0,85168:0:0:0:0:
256,192,85168,1,0,0:0:0:0:
51,192,85168,1,0,0:0:0:0:
153,192,85340,1,0,0:0:0:0:
256,192,85425,1,0,0:0:0:0:
358,192,85511,1,0,0:0:0:0:
51,192,85511,1,0,0:0:0:0:
460,192,85511,1,0,0:0:0:0:
460,192,85854,1,0,0:0:0:0:
153,192,85854,1,0,0:0:0:0:
358,192,86025,1,0,0:0:0:0:
256,192,86111,1,0,0:0:0:0:
51,192,86197,1,0,0:0:0:0:
153,192,86197,1,0,0:0:0:0:
460,192,86197,1,0,0:0:0:0:
256,192,86540,1,0,0:0:0:0:
460,192,86540,1,0,0:0:0:0:
153,192,86711,1,0,0:0:0:0:
358,192,86711,1,0,0:0:0:0:
51,192,86883,1,0,0:0:0:0:
256,192,86883,1,0,0:0:0:0:
153,192,87054,1,0,0:0:0:0:
358,192,87054,1,0,0:0:0:0:
460,192,87225,1,0,0:0:0:0:
358,192,87311,1,0,0:0:0:0:
256,192,87397,1,0,0:0:0:0:
153,192,87483,1,0,0:0:0:0:
51,192,87568,128,0,87911:0:0:0:0:
329,192,87911,1,0,0:0:0:0:
475,192,87911,1,0,0:0:0:0:
256,192,87911,1,0,0:0:0:0:
153,192,88083,1,0,0:0:0:0:
51,192,88254,1,0,0:0:0:0:
358,192,88254,1,0,0:0:0:0:
256,192,88425,1,0,0:0:0:0:
460,192,88597,1,0,0:0:0:0:
153,192,88597,1,0,0:0:0:0:
358,192,88768,1,0,0:0:0:0:
51,192,88940,1,0,0:0:0:0:
256,192,88940,1,0,0:0:0:0:
460,192,89111,1,0,0:0:0:0:
358,192,89283,1,0,0:0:0:0:
153,192,89283,1,0,0:0:0:0:
256,192,89454,1,0,0:0:0:0:
51,192,89625,1,0,0:0:0:0:
358,192,89625,1,0,0:0:0:0:
153,192,89797,1,0,0:0:0:0:
256,192,89968,1,0,0:0:0:0:
460,192,89968,1,0,0:0:0:0:
51,192,90140,1,0,0:0:0:0:
109,192,90311,1,0,0:0:0:0:
358,192,90311,1,0,0:0:0:0:
460,192,90483,1,0,0:0:0:0:
256,192,90654,1,0,0:0:0:0:
51,192,90654,1,0,0:0:0:0:
358,192,90825,1,0,0:0:0:0:
460,192,90997,1,0,0:0:0:0:
51,192,90997,1,0,0:0:0:0:
153,192,91168,1,0,0:0:0:0:
358,192,91340,1,0,0:0:0:0:
256,192,91340,1,0,0:0:0:0:
153,192,91511,1,0,0:0:0:0:
51,192,91683,1,0,0:0:0:0:
460,192,91683,1,0,0:0:0:0:
358,192,91854,1,0,0:0:0:0:
153,192,92025,1,0,0:0:0:0:
256,192,92025,1,0,0:0:0:0:
358,192,92197,1,0,0:0:0:0:
460,192,92368,1,0,0:0:0:0:
51,192,92368,1,0,0:0:0:0:
153,192,92540,1,0,0:0:0:0:
256,192,92711,1,0,0:0:0:0:
460,192,92711,1,0,0:0:0:0:
51,192,92883,1,0,0:0:0:0:
153,192,92968,1,0,0:0:0:0:
256,192,93054,128,0,93397:0:0:0:0:
358,192,93054,1,0,0:0:0:0:
460,192,93054,1,0,0:0:0:0:
153,192,93397,1,0,0:0:0:0:
51,192,93397,1,0,0:0:0:0:
358,192,93568,1,0,0:0:0:0:
460,192,93568,1,0,0:0:0:0:
51,192,93740,1,0,0:0:0:0:
153,192,93740,1,0,0:0:0:0:
358,192,93911,1,0,0:0:0:0:
460,192,93911,1,0,0:0:0:0:
256,192,94083,1,0,0:0:0:0:
153,192,94083,1,0,0:0:0:0:
460,192,94254,1,0,0:0:0:0:
358,192,94254,1,0,0:0:0:0:
256,192,94425,1,0,0:0:0:0:
153,192,94425,1,0,0:0:0:0:
358,192,94597,1,0,0:0:0:0:
460,192,94597,1,0,0:0:0:0:
256,192,94768,1,0,0:0:0:0:
51,192,94768,1,0,0:0:0:0:
153,192,94768,1,0,0:0:0:0:
460,192,94940,1,0,0:0:0:0:
358,192,94940,1,0,0:0:0:0:
256,192,95111,1,0,0:0:0:0:
51,192,95111,1,0,0:0:0:0:
153,192,95283,1,0,0:0:0:0:
358,192,95283,1,0,0:0:0:0:
460,192,95454,1,0,0:0:0:0:
256,192,95454,1,0,0:0:0:0:
51,192,95625,1,0,0:0:0:0:
153,192,95625,1,0,0:0:0:0:
256,192,95797,1,0,0:0:0:0:
460,192,95797,1,0,0:0:0:0:
358,192,95968,1,0,0:0:0:0:
153,192,95968,1,0,0:0:0:0:
51,192,96140,1,0,0:0:0:0:
460,192,96225,1,0,0:0:0:0:
153,192,96311,1,0,0:0:0:0:
358,192,96397,1,0,0:0:0:0:
51,192,96483,1,0,0:0:0:0:
460,192,96568,1,0,0:0:0:0:
153,192,96654,1,0,0:0:0:0:
358,192,96740,1,0,0:0:0:0:
51,192,96825,1,0,0:0:0:0:
460,192,96911,1,0,0:0:0:0:
153,192,96997,1,0,0:0:0:0:
358,192,97083,1,0,0:0:0:0:
51,192,97168,1,0,0:0:0:0:
460,192,97254,1,0,0:0:0:0:
153,192,97340,1,0,0:0:0:0:
358,192,97425,1,0,0:0:0:0:
256,192,97511,1,0,0:0:0:0:
51,192,97511,1,0,0:0:0:0:
182,192,98540,1,0,0:0:0:0:
329,192,98540,1,0,0:0:0:0:
256,192,98540,1,0,0:0:0:0:
475,192,98883,1,0,0:0:0:0:
36,192,98883,1,0,0:0:0:0:
109,192,99235,1,0,0:0:0:0:
358,192,99235,1,0,0:0:0:0:
460,192,99407,1,0,0:0:0:0:
256,192,99578,1,0,0:0:0:0:
51,192,99750,1,0,0:0:0:0:
182,192,99921,1,0,0:0:0:0:
329,192,99921,1,0,0:0:0:0:
460,192,100093,1,0,0:0:0:0:
51,192,100264,128,0,101635:0:0:0:0:
256,192,100264,1,0,0:0:0:0:
358,192,100435,1,0,0:0:0:0:
153,192,100607,1,0,0:0:0:0:
460,192,100607,1,0,0:0:0:0:
256,192,100778,1,0,0:0:0:0:
358,192,100950,1,0,0:0:0:0:
153,192,101121,1,0,0:0:0:0:
358,192,101293,1,0,0:0:0:0:
256,192,101293,1,0,0:0:0:0:
460,192,101464,1,0,0:0:0:0:
153,192,101635,1,0,0:0:0:0:
256,192,101635,1,0,0:0:0:0:
36,192,101978,1,0,0:0:0:0:
358,192,101978,1,0,0:0:0:0:
153,192,102150,1,0,0:0:0:0:
256,192,102321,1,0,0:0:0:0:
460,192,102493,1,0,0:0:0:0:
109,192,102664,1,0,0:0:0:0:
402,192,102664,1,0,0:0:0:0:
51,192,102835,1,0,0:0:0:0:
460,192,103007,128,0,104378:0:0:0:0:
256,192,103007,1,0,0:0:0:0:
153,192,103178,1,0,0:0:0:0:
358,192,103350,1,0,0:0:0:0:
51,192,103350,1,0,0:0:0:0:
256,192,103521,1,0,0:0:0:0:
153,192,103693,1,0,0:0:0:0:
358,192,103864,1,0,0:0:0:0:
153,192,104035,1,0,0:0:0:0:
256,192,104035,1,0,0:0:0:0:
51,192,104207,1,0,0:0:0:0:
358,192,104378,1,0,0:0:0:0:
153,192,104378,1,0,0:0:0:0:
256,192,104721,1,0,0:0:0:0:
36,192,104721,1,0,0:0:0:0:
153,192,104893,1,0,0:0:0:0:
402,192,105064,1,0,0:0:0:0:
256,192,105235,1,0,0:0:0:0:
109,192,105407,1,0,0:0:0:0:
460,192,105407,1,0,0:0:0:0:
153,192,105750,128,0,106778:0:0:0:0:
51,192,105750,128,0,106778:0:0:0:0:
256,192,105921,1,0,0:0:0:0:
358,192,106007,1,0,0:0:0:0:
460,192,106093,1,0,0:0:0:0:
256,192,106264,1,0,0:0:0:0:
460,192,106435,1,0,0:0:0:0:
256,192,106607,1,0,0:0:0:0:
329,192,106778,1,0,0:0:0:0:
475,192,106778,1,0,0:0:0:0:
51,192,107121,1,0,0:0:0:0:
358,192,107207,1,0,0:0:0:0:
153,192,107293,1,0,0:0:0:0:
358,192,107378,1,0,0:0:0:0:
256,192,107464,1,0,0:0:0:0:
51,192,107464,1,0,0:0:0:0:
460,192,107550,1,0,0:0:0:0:
153,192,107635,1,0,0:0:0:0:
358,192,107721,1,0,0:0:0:0:
256,192,107807,1,0,0:0:0:0:
51,192,107807,1,0,0:0:0:0:
358,192,107978,1,0,0:0:0:0:
460,192,107978,1,0,0:0:0:0:
153,192,108064,1,0,0:0:0:0:
256,192,108150,1,0,0:0:0:0:
460,192,108150,1,0,0:0:0:0:
153,192,108493,1,0,0:0:0:0:
358,192,108493,1,0,0:0:0:0:
256,192,108493,1,0,0:0:0:0:
256,192,108835,1,0,0:0:0:0:
51,192,108835,1,0,0:0:0:0:
358,192,109007,1,0,0:0:0:0:
51,192,109178,1,0,0:0:0:0:
460,192,109178,1,0,0:0:0:0:
153,192,109350,1,0,0:0:0:0:
256,192,109521,1,0,0:0:0:0:
460,192,109521,1,0,0:0:0:0:
358,192,109864,1,0,0:0:0:0:
51,192,109864,1,0,0:0:0:0:
460,192,110035,1,0,0:0:0:0:
51,192,110207,1,0,0:0:0:0:
109,192,110207,1,0,0:0:0:0:
256,192,110378,1,0,0:0:0:0:
402,192,110550,1,0,0:0:0:0:
51,192,110721,1,0,0:0:0:0:
460,192,110893,1,0,0:0:0:0:
153,192,110893,1,0,0:0:0:0:
358,192,111235,1,0,0:0:0:0:
153,192,111235,1,0,0:0:0:0:
256,192,111407,1,0,0:0:0:0:
460,192,111407,1,0,0:0:0:0:
51,192,111493,1,0,0:0:0:0:
153,192,111578,1,0,0:0:0:0:
358,192,111578,1,0,0:0:0:0:
51,192,111750,1,0,0:0:0:0:
256,192,111750,1,0,0:0:0:0:
460,192,111835,1,0,0:0:0:0:
358,192,111921,1,0,0:0:0:0:
153,192,111921,1,0,0:0:0:0:
460,192,112093,1,0,0:0:0:0:
256,192,112093,1,0,0:0:0:0:
51,192,112178,1,0,0:0:0:0:
358,192,112264,1,0,0:0:0:0:
153,192,112264,1,0,0:0:0:0:
51,192,112435,1,0,0:0:0:0:
256,192,112435,1,0,0:0:0:0:
460,192,112607,1,0,0:0:0:0:
358,192,112607,1,0,0:0:0:0:
256,192,112950,1,0,0:0:0:0:
51,192,112950,1,0,0:0:0:0:
358,192,113121,1,0,0:0:0:0:
153,192,113293,1,0,0:0:0:0:
256,192,113464,1,0,0:0:0:0:
460,192,113635,1,0,0:0:0:0:
402,192,113635,1,0,0:0:0:0:
153,192,113978,1,0,0:0:0:0:
358,192,113978,1,0,0:0:0:0:
460,192,114150,1,0,0:0:0:0:
51,192,114321,1,0,0:0:0:0:
256,192,114321,1,0,0:0:0:0:
358,192,114493,1,0,0:0:0:0:
153,192,114664,1,0,0:0:0:0:
256,192,114835,1,0,0:0:0:0:
358,192,115007,1,0,0:0:0:0:
460,192,115007,1,0,0:0:0:0:
358,192,115350,1,0,0:0:0:0:
36,192,115350,1,0,0:0:0:0:
256,192,115521,1,0,0:0:0:0:
358,192,115607,1,0,0:0:0:0:
153,192,115693,1,0,0:0:0:0:
460,192,115693,1,0,0:0:0:0:
256,192,115864,1,0,0:0:0:0:
51,192,115864,1,0,0:0:0:0:
153,192,116035,1,0,0:0:0:0:
358,192,116035,1,0,0:0:0:0:
256,192,116207,1,0,0:0:0:0:
153,192,116293,1,0,0:0:0:0:
36,192,116378,1,0,0:0:0:0:
460,192,116378,1,0,0:0:0:0:
358,192,116378,1,0,0:0:0:0:
460,192,116550,1,0,0:0:0:0:
109,192,116721,1,0,0:0:0:0:
402,192,116721,1,0,0:0:0:0:
256,192,116721,128,0,116893:0:0:0:0:
460,192,117064,128,0,119121:0:0:0:0:
51,192,117064,128,0,119121:0:0:0:0:
