osu file format v13

[General]
AudioFilename: Again.mp3
AudioLeadIn: 1500
PreviewTime: 96944
Countdown: 0
SampleSet: Soft
StackLeniency: 0.7
Mode: 0
LetterboxInBreaks: 0
WidescreenStoryboard: 1

[Editor]
DistanceSpacing: 1
BeatDivisor: 4
GridSize: 4
TimelineZoom: 2.699999

[Metadata]
Title:Again
TitleUnicode:다시
Artist:Memme
ArtistUnicode:Memme
Creator:Broccoly
Version:Normal
Source:O2JAM U
Tags:のぶなが Nobunaga Anipop ParkMemme Karia
BeatmapID:459326
BeatmapSetID:192572

[Difficulty]
HPDrainRate:4
CircleSize:3.5
OverallDifficulty:4
ApproachRate:5
SliderMultiplier:1.1
SliderTickRate:1

[Events]
//Background and Video events
0,0,"BG.png",0,0
//Break Periods
2,91707,96307
//Storyboard Layer 0 (Background)
//Storyboard Layer 1 (Fail)
//Storyboard Layer 2 (Pass)
//Storyboard Layer 3 (Foreground)
//Storyboard Sound Samples

[TimingPoints]
7507,375,4,1,0,80,1,0
7507,-100,4,1,2,80,0,0
19132,-100,4,1,2,60,0,0
19507,-111.111111111111,4,2,2,60,0,0
22507,-111.111111111111,4,2,2,35,0,0
22600,-111.111111111111,4,2,2,60,0,0
40882,-111.111111111111,4,1,2,50,0,0
43507,-111.111111111111,4,2,3,60,0,0
43882,-111.111111111111,4,1,2,50,0,0
49507,-111.111111111111,4,1,2,35,0,0
49694,-111.111111111111,4,1,2,45,0,0
49882,-111.111111111111,4,1,2,55,0,0
50444,-111.111111111111,4,1,2,65,0,0
51569,-111.111111111111,4,1,2,60,0,0
52507,-100,4,1,2,75,0,1
60944,-100,4,2,3,75,0,1
61319,-100,4,1,2,75,0,1
64413,-100,4,1,2,75,0,0
64507,-100,4,1,2,75,0,1
75757,-100,4,1,2,60,0,1
76507,-100,4,1,2,60,0,0
90569,-100,4,2,3,60,0,0
90944,-100,4,1,2,60,0,0
97507,-100,4,2,3,75,0,1
97600,-100,4,1,2,75,0,0
98819,-100,4,1,2,75,0,1
99569,-100,4,1,2,75,0,0
99944,-100,4,1,2,75,0,0
100038,-100,4,1,2,75,0,0
100507,-100,4,1,2,75,0,1
103507,-100,4,2,3,75,0,1
103882,-100,4,1,2,75,0,1
109413,-100,4,1,2,75,0,0
109507,-100,4,1,2,75,0,1
121507,-100,4,1,2,75,0,0
133507,-100,4,2,4,45,0,0
134069,-100,4,2,4,40,0,0
134632,-100,4,2,4,35,0,0
135194,-100,4,2,4,30,0,0
135757,-100,4,2,4,25,0,0
137257,-83.3333333333333,4,2,4,20,0,0

[Colours]
Combo1 : 119,255,249
Combo2 : 31,250,64
Combo3 : 244,250,50
Combo4 : 254,111,24
Combo5 : 255,138,138

[HitObjects]
301,134,7507,6,0,L|411:150,1,110,4|8,0:0|0:0,0:0:0:0:
423,258,8257,2,0,L|486:270,2,55,0|0|8,0:0|0:0|0:0,0:0:0:0:
383,296,8819,2,0,P|337:271|263:343,1,165,0|8,0:0|0:0,0:0:0:0:
155,310,9757,1,0,0:0:0:0:
48,287,10132,1,8,0:0:0:0:
48,287,10507,6,0,L|62:167,1,110,4|8,0:0|0:0,0:0:0:0:
77,68,11257,2,0,L|19:75,2,55,0|0|8,0:0|0:0|0:0,0:0:0:0:
130,78,11819,2,0,L|302:61,1,165,0|8,0:0|0:0,0:0:0:0:
404,53,12757,1,0,0:0:0:0:
504,102,13132,1,8,0:0:0:0:
448,197,13507,6,0,B|422:228|422:228|448:308,1,110,4|8,0:0|0:0,0:0:0:0:
397,325,14069,2,0,L|276:308,1,110
240,282,14632,2,0,L|182:292,2,55,8|0|0,0:0|0:0|0:0,0:0:0:0:
260,230,15194,2,0,P|271:174|225:122,1,110
202,97,15757,1,0,0:0:0:0:
93,114,16132,1,8,0:0:0:0:
25,200,16507,6,0,P|63:223|150:202,1,110,4|8,0:0|0:0,0:0:0:0:
169,252,17069,2,0,P|171:283|151:321,2,55,0|0|0,0:0|0:0|0:0,0:0:0:0:
256,192,17632,12,0,19507,0:0:0:0:
56,217,20257,6,0,P|108:238|172:214,1,98.9999969787599,0|2,0:0|0:0,0:0:0:0:
212,156,21007,2,0,P|247:202|241:258,2,98.9999969787599,0|2|0,0:0|0:0|0:0,0:0:0:0:
129,101,22132,1,2,0:0:0:0:
42,52,22507,6,0,B|81:67|81:67|148:57,1,98.9999969787599,4|2,0:0|0:0,0:0:0:0:
234,80,23257,2,0,L|345:63,1,98.9999969787599,0|2,0:0|0:0,0:0:0:0:
398,139,24007,2,0,P|460:129|470:248,1,197.99999395752
437,324,25132,1,2,0:0:0:0:
437,324,25507,6,0,L|336:304,1,98.9999969787599,0|2,0:0|0:0,0:0:0:0:
303,338,26069,2,0,P|259:314|196:321,1,98.9999969787599
136,379,26819,2,0,P|112:337|143:243,1,148.49999546814,2|2,0:0|0:0,0:0:0:0:
142,158,27757,6,0,L|93:158,2,49.4999984893799,0|0|8,1:0|0:0|0:0,0:0:0:0:
226,211,28507,6,0,P|242:171|228:106,1,98.9999969787599,4|0,0:0|0:0,0:0:0:0:
216,72,29069,2,0,L|372:96,1,148.49999546814,0|8,0:0|0:0,0:0:0:0:
408,72,29819,2,0,L|444:236,1,148.49999546814
488,236,30569,2,0,P|483:287|448:336,1,98.9999969787599
420,360,31132,1,8,0:0:0:0:
325,378,31507,6,0,P|301:352|232:349,1,98.9999969787599,0|0,0:0|0:0,0:0:0:0:
201,315,32069,2,0,P|164:347|88:300,1,148.49999546814,0|8,0:0|0:0,0:0:0:0:
40,304,32819,2,0,L|70:151,1,148.49999546814
116,176,33569,2,0,L|104:68,1,98.9999969787599
63,50,34132,1,8,0:0:0:0:
151,8,34507,6,0,L|222:21,1,49.4999984893799,4|0,0:0|0:0,0:0:0:0:
240,48,34882,1,8,0:0:0:0:
276,80,35069,2,0,P|253:140|337:190,1,148.49999546814,0|8,0:0|0:0,0:0:0:0:
309,242,35819,2,0,L|472:212,1,148.49999546814,4|8,0:0|0:0,0:0:0:0:
504,207,36569,2,0,L|482:312,1,98.9999969787599
476,351,37132,2,0,L|404:363,1,49.4999984893799,8|0,0:0|0:0,0:0:0:0:
256,192,37507,12,8,40132,0:0:0:0:
160,143,40882,6,0,L|174:253,1,98.9999969787599,8|0,0:0|0:0,0:0:0:0:
179,290,41444,1,0,0:0:0:0:
270,319,41819,2,0,P|294:302|391:346,1,148.49999546814,4|8,0:0|0:0,0:0:0:0:
425,379,42569,2,0,L|451:223,1,148.49999546814,0|8,0:0|0:0,0:0:0:0:
468,133,43507,5,4,0:0:0:0:
468,133,43882,2,0,P|439:100|339:124,1,148.49999546814,8|0,0:0|0:0,0:0:0:0:
279,41,44819,2,0,L|150:73,1,98.9999969787599,4|0,0:0|0:0,0:0:0:0:
224,154,45569,2,0,L|95:186,1,98.9999969787599,4|0,0:0|0:0,0:0:0:0:
80,192,46132,1,8,0:0:0:0:
8,260,46507,5,4,0:0:0:0:
67,339,46882,2,0,P|106:363|174:342,1,98.9999969787599,8|0,0:0|0:0,0:0:0:0:
233,292,47632,1,8,0:0:0:0:
233,292,47819,2,0,L|264:182,1,98.9999969787599,4|0,0:0|0:0,0:0:0:0:
275,149,48382,1,8,0:0:0:0:
343,77,48757,2,0,P|371:69|419:86,2,49.4999984893799,0|0|8,0:0|0:0|0:0,0:0:0:0:
246,55,49507,6,0,L|191:53,1,49.4999984893799
172,96,49882,2,0,L|117:94,1,49.4999984893799
94,135,50257,2,0,L|39:133,1,49.4999984893799
31,181,50632,1,0,0:0:0:0:
31,181,50819,6,0,B|14:257|14:257|44:333,1,148.49999546814,4|8,0:0|0:0,0:0:0:0:
83,345,51569,1,0,0:0:0:0:
158,280,51944,2,0,L|226:287,1,49.4999984893799,4|0,0:0|0:0,0:0:0:0:
303,339,52507,6,0,P|329:293|314:219,1,110,4|8,0:0|0:0,0:0:0:0:
410,167,53257,2,0,L|473:181,2,55,0|0|8,0:0|0:0|0:0,0:0:0:0:
386,116,53819,2,0,L|268:89,1,110,0|0,0:0|0:0,0:0:0:0:
172,108,54569,2,0,P|104:88|64:120,1,110,0|0,0:0|0:0,0:0:0:0:
24,84,55132,1,8,0:0:0:0:
48,192,55507,6,0,L|32:256,2,55,0|0|8,0:0|0:0|0:0,0:0:0:0:
96,220,56069,2,0,L|228:192,1,110
256,184,56632,1,8,0:0:0:0:
270,74,57007,2,0,L|202:86,2,55,0|0|8,0:0|0:0|0:0,0:0:0:0:
378,56,57757,1,0,0:0:0:0:
378,56,58132,1,8,0:0:0:0:
480,95,58507,5,4,0:0:0:0:
448,200,58882,2,0,P|416:248|348:256,1,110,8|0,0:0|0:0,0:0:0:0:
316,241,59444,2,0,P|281:237|241:254,2,55,0|8|0,0:0|0:0|0:0,0:0:0:0:
288,348,60194,1,0,0:0:0:0:
180,372,60569,1,0,0:0:0:0:
156,264,60944,1,4,0:0:0:0:
156,264,61319,6,0,L|36:240,1,110,4|0,0:0|0:0,0:0:0:0:
24,192,61882,2,0,P|40:156|124:164,1,110,8|0,0:0|0:0,0:0:0:0:
152,176,62444,2,0,P|188:176|224:140,2,55,0|8|0,0:0|0:0|0:0,0:0:0:0:
164,68,63194,1,0,0:0:0:0:
164,68,63382,2,0,L|288:52,1,110,8|0,0:0|0:0,0:0:0:0:
382,60,64132,2,0,L|458:50,1,55,8|0,0:0|0:0,0:0:0:0:
490,63,64507,5,4,0:0:0:0:
444,164,64882,2,0,L|420:280,1,110,8|0,0:0|0:0,0:0:0:0:
388,316,65444,2,0,P|361:315|328:292,1,55,0|8,0:0|0:0,0:0:0:0:
328,248,65819,2,0,L|224:284,1,110
184,248,66382,1,8,0:0:0:0:
80,280,66757,2,0,L|94:218,2,55,0|0|8,0:0|0:0|0:0,0:0:0:0:
160,356,67507,6,0,L|189:225,1,110,4|8,0:0|0:0,0:0:0:0:
88,196,68257,2,0,L|16:212,2,55,0|0|8,0:0|0:0|0:0,0:0:0:0:
124,156,68819,2,0,P|72:128|108:32,1,165,0|8,0:0|0:0,0:0:0:0:
148,32,69569,2,0,L|276:48,1,110
312,52,70132,1,8,0:0:0:0:
416,16,70507,6,0,P|424:56|388:132,1,110,4|8,0:0|0:0,0:0:0:0:
432,164,71069,2,0,P|376:169|336:220,1,110
340,260,71632,2,0,L|228:236,1,110,8|0,0:0|0:0,0:0:0:0:
228,292,72194,2,0,L|120:268,1,110,4|0,0:0|0:0,0:0:0:0:
76,300,72757,1,8,0:0:0:0:
44,196,73132,1,8,0:0:0:0:
76,92,73507,6,0,L|20:80,2,55,4|0|8,0:0|0:0|0:0,0:0:0:0:
124,64,74069,2,0,L|256:88,1,110
256,192,74632,12,0,75757,0:0:0:0:
164,156,76507,5,4,0:0:0:0:
164,156,76882,2,0,P|124:144|72:168,2,82.5,8|0|0,0:0|0:0|0:0,0:0:0:0:
180,208,77632,2,0,L|236:200,1,55,8|0,0:0|0:0,0:0:0:0:
288,196,78007,1,0,0:0:0:0:
372,264,78382,1,8,0:0:0:0:
460,192,78757,2,0,P|456:156|440:128,1,55
408,100,79132,1,8,0:0:0:0:
316,40,79507,6,0,P|280:56|200:32,1,110,4|8,0:0|0:0,0:0:0:0:
112,84,80257,2,0,P|64:84|16:136,1,110,0|8,0:0|0:0,0:0:0:0:
48,172,80819,2,0,P|36:220|140:244,1,165,0|8,0:0|0:0,0:0:0:0:
217,197,81757,2,0,L|238:144,2,55,0|0|8,0:0|0:0|0:0,0:0:0:0:
225,306,82507,5,4,0:0:0:0:
332,328,82882,2,0,L|432:312,2,82.5,8|0|0,0:0|0:0|0:0,0:0:0:0:
340,272,83632,1,8,0:0:0:0:
340,272,83819,2,0,P|372:244|352:156,1,110
388,128,84382,2,0,L|333:121,1,55,8|0,0:0|0:0,0:0:0:0:
296,84,84757,2,0,L|241:77,1,55
196,45,85132,1,8,0:0:0:0:
84,36,85507,5,4,0:0:0:0:
84,36,85882,2,0,L|-4:68,2,82.5,8|0|0,0:0|0:0|0:0,0:0:0:0:
76,92,86632,2,0,L|64:176,1,55,8|0,0:0|0:0,0:0:0:0:
60,200,87007,5,6,2:0:0:0:
44,308,87382,5,8,0:0:0:0:
152,324,87757,5,2,2:0:0:0:
168,216,88132,5,8,0:0:0:0:
168,216,88507,6,0,L|304:244,1,110,4|8,0:0|0:0,0:0:0:0:
356,312,89257,2,0,L|422:324,2,55,0|0|0,0:0|0:0|0:0,0:0:0:0:
304,328,89819,1,2,2:0:0:0:
208,272,90194,1,2,2:0:0:0:
256,172,90569,2,0,B|263:132|263:132|254:105|254:105|261:64,1,110,4|4,0:0|0:0,0:0:0:0:
424,96,91507,5,4,0:0:0:0:
256,192,97507,5,4,0:0:0:0:
256,192,98632,6,0,L|255:253,1,55,2|4,3:0|0:0,0:0:0:0:
343,311,99194,1,0,0:0:0:0:
444,268,99569,2,0,L|445:146,1,110
444,104,100132,1,8,0:0:0:0:
348,52,100507,5,4,0:0:0:0:
348,52,100882,2,0,P|384:24|436:28,2,82.5,8|0|0,0:0|0:0|0:0,0:0:0:0:
300,76,101632,2,0,L|224:64,1,55,8|0,0:0|0:0,0:0:0:0:
200,100,102007,2,0,L|124:88,1,55,4|0,0:0|0:0,0:0:0:0:
92,84,102382,1,8,0:0:0:0:
70,192,102757,2,0,P|30:191|-1:207,2,55,0|0|8,0:0|0:0|0:0,0:0:0:0:
48,300,103507,6,0,L|160:316,1,110,4|8,0:0|0:0,0:0:0:0:
268,304,104257,2,0,L|248:360,2,55,0|0|8,0:0|0:0|0:0,0:0:0:0:
280,252,104819,1,0,0:0:0:0:
384,292,105194,1,0,0:0:0:0:
464,220,105569,1,0,0:0:0:0:
364,176,105944,1,0,0:0:0:0:
364,176,106319,6,0,L|400:60,1,110,4|0,0:0|0:0,0:0:0:0:
388,16,106882,2,0,L|488:8,2,82.5,8|0|0,0:0|0:0|0:0,0:0:0:0:
340,44,107632,2,0,L|270:49,1,55,8|0,0:0|0:0,0:0:0:0:
169,56,108194,1,0,0:0:0:0:
59,63,108569,1,0,0:0:0:0:
72,172,108944,2,0,L|17:168,2,55,0|8|0,0:0|0:0|0:0,0:0:0:0:
120,197,109507,5,4,0:0:0:0:
226,170,109882,2,0,P|258:143|307:143,2,82.5,8|0|0,0:0|0:0|0:0,0:0:0:0:
219,224,110632,2,0,P|194:244|179:286,1,55,8|0,0:0|0:0,0:0:0:0:
143,368,111194,1,0,0:0:0:0:
143,368,111382,2,0,P|197:375|257:334,1,110,8|0,0:0|0:0,0:0:0:0:
348,312,112132,1,8,0:0:0:0:
260,244,112507,5,4,0:0:0:0:
240,136,112882,2,0,L|152:136,2,82.5,8|0|0,0:0|0:0|0:0,0:0:0:0:
292,156,113632,1,8,0:0:0:0:
292,156,113819,2,0,P|336:136|352:72,1,110
320,36,114382,2,0,L|264:36,1,55,8|0,0:0|0:0,0:0:0:0:
215,61,114757,2,0,L|159:61,1,55,8|0,0:0|0:0,0:0:0:0:
112,33,115132,1,8,0:0:0:0:
40,112,115507,6,0,L|56:240,1,110,4|8,0:0|0:0,0:0:0:0:
44,276,116069,2,0,P|96:260|156:296,1,110
176,328,116632,2,0,P|228:312|288:348,1,110,8|0,0:0|0:0,0:0:0:0:
324,304,117194,2,0,L|432:288,1,110,4|0,0:0|0:0,0:0:0:0:
448,236,117757,1,8,0:0:0:0:
420,128,118132,1,8,0:0:0:0:
316,164,118507,6,0,P|308:136|328:80,2,55,4|0|8,0:0|0:0|0:0,0:0:0:0:
292,212,119069,2,0,L|164:192,1,110
256,192,119632,12,4,121507,0:0:0:0:
204,284,122257,6,0,L|140:308,2,55,0|0|8,0:0|0:0|0:0,0:0:0:0:
228,236,122819,2,0,P|172:224|140:168,1,110,0|0,0:0|0:0,0:0:0:0:
40,152,123569,2,0,P|64:104|128:80,1,110
168,76,124132,1,8,0:0:0:0:
272,108,124507,5,0,0:0:0:0:
368,52,124882,2,0,P|404:36|464:52,2,82.5,8|0|0,0:0|0:0|0:0,0:0:0:0:
360,108,125632,2,0,L|372:176,1,55,8|0,0:0|0:0,0:0:0:0:
452,233,126194,1,0,0:0:0:0:
452,233,126382,2,0,L|430:350,1,110,8|0,0:0|0:0,0:0:0:0:
321,355,127132,2,0,P|296:365|269:363,1,55,8|0,0:0|0:0,0:0:0:0:
219,337,127507,6,0,L|75:327,1,110,4|8,0:0|0:0,0:0:0:0:
79,282,128069,2,0,P|37:257|54:185,1,110
61,149,128632,2,0,P|34:136|1:137,2,55,8|0|0,0:0|0:0|0:0,0:0:0:0:
112,128,129194,2,0,B|146:102|146:102|230:117,1,110,4|0,0:0|0:0,0:0:0:0:
256,80,129757,1,8,0:0:0:0:
256,188,130132,1,8,0:0:0:0:
228,296,130507,6,0,P|265:301|298:289,2,55,4|0|8,0:0|0:0|0:0,0:0:0:0:
180,268,131069,1,0,0:0:0:0:
256,188,131444,2,0,L|256:128,1,55,0|4,0:0|0:0,0:0:0:0:
256,192,131725,12,0,132757,0:0:0:0:
312,260,133507,5,4,1:2:0:0:
188,248,134069,5,4,0:0:0:0:
200,124,134632,5,4,0:0:0:0:
324,136,135194,5,4,0:0:0:0:
312,260,135757,5,4,0:0:0:0:
256,192,137257,5,4,0:0:0:0:
