osu file format v14

[General]
AudioFilename: acid.mp3
AudioLeadIn: 0
PreviewTime: 88072
Countdown: 0
SampleSet: Soft
StackLeniency: 0.5
Mode: 0
LetterboxInBreaks: 0
WidescreenStoryboard: 0

[Editor]
Bookmarks: 2738,13405,24072,34738,45405,56072,66738,77405,88072,98738,109405
DistanceSpacing: 1
BeatDivisor: 4
GridSize: 4
TimelineZoom: 0.4999998

[Metadata]
Title:Acid Burst
TitleUnicode:Acid Burst
Artist:Memme
ArtistUnicode:Memme
Creator:Priti
Version:Normal
Source:O2Jam U
Tags:parkmemme Bonzi Irreversible Hollow Wings Tess wa_ Deif Asphyxia Spectator Arabic Core
BeatmapID:723020
BeatmapSetID:302535

[Difficulty]
HPDrainRate:2
CircleSize:3
OverallDifficulty:3
ApproachRate:3
SliderMultiplier:0.82
SliderTickRate:1

[Events]
//Background and Video events
0,0,"Antoney.full.1397337.jpg",0,0
//Break Periods
2,13605,21965
2,77605,86298
//Storyboard Layer 0 (Background)
//Storyboard Layer 1 (Fail)
//Storyboard Layer 2 (Pass)
//Storyboard Layer 3 (Foreground)
//Storyboard Sound Samples

[TimingPoints]
2739,333.333333333333,4,1,1,90,1,0
45405,-100,4,2,1,70,0,0
56072,-100,4,2,1,80,0,0
66738,-100,4,2,1,85,0,0
88072,-100,4,1,1,95,0,1
109405,-100,4,2,1,85,0,0

[Colours]
Combo1 : 236,177,55
Combo2 : 100,228,86
Combo3 : 98,213,167
Combo4 : 196,228,97

[HitObjects]
71,147,2738,6,0,P|144:113|223:128,1,164,4|4,0:0|0:0,0:0:0:0:
270,195,3738,2,0,P|318:205|378:118,1,164,4|4,0:0|0:0,0:0:0:0:
363,41,4738,1,0,0:0:0:0:
290,78,5072,1,4,0:0:0:0:
223,128,5405,6,0,L|241:309,1,164,4|4,0:0|0:0,0:0:0:0:
311,329,6405,2,0,L|351:157,1,164,4|4,0:0|0:0,0:0:0:0:
397,103,7405,2,0,P|387:51|371:25,1,82,0|4,0:0|0:0,0:0:0:0:
295,56,8072,6,0,P|213:57|133:39,1,164,4|4,0:2|0:0,0:0:0:0:
52,23,9072,2,0,B|39:131|39:131|76:186,1,164,4|4,0:0|0:0,0:0:0:0:
143,212,10072,2,0,L|232:203,1,82,0|4,0:0|0:0,0:0:0:0:
290,155,10738,6,0,B|313:140|351:135|381:146|414:170|427:209|427:209|439:174|427:141|427:141|442:115|476:107|493:134|475:157,1,328,4|12,0:0|0:0,0:0:0:0:
506,231,12405,1,0,0:0:0:0:
463,301,12738,1,0,0:0:0:0:
384,323,13072,2,0,L|289:316,1,82,4|4,0:0|0:2,0:0:0:0:
76,108,23405,6,0,L|83:218,1,82,4|4,0:2|0:0,0:0:0:0:
150,236,24072,6,0,P|206:243|330:213,1,164,4|4,0:2|0:0,0:0:0:0:
377,174,25072,1,12,0:0:0:0:
457,189,25405,2,0,P|464:223|467:276,2,82,4|12|4,0:0|0:0|0:0,0:0:0:0:
415,30,26738,5,4,0:0:0:0:
342,69,27072,2,0,B|262:87|262:87|192:42,1,164,12|12,0:0|0:0,0:0:0:0:
111,33,28072,2,0,P|67:39|29:55,1,82,4|12,0:0|0:0,0:0:0:0:
8,131,28738,1,4,0:0:0:0:
35,208,29072,1,12,0:0:0:0:
106,252,29405,6,0,B|209:272|169:238|280:256,1,164,4|4,0:2|0:0,0:0:0:0:
338,297,30405,1,12,0:0:0:0:
413,264,30739,2,0,P|427:218|420:183,1,82,4|12,0:0|0:0,0:0:0:0:
347,150,31404,2,0,P|333:104|340:69,1,82,4|12,0:0|0:0,0:0:0:0:
403,20,32072,5,4,0:0:0:0:
478,51,32405,1,12,0:0:0:0:
460,214,33072,2,0,L|393:220,1,41,12|6,0:0|0:0,0:0:0:0:
339,239,33572,2,0,L|331:333,1,82,6|6,0:0|0:0,0:0:0:0:
404,359,34238,2,0,L|443:368,1,41,4|6,0:0|0:0,0:0:0:0:
488,296,34738,6,0,B|484:227|484:227|463:208|463:208|460:141,1,164,4|4,0:2|0:0,0:0:0:0:
452,59,35738,1,12,0:0:0:0:
376,90,36072,2,0,P|326:91|289:70,1,82,4|12,0:0|0:0,0:0:0:0:
237,22,36738,2,0,P|187:21|150:42,1,82,4|12,0:0|0:0,0:0:0:0:
89,80,37405,5,4,0:0:0:0:
45,149,37738,2,0,B|48:216|48:216|69:235|69:235|73:315,1,164,12|12,0:0|0:0,0:0:0:0:
137,354,38738,2,0,L|228:349,1,82,4|12,0:0|0:0,0:0:0:0:
287,304,39405,1,4,0:0:0:0:
198,162,40071,6,0,P|253:140|373:162,1,164,4|4,0:2|0:0,0:0:0:0:
425,194,41072,1,12,0:0:0:0:
499,160,41405,2,0,L|493:72,2,82,4|12|4,0:2|0:0|0:0,0:0:0:0:
491,241,42405,2,0,L|481:310,1,41,12|4,0:0|0:0,0:0:0:0:
256,192,42738,12,4,43905,0:0:0:0:
247,230,45405,6,0,P|202:190|206:131,1,123,4|0,1:0|0:0,0:0:0:0:
287,112,46238,1,0,0:0:0:0:
335,178,46572,2,0,L|322:315,1,123,4|0,1:0|0:0,0:0:0:0:
270,363,47405,1,0,0:0:0:0:
428,320,48072,6,0,P|427:279|409:238,1,82,4|4,1:0|1:0,0:0:0:0:
352,184,48738,2,0,L|363:61,2,123,0|4|0,0:0|1:0|0:0,0:0:0:0:
287,234,50072,2,0,P|242:236|206:229,1,82
156,163,50738,6,0,P|88:139|9:205,1,164,4|0,1:0|0:0,0:0:0:0:
47,262,51738,2,0,L|101:269,1,41,0|4,0:0|1:0,0:0:0:0:
166,245,52238,2,0,P|219:238|325:238,1,123,8|0,0:0|0:0,0:0:0:0:
364,267,53072,1,0,1:0:0:0:
431,220,53405,5,4,1:0:0:0:
355,186,53738,1,4,1:0:0:0:
279,154,54072,2,0,P|217:155|156:163,1,123,8|4,0:0|1:0,0:0:0:0:
81,197,54905,2,0,P|41:166|113:59,1,205,0|8,1:0|0:0,0:0:0:0:
181,87,56072,6,0,L|357:79,1,164,4|0,1:0|0:0,0:0:0:0:
422,105,57072,1,12,1:0:0:0:
452,181,57405,2,0,P|450:227|421:358,1,164,4|0,1:0|0:0,0:0:0:0:
263,361,58738,6,0,P|254:309|256:274,1,82,4|12,1:0|1:0,0:0:0:0:
295,208,59405,2,0,P|295:167|287:126,1,82,4|12,1:0|1:0,0:0:0:0:
225,72,60072,2,0,B|354:108|338:32|466:71,1,246,4|12,1:0|1:0,0:0:0:0:
485,151,61405,6,0,P|482:198|470:276,2,123,12|12|12,1:0|1:0|1:0,0:0:0:0:
452,75,62738,2,0,P|446:46|448:7,2,41,0|12|0,0:0|1:0|0:0,0:0:0:0:
377,109,63405,2,0,L|247:99,1,123,12|4,1:0|1:2,0:0:0:0:
174,117,64238,6,0,P|154:168|164:257,1,123,0|12,1:0|1:0,0:0:0:0:
188,311,65072,2,0,L|244:306,1,41,4|4,1:0|1:0,0:0:0:0:
387,348,65905,2,0,P|396:305|396:200,1,123,4|0,1:0|0:0,0:0:0:0:
348,161,66738,6,0,L|249:170,1,82,4|12,1:2|1:0,0:0:0:0:
191,203,67405,2,0,L|101:195,1,82,4|12,1:0|1:0,0:0:0:0:
77,271,68072,2,0,P|135:293|250:262,1,164,4|4,1:0|1:0,0:0:0:0:
302,231,69072,1,12,1:0:0:0:
358,171,69405,6,0,P|403:164|443:165,2,82,4|12|4,1:0|1:0|1:0,0:0:0:0:
299,324,70738,2,0,L|102:314,1,164,4|6,1:0|1:0,0:0:0:0:
68,268,71738,1,14,1:0:0:0:
43,189,72072,6,0,P|38:130|45:90,1,82,4|12,1:2|1:0,0:0:0:0:
95,46,72738,2,0,L|176:50,1,82,4|12,1:0|1:0,0:0:0:0:
249,87,73405,2,0,P|325:68|425:77,1,164,4|4,1:0|1:0,0:0:0:0:
425,154,74405,1,12,1:0:0:0:
424,236,74738,6,0,P|361:229|341:218,1,82,4|12,1:0|1:0,0:0:0:0:
278,174,75405,2,0,P|227:173|146:218,1,123,4|6,1:0|1:0,0:0:0:0:
256,192,76072,12,4,77405,1:0:0:0:
36,172,87738,5,12,1:0:0:0:
98,119,88072,2,0,P|143:108|181:108,1,82,4|12,0:2|0:0,0:0:0:0:
250,146,88738,2,0,P|295:157|333:157,1,82,4|12,0:0|0:0,0:0:0:0:
365,82,89405,2,0,L|377:255,1,164,4|4,0:0|0:0,0:0:0:0:
406,323,90405,1,12,0:0:0:0:
343,375,90738,6,0,L|261:371,2,82,4|12|4,0:0|0:0|0:0,0:0:0:0:
469,271,92072,2,0,P|467:215|460:178,1,82,4|12,0:0|0:0,0:0:0:0:
435,112,92738,1,4,0:0:0:0:
298,203,93405,6,0,L|126:193,1,164,4|4,0:2|0:0,0:0:0:0:
57,164,94405,1,12,0:0:0:0:
4,226,94738,2,0,L|17:313,2,82,4|12|4,0:0|0:0|0:0,0:0:0:0:
19,62,96072,6,0,P|83:56|220:57,1,164,4|4,0:0|0:0,0:0:0:0:
248,103,97072,2,0,L|301:97,1,41,0|2,0:0|0:0,0:0:0:0:
366,68,97572,2,0,L|474:78,1,82,2|2,0:0|0:0,0:0:0:0:
505,133,98238,2,0,L|508:179,1,41,0|2,0:0|0:0,0:0:0:0:
449,232,98738,6,0,P|392:236|353:247,1,82,4|12,1:2|1:0,0:0:0:0:
295,280,99405,2,0,P|250:283|212:263,1,82,4|12,1:0|1:0,0:0:0:0:
166,202,100072,2,0,P|103:190|2:226,1,164,4|4,0:0|0:0,0:0:0:0:
105,354,101405,5,4,0:0:0:0:
186,342,101738,1,8,0:0:0:0:
267,330,102072,2,0,L|378:343,1,82,4|12,0:0|0:0,0:0:0:0:
412,288,102738,2,0,P|435:215|380:136,1,164,4|4,0:0|0:0,0:0:0:0:
234,187,104072,6,0,L|145:181,1,82,4|12,0:2|0:0,0:0:0:0:
75,151,104738,2,0,P|19:163|-1:183,1,82,4|12,0:0|0:0,0:0:0:0:
22,258,105405,2,0,B|73:283|73:283|201:264,1,164,4|4,1:2|0:0,0:0:0:0:
260,255,106405,1,12,1:0:0:0:
256,192,106572,12,0,107905,0:0:0:0:
140,128,109405,6,0,P|189:118|243:121,1,82,4|12,1:0|1:0,0:0:0:0:
292,157,110072,1,4,1:0:0:0:
255,316,110738,2,0,L|435:308,1,164,4|4,1:0|1:0,0:0:0:0:
451,233,111738,1,12,1:0:0:0:
478,155,112072,6,0,L|388:145,1,82,4|12,1:0|1:0,0:0:0:0:
325,104,112738,2,0,L|235:114,1,82,4|12,1:0|1:0,0:0:0:0:
181,167,113405,2,0,P|118:168|10:153,1,164,4|6,1:0|1:0,0:0:0:0:
9,73,114405,1,6,1:0:0:0:
73,22,114738,6,0,P|118:13|162:17,1,82,4|12,1:2|1:0,0:0:0:0:
222,60,115405,2,0,L|323:51,1,82,4|12,1:0|1:0,0:0:0:0:
382,29,116072,2,0,P|392:86|397:211,1,164,4|4,1:0|1:0,0:0:0:0:
372,269,117072,1,12,1:0:0:0:
308,321,117405,6,0,L|116:309,1,164,4|4,1:0|1:0,0:0:0:0:
47,178,118738,2,0,L|135:171,1,82,4|0,1:0|0:0,0:0:0:0:
190,116,119405,1,4,1:2:0:0:
318,217,120072,6,0,P|360:221|366:33,1,287,4|4,1:0|1:0,0:0:0:0:
312,72,121572,2,0,P|231:79|151:64,1,164,0|0,1:0|0:0,0:0:0:0:
85,15,122572,2,0,B|68:34|58:71|74:108|100:129|100:129|83:159|83:159|118:151|130:167|144:187|148:211|140:243|119:262|91:255|107:215,1,328,4|4,1:0|1:2,0:0:0:0:
