osu file format v14

[General]
AudioFilename: 01 O2Jam (Original Soundtrack) - %S(.mp3
AudioLeadIn: 2000
PreviewTime: 82120
Countdown: 0
SampleSet: Soft
StackLeniency: 0.7
Mode: 0
LetterboxInBreaks: 0
WidescreenStoryboard: 0

[Editor]
DistanceSpacing: 1
BeatDivisor: 4
GridSize: 4
TimelineZoom: 3.256639

[Metadata]
Title:%S(M)
TitleUnicode:%S(M)
Artist:Memme
ArtistUnicode:Memme
Creator:P o M u T a
Version:Normal
Source:O2Jam U
Tags:pomuta Original Soundtrack electronica composer pory remix AngelHoney dubstep 다날 엔터테인먼트 모모
BeatmapID:667620
BeatmapSetID:296393

[Difficulty]
HPDrainRate:4
CircleSize:3
OverallDifficulty:4
ApproachRate:5
SliderMultiplier:1.2
SliderTickRate:1

[Events]
//Background and Video events
0,0,"1_R.png",0,0
//Break Periods
2,63739,68533
//Storyboard Layer 0 (Background)
//Storyboard Layer 1 (Fail)
//Storyboard Layer 2 (Pass)
//Storyboard Layer 3 (Foreground)
//Storyboard Sound Samples

[TimingPoints]
56,387.096774193548,4,2,4,80,1,0
7797,-100,4,2,1,80,0,0
12443,-100,4,2,3,70,0,0
13991,-100,4,2,1,80,0,0
16120,-100,4,2,1,80,0,0
19797,-100,4,2,3,80,0,0
20185,-100,4,2,1,80,0,0
24830,-100,4,2,3,70,0,0
26378,-100,4,2,1,80,0,0
32959,-100,4,2,3,80,0,0
33055,-100,4,2,1,80,0,0
33733,-100,4,2,3,80,0,0
33830,-100,4,2,1,80,0,0
34507,-100,4,2,3,80,0,0
34604,-100,4,2,1,80,0,0
35281,-100,4,2,3,80,0,0
35378,-100,4,2,1,80,0,0
36055,-100,4,2,3,80,0,0
36152,-100,4,2,1,80,0,0
36830,-100,4,2,3,80,0,0
36926,-100,4,2,1,80,0,0
37217,-100,4,2,3,80,0,0
37410,-100,4,2,6,80,0,0
38378,-100,4,2,3,80,0,0
38765,-100,4,2,1,80,0,0
44572,-100,4,2,3,80,0,0
44959,-100,4,2,1,80,0,0
56959,-100,4,2,3,80,0,0
57346,-100,4,2,1,80,0,0
61991,-100,4,2,3,80,0,0
62185,-100,4,2,6,80,0,0
63152,-100,4,2,3,80,0,0
63539,-100,4,2,4,80,0,0
74378,-100,4,2,1,80,0,0
75539,-100,4,2,3,80,0,0
75926,-100,4,2,1,80,0,0
77475,-100,4,2,3,80,0,0
79023,-100,4,2,1,80,0,0
81733,-100,4,2,3,80,0,0
82120,-100,4,2,1,90,0,1
85797,-100,4,2,6,90,0,1
88314,-100,4,2,1,90,0,1
91991,-100,4,2,6,90,0,1
92959,-100,4,2,3,70,0,1
94120,-100,4,2,3,90,0,1
94507,-100,4,2,1,90,0,1
98185,-100,4,2,6,90,0,1
106894,-100,4,2,1,80,0,0
113088,-100,4,2,3,80,0,0
116959,-100,4,2,1,80,0,0
117346,-100,4,2,3,80,0,0
118023,-100,4,2,1,80,0,0

[Colours]
Combo1 : 255,210,166
Combo2 : 181,255,255
Combo3 : 209,164,255

[HitObjects]
92,205,1604,6,0,P|146:228|205:223,1,120,4|8,0:1|0:0,0:0:0:0:
256,192,2185,1,0,0:0:0:0:
306,160,2378,2,0,P|365:155|419:178,1,120,8|8,0:0|0:0,0:0:0:0:
504,263,3152,2,0,P|445:254|390:274,1,120,8|8,0:0|0:0,0:0:0:0:
348,318,3733,1,0,0:0:0:0:
295,290,3926,2,0,P|236:280|180:300,1,120,0|8,0:0|0:0,0:0:0:0:
71,351,4701,6,0,L|48:234,1,120,8|8,0:0|0:0,0:0:0:0:
145,163,5475,2,0,L|122:46,1,120,0|8,0:0|0:0,0:0:0:0:
175,18,6055,1,8,0:0:0:0:
229,44,6249,2,0,P|283:57|347:43,1,120,8|8,0:0|0:0,0:0:0:0:
461,16,7023,2,0,B|482:126|482:126|447:254,1,240,0|4,0:0|0:1,0:0:0:0:
358,329,8185,5,8,0:0:0:0:
358,329,8378,2,0,L|177:335,1,180,2|12,0:0|0:0,0:0:0:0:
82,262,9346,2,0,L|227:231,1,120,2|10,0:0|0:0,0:0:0:0:
256,220,9926,2,0,P|269:125|230:51,1,180,2|12,0:0|0:0,0:0:0:0:
114,26,10894,5,6,0:0:0:0:
33,114,11281,1,8,0:0:0:0:
30,174,11475,2,0,L|23:299,1,120,2|2,0:0|0:0,0:0:0:0:
82,304,12055,2,0,L|79:382,2,60,12|0|6,0:0|0:0|0:3,0:0:0:0:
339,53,13604,2,0,L|300:49,2,40,6|2|2,0:3|0:3|0:3,0:0:0:0:
378,57,13991,6,0,P|395:114|388:178,1,120,4|0,0:1|0:0,0:0:0:0:
346,215,14572,1,2,0:0:0:0:
288,230,14765,2,0,L|158:229,1,120,2|0,0:0|0:0,0:0:0:0:
101,328,15539,1,0,0:0:0:0:
101,328,15733,2,0,L|220:328,1,120,2|2,0:0|0:0,0:0:0:0:
278,309,16314,2,0,L|376:309,2,90,2|2|2,0:0|0:0|0:0,0:0:0:0:
251,255,17088,6,0,P|225:198|225:140,1,120,2|0,0:0|0:0,0:0:0:0:
258,92,17668,1,2,0:0:0:0:
311,64,17862,1,2,0:0:0:0:
196,27,18249,1,0,0:0:0:0:
83,68,18636,1,0,0:0:0:0:
83,68,18830,2,0,P|53:153|62:240,1,180,2|2,0:0|0:0,0:0:0:0:
90,293,19604,2,0,L|74:350,1,60,0|12,0:0|0:1,0:0:0:0:
194,349,20185,5,4,0:1:0:0:
313,359,20572,1,2,0:0:0:0:
422,309,20959,1,2,0:0:0:0:
469,198,21346,1,2,0:0:0:0:
432,83,21733,2,0,L|439:24,2,60,2|0|0,0:0|0:0|3:0,0:0:0:0:
380,113,22314,1,0,3:0:0:0:
324,134,22507,2,0,P|264:140|196:112,1,120,2|2,0:0|0:0,0:0:0:0:
256,192,23281,12,4,24830,0:3:0:0:
441,276,26378,6,0,P|381:293|320:283,1,120,4|2,0:1|0:0,0:0:0:0:
208,257,27152,1,0,3:0:0:0:
113,331,27539,1,2,0:0:0:0:
21,253,27926,2,0,P|6:193|13:132,1,120,2|2,0:0|0:0,0:0:0:0:
46,86,28507,1,0,0:0:0:0:
89,44,28701,2,0,P|146:29|206:34,1,120,2|2,0:0|0:0,0:0:0:0:
277,130,29475,6,0,L|281:190,2,60,2|0|2,0:0|0:0|0:0,0:0:0:0:
314,83,30055,1,0,3:0:0:0:
367,55,30249,2,0,P|423:48|477:81,1,120,2|2,0:0|0:0,0:0:0:0:
492,137,30830,1,0,0:0:0:0:
497,196,31023,2,0,L|499:287,2,90,2|2|2,0:0|0:0|0:0,0:0:0:0:
436,193,31797,2,0,P|380:225|324:217,1,120,2|2,0:0|0:0,0:0:0:0:
235,140,32572,6,0,P|243:82|215:22,1,120,4|10,3:1|0:0,0:0:0:0:
160,15,33152,1,0,3:0:0:0:
102,33,33346,2,0,P|73:41|40:42,2,60,0|0|10,3:0|0:0|0:0,0:0:0:0:
144,145,34120,2,0,P|147:211|129:263,1,120,2|10,0:0|0:0,0:0:0:0:
144,380,34894,2,0,L|217:377,1,60,2|0,0:0|0:0,0:0:0:0:
259,352,35281,2,0,L|385:347,1,120,10|2,0:0|0:0,0:0:0:0:
461,260,36055,5,10,0:0:0:0:
461,260,36249,2,0,L|448:139,1,120,0|0,3:0|0:0,0:0:0:0:
441,80,36830,2,0,L|479:23,2,60,10|0|8,0:0|0:0|0:1,0:0:0:0:
203,43,37991,2,0,L|149:37,2,40,4|4|4,0:0|0:0|0:0,0:0:0:0:
242,47,38378,1,8,0:1:0:0:
326,131,38765,6,0,P|344:185|339:250,1,120,4|10,0:1|0:0,0:0:0:0:
299,291,39346,1,0,0:0:0:0:
247,322,39539,2,0,P|187:342|133:331,1,120,0|10,0:0|0:0,0:0:0:0:
49,244,40314,1,2,0:0:0:0:
33,186,40507,1,2,0:0:0:0:
42,126,40701,2,0,P|45:97|39:64,1,60,10|0,0:0|0:0,0:0:0:0:
152,24,41281,1,2,0:0:0:0:
152,24,41475,2,0,L|218:24,1,60,10|2,0:0|0:0,0:0:0:0:
260,58,41862,6,0,L|323:54,2,60,2|2|10,0:0|0:0|0:0,0:0:0:0:
220,103,42443,1,2,0:0:0:0:
202,160,42636,2,0,P|185:224|193:277,1,120,2|10,0:0|0:0,0:0:0:0:
304,230,43410,2,0,L|325:171,2,60,2|2|4,0:0|0:0|0:1,0:0:0:0:
357,339,44185,1,0,0:0:0:0:
474,315,44572,1,8,0:1:0:0:
505,199,44959,6,0,L|498:138,1,60,4|0,0:1|0:0,0:0:0:0:
490,79,45346,1,8,0:0:0:0:
380,30,45733,2,0,L|319:37,1,60,0|2,0:0|0:0,0:0:0:0:
260,45,46120,1,10,0:0:0:0:
216,86,46314,1,2,0:0:0:0:
232,143,46507,2,0,P|239:173|239:204,1,60,2|2,0:0|0:0,0:0:0:0:
223,260,46894,2,0,P|199:272|165:275,1,60,8|0,0:0|0:0,0:0:0:0:
66,208,47475,2,0,L|55:144,2,60,2|10|2,0:0|0:0|0:0,0:0:0:0:
76,266,48055,6,0,L|43:315,2,60,2|2|10,0:0|0:0|0:0,0:0:0:0:
170,191,48830,2,0,L|137:142,2,60,0|2|10,0:0|0:0|0:0,0:0:0:0:
226,210,49410,1,2,0:0:0:0:
285,201,49604,2,0,P|342:190|405:198,1,120,2|2,0:0|0:0,0:0:0:0:
491,354,50572,1,2,0:0:0:0:
491,354,50765,2,0,L|485:295,1,60,2|0,0:0|0:0,0:0:0:0:
427,278,51152,6,0,P|365:280|311:306,1,120,4|8,0:1|0:0,0:0:0:0:
262,337,51733,1,0,0:0:0:0:
208,364,51926,2,0,P|148:362|94:337,1,120,0|10,0:0|0:0,0:0:0:0:
47,226,52701,2,0,P|34:164|37:105,1,120,2|10,0:0|0:0,0:0:0:0:
62,53,53281,1,0,0:0:0:0:
178,24,53668,2,0,L|237:23,2,60,2|10|2,0:0|0:0|0:0,0:0:0:0:
142,72,54249,6,0,P|137:129|152:190,1,120,2|10,0:0|0:0,0:0:0:0:
191,234,54830,1,0,0:0:0:0:
247,213,55023,2,0,P|303:198|368:214,1,120,0|10,0:0|0:0,0:0:0:0:
442,300,55797,1,2,0:0:0:0:
442,300,55991,1,2,0:0:0:0:
442,300,56185,2,0,B|459:178|459:178|378:95,1,240,8|8,0:0|0:1,0:0:0:0:
263,58,57346,6,0,L|204:61,1,60,4|2,0:1|0:0,0:0:0:0:
143,63,57733,1,10,0:0:0:0:
71,159,58120,2,0,L|130:156,1,60,0|2,0:0|0:0,0:0:0:0:
191,154,58507,1,10,0:0:0:0:
234,195,58701,1,0,0:0:0:0:
226,254,58894,2,0,P|220:288|221:325,1,60,2|2,0:0|0:0,0:0:0:0:
266,351,59281,2,0,P|300:357|337:356,1,60,8|0,0:0|0:0,0:0:0:0:
440,322,59862,2,0,L|507:323,2,60,2|8|2,0:0|0:0|0:0,0:0:0:0:
389,288,60443,6,0,L|381:229,1,60,2|2,0:0|0:0,0:0:0:0:
376,168,60830,1,10,0:0:0:0:
280,96,61217,1,0,0:0:0:0:
222,80,61410,1,2,0:0:0:0:
162,87,61604,2,0,P|133:91|102:88,1,60,10|0,0:0|0:0,0:0:0:0:
44,72,61991,1,8,0:1:0:0:
87,308,62765,2,0,L|87:362,2,40,4|4|4,0:0|0:0|0:0,0:0:0:0:
87,268,63152,1,8,0:1:0:0:
164,176,63539,5,12,0:0:0:0:
256,192,69733,12,4,74378,0:1:0:0:
256,192,75539,5,2,0:3:0:0:
178,283,75926,6,0,P|118:307|67:293,2,120,4|8|0,0:1|0:0|0:0,0:0:0:0:
256,192,77088,1,8,0:0:0:0:
334,283,77475,2,0,P|394:307|445:293,1,120,2|8,0:3|0:3,0:0:0:0:
498,123,78443,2,0,P|502:88|501:61,2,60,8|0|2,0:3|0:0|0:3,0:0:0:0:
441,143,79023,6,0,P|412:150|370:147,1,60,0|0,0:0|0:0,0:0:0:0:
323,137,79410,2,0,P|293:136|263:143,1,60,8|0,0:0|0:0,0:0:0:0:
212,175,79797,2,0,P|156:202|98:185,1,120,0|8,0:0|0:0,0:0:0:0:
26,94,80572,1,8,0:0:0:0:
26,94,80765,1,8,0:0:0:0:
26,94,80959,1,8,0:0:0:0:
129,33,81346,2,0,L|192:32,1,60,0|0,0:3|0:3,0:0:0:0:
249,30,81733,1,8,0:1:0:0:
368,30,82120,6,0,P|423:85|444:183,1,180,6|2,0:1|0:0,0:0:0:0:
422,238,82894,2,0,L|437:302,2,60,2|2|2,0:0|0:1|0:1,0:0:0:0:
369,208,83475,1,2,0:0:0:0:
256,165,83862,1,2,0:0:0:0:
256,165,84055,2,0,P|226:165|196:170,1,60,2|0,0:1|0:0,0:0:0:0:
117,260,84636,1,2,0:1:0:0:
117,260,84830,2,0,P|79:201|77:151,2,120,8|2|0,0:0|0:0|0:0,0:0:0:0:
149,310,85797,6,0,L|141:369,1,60,6|12,0:0|0:0,0:0:0:0:
239,300,86378,2,0,L|247:241,1,60,4|6,0:0|0:0,0:0:0:0:
299,132,86959,1,4,0:0:0:0:
342,90,87152,2,0,P|395:64|461:80,1,120,6|2,0:0|0:0,0:0:0:0:
490,122,87733,1,8,0:0:0:0:
490,181,87926,1,2,0:0:0:0:
490,301,88314,6,0,P|413:346|327:334,1,180,2|2,0:1|0:0,0:0:0:0:
284,290,89088,2,0,L|280:226,2,60,2|2|2,0:0|0:0|0:1,0:0:0:0:
243,334,89668,1,2,0:0:0:0:
141,269,90055,1,2,0:0:0:0:
141,269,90249,2,0,L|82:273,1,60,2|0,0:1|0:0,0:0:0:0:
13,173,90830,1,2,0:1:0:0:
13,173,91023,2,0,P|23:113|61:63,2,120,8|2|0,0:0|0:0|0:0,0:0:0:0:
69,194,91991,6,0,L|128:190,1,60,6|12,0:0|0:0,0:0:0:0:
199,92,92572,2,0,L|187:21,2,60,4|6|4,0:0|0:0|0:3,0:0:0:0:
295,163,93346,2,0,P|327:164|357:157,1,60,4|4,0:3|0:3,0:0:0:0:
447,233,93926,2,0,P|415:232|385:239,1,60,4|8,0:3|0:1,0:0:0:0:
283,298,94507,6,0,P|199:328|109:314,1,180,6|0,0:1|0:0,0:0:0:0:
67,273,95281,2,0,L|54:207,2,60,0|2|2,0:0|0:0|0:1,0:0:0:0:
134,173,96055,2,0,L|147:239,2,60,2|2|2,0:0|0:0|0:1,0:0:0:0:
122,113,96636,1,2,0:0:0:0:
235,152,97023,1,2,0:1:0:0:
235,152,97217,2,0,P|292:160|347:128,2,120,8|2|8,0:0|0:0|0:0,0:0:0:0:
187,41,98378,6,0,P|153:39|127:31,2,60,4|6|12,0:0|0:0|0:0,0:0:0:0:
246,31,98959,1,4,0:0:0:0:
301,53,99152,2,0,P|332:56|362:51,1,60,6|6,0:0|0:0,0:0:0:0:
413,80,99539,2,0,P|410:111|415:141,1,60,12|4,0:0|0:0,0:0:0:0:
436,195,99926,2,0,P|441:254|408:307,1,120,0|2,0:0|0:2,0:0:0:0:
299,349,100701,6,0,B|203:366|203:366|122:340,1,180,2|0,0:1|0:0,0:0:0:0:
256,192,101475,12,12,105346,0:1:0:0:
73,65,106507,5,8,0:1:0:0:
73,65,106894,6,0,L|205:57,1,120,4|2,0:1|0:0,0:0:0:0:
277,142,107668,2,0,L|145:150,1,120,0|2,3:0|0:0,0:0:0:0:
101,171,108249,1,0,0:0:0:0:
68,221,108443,2,0,P|62:279|81:337,1,120,2|2,0:0|0:0,0:0:0:0:
135,360,109023,1,0,0:0:0:0:
194,368,109217,2,0,L|326:357,1,120,2|2,0:0|0:0,0:0:0:0:
432,339,109991,6,0,L|492:350,2,60,2|0|2,0:0|0:0|0:0,0:0:0:0:
377,313,110572,1,0,0:0:0:0:
329,276,110765,2,0,P|313:219|333:159,1,120,2|2,0:0|0:0,0:0:0:0:
424,88,111539,2,0,P|465:67|510:65,2,90,2|2|2,0:0|0:0|0:0,0:0:0:0:
373,54,112314,2,0,P|343:65|312:66,1,60,2|2,0:0|0:3,0:0:0:0:
256,55,112701,2,0,P|226:56|198:67,1,60,2|2,0:0|0:3,0:0:0:0:
155,109,113088,6,0,P|147:165|161:227,1,120,4|8,0:1|0:0,0:0:0:0:
207,264,113668,1,0,0:0:0:0:
266,269,113862,2,0,L|395:263,1,120,2|8,0:0|0:0,0:0:0:0:
468,350,114636,2,0,L|339:356,1,120,2|8,0:0|0:0,0:0:0:0:
288,359,115217,1,0,0:0:0:0:
228,358,115410,2,0,L|108:352,1,120,2|8,0:0|0:0,0:0:0:0:
18,271,116185,5,2,0:0:0:0:
5,212,116378,1,0,0:0:0:0:
10,152,116572,2,0,P|15:121|30:83,1,60,8|8,0:0|0:0,0:0:0:0:
75,61,116959,2,0,P|131:69|192:55,1,120,0|8,3:0|0:0,0:0:0:0:
249,36,117539,1,0,0:0:0:0:
310,36,117733,6,0,P|356:38|415:28,4,90,8|2|2|2|2,0:1|0:0|0:0|0:0|0:0,0:0:0:0:
272,82,119088,2,0,L|278:150,1,60,2|4,0:0|0:1,0:0:0:0:
