osu file format v14

[General]
AudioFilename: 01 O2Jam (Original Soundtrack) - %S(.mp3
AudioLeadIn: 2000
PreviewTime: 82120
Countdown: 0
SampleSet: Soft
StackLeniency: 0.7
Mode: 0
LetterboxInBreaks: 0
WidescreenStoryboard: 0

[Editor]
DistanceSpacing: 1.2
BeatDivisor: 4
GridSize: 4
TimelineZoom: 3.956638

[Metadata]
Title:%S(M)
TitleUnicode:%S(M)
Artist:Memme
ArtistUnicode:Memme
Creator:P o M u T a
Version:Hard
Source:O2Jam U
Tags:pomuta Original Soundtrack electronica composer pory remix AngelHoney dubstep 다날 엔터테인먼트 모모
BeatmapID:667768
BeatmapSetID:296393

[Difficulty]
HPDrainRate:4.5
CircleSize:4
OverallDifficulty:6
ApproachRate:7.5
SliderMultiplier:1.42
SliderTickRate:2

[Events]
//Background and Video events
0,0,"1_R.png",0,0
//Break Periods
2,63739,68908
//Storyboard Layer 0 (Background)
//Storyboard Layer 1 (Fail)
//Storyboard Layer 2 (Pass)
//Storyboard Layer 3 (Foreground)
//Storyboard Sound Samples

[TimingPoints]
56,387.096774193548,4,2,4,80,1,0
7410,-100,4,2,3,80,0,0
7797,-100,4,2,1,80,0,0
12443,-100,4,2,3,70,0,0
13991,-133.333333333333,4,2,1,80,0,0
19797,-100,4,2,3,80,0,0
20185,-100,4,2,1,80,0,0
24830,-100,4,2,3,70,0,0
26378,-100,4,2,1,80,0,0
32959,-100,4,2,3,80,0,0
33055,-100,4,2,1,80,0,0
33733,-100,4,2,3,80,0,0
33830,-100,4,2,1,80,0,0
34507,-100,4,2,3,80,0,0
34604,-100,4,2,1,80,0,0
35281,-100,4,2,3,80,0,0
35378,-100,4,2,1,80,0,0
36055,-100,4,2,3,80,0,0
36152,-100,4,2,1,80,0,0
36830,-100,4,2,3,80,0,0
36926,-100,4,2,1,80,0,0
37217,-100,4,2,3,80,0,0
37410,-100,4,2,6,80,0,0
38378,-100,4,2,3,80,0,0
38765,-100,4,2,1,80,0,0
44572,-100,4,2,3,80,0,0
44959,-100,4,2,1,80,0,0
56959,-100,4,2,3,80,0,0
57346,-100,4,2,1,80,0,0
61991,-100,4,2,3,80,0,0
62185,-100,4,2,6,80,0,0
63152,-100,4,2,3,80,0,0
63346,-100,4,2,1,80,0,0
63539,-100,4,2,4,80,0,0
74378,-100,4,2,1,80,0,0
75539,-100,4,2,3,80,0,0
75926,-100,4,2,1,80,0,0
77475,-100,4,2,3,80,0,0
79023,-100,4,2,1,80,0,0
81733,-100,4,2,3,80,0,0
82120,-100,4,2,1,90,0,1
85217,-133.333333333333,4,2,1,90,0,1
85797,-100,4,2,6,80,0,1
88894,-100,4,2,1,90,0,1
91410,-133.333333333333,4,2,1,90,0,1
91991,-100,4,2,6,90,0,1
92959,-100,4,2,3,70,0,1
94120,-100,4,2,3,90,0,1
94507,-100,4,2,1,90,0,1
97604,-133.333333333333,4,2,1,90,0,1
98185,-100,4,2,6,90,0,1
101862,-100,4,2,1,90,0,1
103797,-133.333333333333,4,2,1,90,0,1
104378,-100,4,2,6,90,0,1
106894,-100,4,2,1,80,0,0
113088,-100,4,2,3,80,0,0
118023,-100,4,2,1,80,0,0

[Colours]
Combo1 : 255,210,166
Combo2 : 181,255,255
Combo3 : 209,164,255

[HitObjects]
399,81,1604,6,0,P|422:142|406:216,1,142,4|8,0:1|0:0,0:0:0:0:
343,248,2185,1,0,0:0:0:0:
272,237,2378,2,0,P|237:233|203:247,1,71,8|0,0:0|0:0,0:0:0:0:
149,291,2765,2,0,L|158:332,3,35.5,8|0|8|0,0:0|0:0|0:0|0:0,0:0:0:0:
166,359,3152,6,0,L|19:357,1,142,8|8,0:0|0:0,0:0:0:0:
4,288,3733,1,0,0:0:0:0:
25,220,3926,2,0,P|32:189|28:151,1,71,0|8,0:0|0:0,0:0:0:0:
21,114,4217,1,0,0:0:0:0:
35,81,4314,2,0,L|74:75,3,35.5,8|0|8|0,0:0|0:0|0:0|0:0,0:0:0:0:
104,85,4701,6,0,P|160:110|235:77,1,142,8|8,0:0|0:0,0:0:0:0:
285,36,5281,1,0,0:0:0:0:
344,74,5475,2,0,L|356:115,3,35.5,0|0|8|0,0:0|0:0|0:0|0:0,0:0:0:0:
336,139,5862,2,0,L|295:151,3,35.5,8|0|8|0,0:0|0:0|0:0|0:1,0:0:0:0:
271,167,6249,5,8,0:0:0:0:
245,233,6443,1,0,0:0:0:0:
273,297,6636,2,0,P|321:337|406:350,1,142,8|0,0:0|0:0,0:0:0:0:
461,320,7217,1,0,0:0:0:0:
504,264,7410,1,2,0:3:0:0:
504,264,7507,2,0,L|499:188,1,71,2|2,0:3|0:3,0:0:0:0:
489,159,7797,6,0,P|422:186|359:163,1,142,4|8,0:1|0:0,0:0:0:0:
318,104,8378,2,0,L|300:244,1,142,2|0,0:0|0:0,0:0:0:0:
238,281,8959,2,0,L|196:294,3,35.5,12|0|4|0,0:0|0:0|0:0|0:0,0:0:0:0:
168,288,9346,6,0,L|162:212,1,71,2|0,0:0|0:0,0:0:0:0:
139,189,9636,2,0,L|135:135,1,35.5,0|10,0:0|0:0,0:0:0:0:
93,97,9926,1,2,0:0:0:0:
93,97,10023,2,0,P|128:81|161:85,1,71,0|12,0:0|0:0,0:0:0:0:
190,102,10314,1,6,0:0:0:0:
248,141,10507,2,0,P|283:150|324:135,1,71,12|6,0:0|0:0,0:0:0:0:
378,106,10894,5,6,0:0:0:0:
449,104,11088,1,0,0:0:0:0:
495,157,11281,1,8,0:0:0:0:
493,228,11475,2,0,P|473:296|415:331,1,142,2|4,0:0|0:0,0:0:0:0:
351,298,12055,2,0,P|314:296|285:278,1,71,12|4,0:0|0:0,0:0:0:0:
287,207,12443,6,0,P|281:169|288:134,1,71,4|4,0:3|0:3,0:0:0:0:
333,83,12830,1,4,0:3:0:0:
291,25,13023,2,0,L|245:27,1,35.5,4|4,0:3|0:3,0:0:0:0:
203,75,13314,2,0,L|204:114,2,35.5,4|4|4,0:3|0:3|0:3,0:0:0:0:
174,53,13604,2,0,B|156:53|156:53|123:60,2,47.3333333333333,6|2|2,0:3|0:3|0:3,0:0:0:0:
57,117,13991,6,0,P|71:168|66:221,1,106.500004062653,4|0,0:1|0:0,0:0:0:0:
21,280,14572,1,2,0:0:0:0:
51,348,14765,1,0,0:0:0:0:
51,348,15152,1,0,0:0:0:0:
116,312,15346,1,0,0:0:0:0:
189,324,15539,5,0,0:0:0:0:
254,359,15733,2,0,L|363:355,1,106.500004062653,2|2,0:0|0:0,0:0:0:0:
412,301,16314,2,0,L|495:298,2,79.8750030469895,2|2|2,0:0|0:0|0:0,0:0:0:0:
350,258,17088,6,0,P|342:206|359:154,1,106.500004062653,2|0,0:0|0:0,0:0:0:0:
408,100,17668,1,2,0:0:0:0:
408,100,17862,1,0,0:0:0:0:
278,26,18249,1,0,0:0:0:0:
235,87,18443,1,0,0:0:0:0:
267,153,18636,6,0,P|265:207|232:245,1,106.500004062653
162,273,19217,1,2,0:0:0:0:
210,329,19410,1,2,0:0:0:0:
283,314,19604,2,0,L|302:312,4,13.3125005078316,0|0|0|0|12,0:0|0:0|0:0|0:0|0:1,0:0:0:0:
71,340,20185,6,0,P|46:276|47:201,1,142,4|2,0:1|0:0,0:0:0:0:
85,144,20765,1,0,0:0:0:0:
149,113,20959,2,0,L|290:106,1,142,2|2,0:0|0:0,0:0:0:0:
409,28,21733,6,0,P|433:95|420:162,1,142,2|2,0:0|0:0,0:0:0:0:
355,193,22314,1,0,0:0:0:0:
297,233,22507,2,0,L|309:375,1,142,2|2,0:0|0:0,0:0:0:0:
167,363,23281,5,2,0:0:0:0:
108,322,23475,2,0,L|69:325,2,35.5,2|2|2,0:0|0:0|0:0,0:0:0:0:
152,266,23862,1,2,0:0:0:0:
167,197,24055,2,0,L|160:163,3,35.5,2|2|2|2,0:0|0:0|0:0|0:0,0:0:0:0:
173,128,24443,2,0,L|186:92,3,35.5,2|2|2|2,0:0|0:0|0:0|0:0,0:0:0:0:
215,76,24830,6,0,L|286:71,1,71,4|4,0:3|0:3,0:0:0:0:
356,63,25217,1,4,3:0:0:0:
426,54,25410,2,0,L|475:48,1,35.5,4|4,3:3|0:3,0:0:0:0:
479,118,25701,2,0,L|430:124,1,35.5,4|4,0:3|0:3,0:0:0:0:
410,134,25894,1,4,0:3:0:0:
381,155,25991,2,0,P|374:190|381:230,1,71,4|2,0:3|0:3,0:0:0:0:
420,282,26378,6,0,P|427:317|420:357,1,71,4|0,0:1|0:0,0:0:0:0:
353,369,26765,1,2,0:0:0:0:
283,355,26959,1,0,0:0:0:0:
245,295,27152,2,0,L|211:302,2,35.5,0|0|0,3:0|0:0|0:0,0:0:0:0:
264,226,27539,2,0,P|267:190|255:156,1,71,2|0,0:0|0:0,0:0:0:0:
189,131,27926,6,0,L|102:138,1,71,2|0,0:0|0:0,0:0:0:0:
46,140,28314,1,2,0:0:0:0:
14,203,28507,2,0,L|16:245,1,35.5,0|0,0:0|0:0,0:0:0:0:
72,281,28797,2,0,L|74:323,1,35.5,0|0,0:0|0:0,0:0:0:0:
132,357,29088,2,0,P|166:361|204:349,1,71,2|0,0:0|0:0,0:0:0:0:
245,295,29475,5,2,0:0:0:0:
314,283,29668,1,0,0:0:0:0:
384,290,29862,1,2,0:0:0:0:
438,335,30055,2,0,L|444:371,1,35.5,0|0,3:0|0:0,0:0:0:0:
510,344,30346,1,0,0:0:0:0:
510,344,30443,2,0,L|495:272,1,71,0|2,0:0|0:0,0:0:0:0:
481,204,30830,1,0,0:0:0:0:
476,133,31023,6,0,L|490:25,2,106.5,2|2|2,0:0|0:0|0:0,0:0:0:0:
416,171,31797,2,0,P|363:190|306:181,1,106.5,2|0,0:0|0:0,0:0:0:0:
290,157,32185,2,0,L|281:119,3,35.5,2|2|2|2,0:0|0:0|0:0|0:0,0:0:0:0:
268,89,32572,6,0,P|199:87|154:142,1,142,4|10,3:1|0:0,0:0:0:0:
156,209,33152,1,0,3:0:0:0:
159,244,33249,1,0,3:0:0:0:
162,279,33346,1,0,3:0:0:0:
205,335,33539,1,0,0:0:0:0:
134,344,33733,2,0,P|100:356|65:348,1,71,10|0,0:0|0:0,0:0:0:0:
28,288,34120,6,0,L|19:205,1,71,2|0,0:0|0:0,0:0:0:0:
13,146,34507,1,10,0:0:0:0:
53,87,34701,1,0,3:0:0:0:
87,81,34797,1,0,0:0:0:0:
150,112,34991,1,0,0:0:0:0:
184,106,35088,2,0,L|270:91,2,71,0|10|0,0:0|0:0|0:0,0:0:0:0:
180,176,35668,6,0,P|178:211|188:255,1,71,2|0,0:0|0:0,0:0:0:0:
220,307,36055,1,10,0:0:0:0:
256,368,36249,1,0,3:0:0:0:
256,368,36346,1,0,0:0:0:0:
292,307,36539,2,0,P|344:299|400:317,1,106.5,0|10,0:0|0:0,0:0:0:0:
459,343,37023,1,0,0:0:0:0:
504,288,37217,5,8,0:1:0:0:
256,192,37314,12,8,38378,0:1:0:0:
334,35,38765,6,0,L|420:32,2,71,4|4|10,0:1|0:1|0:0,0:0:0:0:
282,84,39346,2,0,L|274:122,3,35.5,0|0|0|0,0:0|0:0|0:0|0:0,0:0:0:0:
262,152,39733,2,0,P|223:157|189:143,1,71,2|10,0:0|0:0,0:0:0:0:
144,95,40120,1,0,0:0:0:0:
84,56,40314,6,0,P|54:68|26:95,1,71,2|2,0:0|0:0,0:0:0:0:
15,164,40701,1,10,0:0:0:0:
28,233,40894,2,0,L|24:277,1,35.5,0|2,0:0|0:0,0:0:0:0:
77,316,41185,2,0,L|121:320,1,35.5,2|2,0:0|0:0,0:0:0:0:
182,308,41475,2,0,P|200:275|207:241,1,71,10|2,0:0|0:0,0:0:0:0:
200,171,41862,5,2,0:0:0:0:
175,104,42055,1,2,0:0:0:0:
216,46,42249,1,10,0:0:0:0:
286,57,42443,2,0,L|326:55,3,35.5,2|0|2|0,0:0|0:0|0:0|0:0,0:0:0:0:
356,52,42830,2,0,L|432:33,2,71,2|10|0,0:0|0:0|0:0,0:0:0:0:
328,117,43410,6,0,P|322:151|331:190,1,71,2|2,0:0|0:0,0:0:0:0:
383,233,43797,1,4,0:1:0:0:
454,234,43991,1,0,0:0:0:0:
488,297,44185,2,0,L|486:340,3,35.5,0|0|0|0,0:0|0:0|0:0|0:0,0:0:0:0:
465,361,44572,1,8,0:1:0:0:
331,313,44959,6,0,P|296:309|262:318,1,71,4|0,0:1|0:0,0:0:0:0:
198,350,45346,1,8,0:0:0:0:
136,314,45539,1,0,0:0:0:0:
65,319,45733,2,0,P|52:325|30:326,2,35.5,0|0|2,0:0|0:0|0:0,0:0:0:0:
63,247,46120,2,0,P|54:213|58:178,1,71,10|0,0:0|0:0,0:0:0:0:
118,140,46507,6,0,L|188:135,1,71,2|2,0:0|0:0,0:0:0:0:
248,173,46894,1,8,0:0:0:0:
301,125,47088,2,0,L|294:82,1,35.5,0|0,0:0|0:0,0:0:0:0:
345,39,47378,1,0,0:0:0:0:
345,39,47475,2,0,L|388:32,1,35.5,2|0,0:0|0:0,0:0:0:0:
415,28,47668,2,0,P|426:62|428:101,1,71,10|2,0:0|0:0,0:0:0:0:
395,160,48055,5,2,0:0:0:0:
379,229,48249,1,2,0:0:0:0:
412,292,48443,1,10,0:0:0:0:
478,317,48636,2,0,L|511:301,4,35.5,0|0|0|0|2,0:0|0:0|0:0|0:0|0:0,0:0:0:0:
423,363,49217,2,0,P|388:371|350:366,1,71,10|0,0:0|0:0,0:0:0:0:
300,319,49604,6,0,L|287:242,1,71,2|0,0:0|0:0,0:0:0:0:
281,213,49894,1,0,0:0:0:0:
276,177,49991,2,0,P|208:157|172:168,2,106.5,2|2|2,0:0|0:0|0:0,0:0:0:0:
346,188,50765,2,0,P|414:197|447:184,1,106.5,2|0,0:0|0:0,0:0:0:0:
474,159,51152,6,0,L|469:85,1,71,4|2,0:1|0:0,0:0:0:0:
428,29,51539,1,8,0:0:0:0:
368,68,51733,2,0,L|327:75,1,35.5
262,67,52023,2,0,L|227:72,1,35.5,2|0,0:0|0:0,0:0:0:0:
155,73,52314,2,0,P|139:105|133:140,1,71,10|0,0:0|0:0,0:0:0:0:
67,204,52701,6,0,P|103:207|139:223,1,71,2|2,0:0|0:0,0:0:0:0:
205,231,53088,1,10,0:0:0:0:
273,211,53281,2,0,L|313:210,1,35.5,0|0,0:0|0:0,0:0:0:0:
371,244,53572,2,0,L|383:292,1,35.5,8|2,0:0|0:0,0:0:0:0:
347,341,53862,2,0,P|314:354|273:349,1,71,10|0,0:0|0:0,0:0:0:0:
213,323,54249,5,2,0:0:0:0:
142,317,54443,1,2,0:0:0:0:
75,341,54636,1,10,0:0:0:0:
88,271,54830,2,0,L|82:233,3,35.5,0|0|0|0,0:0|0:0|0:0|0:0,0:0:0:0:
74,201,55217,2,0,P|42:184|7:180,2,71,2|10|0,0:0|0:0|0:0,0:0:0:0:
141,223,55797,6,0,P|175:228|209:213,1,71,2|2,0:0|0:0,0:0:0:0:
233,146,56185,2,0,P|346:71|471:125,1,284,8|8,0:0|0:1,0:0:0:0:
488,267,57346,6,0,L|470:356,1,71,4|2,0:1|0:0,0:0:0:0:
409,366,57733,1,10,0:0:0:0:
345,334,57926,2,0,L|301:338,1,35.5,0|0,0:0|0:0,0:0:0:0:
284,311,58120,2,0,L|240:315,1,35.5,0|0,0:0|0:0,0:0:0:0:
226,285,58314,2,0,P|218:249|221:209,2,71,2|10|0,0:0|0:0|0:0,0:0:0:0:
156,298,58894,6,0,P|164:334|161:374,1,71,2|2,0:0|0:0,0:0:0:0:
92,381,59281,1,8,0:0:0:0:
33,340,59475,2,0,L|18:293,1,35.5,0|8,0:0|0:0,0:0:0:0:
53,242,59765,2,0,L|69:195,1,35.5,8|2,0:0|0:0,0:0:0:0:
21,152,60055,2,0,L|14:78,1,71,8|2,0:0|0:0,0:0:0:0:
64,30,60443,6,0,P|99:20|136:20,1,71,2|2,0:0|0:0,0:0:0:0:
199,45,60830,1,10,0:0:0:0:
267,25,61023,2,0,L|309:24,3,35.5
326,50,61410,2,0,L|317:123,2,71,2|10|0,0:0|0:0|0:0,0:0:0:0:
389,17,61991,5,8,0:1:0:0:
256,192,62088,12,8,63152,0:1:0:0:
256,280,63346,6,0,L|256:324,2,35.5,8|8|12,0:0|0:0|0:0,0:0:0:0:
256,192,69733,12,8,71281,0:0:0:0:
256,192,71378,12,8,72830,0:0:0:0:
256,192,72926,12,4,74378,0:1:0:0:
62,192,75539,5,2,0:3:0:0:
62,192,75636,2,0,L|149:192,1,71,2|2,0:3|0:3,0:0:0:0:
168,192,75926,1,4,0:1:0:0:
209,249,76120,1,0,0:0:0:0:
204,320,76314,1,2,0:0:0:0:
144,358,76507,2,0,L|104:360,2,35.5,0|0|2,0:0|0:0|0:0,0:0:0:0:
204,320,76894,2,0,L|293:315,2,71,0|2|0,0:0|0:0|0:0,0:0:0:0:
143,282,77475,6,0,L|101:280,1,35.5,2|2,0:3|0:3,0:0:0:0:
75,278,77668,2,0,L|33:276,1,35.5
4,274,77862,2,0,L|2:182,1,71,8|0,0:3|0:0,0:0:0:0:
28,178,78152,2,0,L|28:104,1,71,8|0,0:3|0:0,0:0:0:0:
49,78,78443,2,0,L|88:60,3,35.5,8|0|0|0,0:3|0:0|0:0|0:0,0:0:0:0:
114,49,78830,1,2,0:3:0:0:
161,124,79023,5,0,0:0:0:0:
210,193,79217,1,0,0:0:0:0:
292,214,79410,1,8,0:0:0:0:
358,160,79604,1,0,0:0:0:0:
399,86,79797,2,0,L|392:42,3,35.5,0|0|0|0,0:0|0:0|0:0|0:0,0:0:0:0:
428,25,80185,2,0,L|473:20,3,35.5,8|0|0|0,0:0|0:0|0:0|0:0,0:0:0:0:
494,50,80572,5,8,0:0:0:0:
450,147,80765,1,8,0:0:0:0:
489,246,80959,1,8,0:0:0:0:
430,334,81152,2,0,L|384:341,3,35.5,0|0|0|0,0:0|0:0|0:3|0:3,0:0:0:0:
360,328,81539,2,0,L|314:335,2,35.5,0|0|8,0:0|0:0|0:1,0:0:0:0:
76,335,82120,6,0,P|40:274|52:203,1,142,6|0,0:1|0:0,0:0:0:0:
83,127,82701,2,0,L|68:76,3,35.5,2|0|2|0,0:0|0:0|0:0|0:0,0:0:0:0:
66,50,83088,1,2,0:0:0:0:
141,10,83281,1,2,0:1:0:0:
171,91,83475,6,0,L|217:103,3,35.5,2|0|0|0,0:0|0:0|0:0|0:0,0:0:0:0:
248,99,83862,1,2,0:0:0:0:
330,78,84055,2,0,P|371:73|433:92,2,106.5,2|2|2,0:1|0:0|0:1,0:0:0:0:
306,160,84830,2,0,L|317:231,1,71,8|0,0:0|0:0,0:0:0:0:
249,283,85217,6,0,B|176:267|176:267|118:291,1,133.125005078316,2|0,0:0|0:0,0:0:0:0:
86,310,85797,6,0,L|88:353,4,35.5,6|4|12|4|4,0:0|0:0|0:0|0:0|0:0,0:0:0:0:
20,254,86378,1,4,0:0:0:0:
86,200,86572,2,0,L|84:157,4,35.5,6|4|4|4|4,0:0|0:0|0:0|0:0|0:0,0:0:0:0:
150,254,87152,1,6,0:0:0:0:
216,200,87346,1,4,0:0:0:0:
281,254,87539,2,0,P|335:271|385:259,1,106.5,2|0,0:0|0:0,0:0:0:0:
406,225,87926,2,0,L|404:196,6,17.75,2|2|2|2|2|2|2,0:0|0:0|0:0|0:0|0:0|0:0|0:0,0:0:0:0:
403,181,88314,6,0,P|354:129|276:116,1,142,2|0,0:1|0:0,0:0:0:0:
203,130,88894,2,0,L|158:119,3,35.5,2|0|2|0,0:0|0:0|0:0|0:0,0:0:0:0:
126,113,89281,1,2,0:0:0:0:
144,29,89475,1,2,0:1:0:0:
228,23,89668,6,0,L|275:23,3,35.5,2|0|0|0,0:0|0:0|0:0|0:0,0:0:0:0:
306,20,90055,1,2,0:0:0:0:
391,22,90249,1,2,0:1:0:0:
415,103,90443,2,0,L|419:148,3,35.5,0|2|0|0,0:0|0:0|0:0|0:0,0:0:0:0:
420,180,90830,1,2,0:1:0:0:
350,229,91023,2,0,P|309:237|274:235,1,71,8|2,0:0|0:0,0:0:0:0:
202,200,91410,6,0,B|195:131|195:131|138:98,1,133.125005078316,2|0,0:0|0:0,0:0:0:0:
106,71,91991,6,0,L|94:25,4,35.5,6|4|12|4|4,0:0|0:0|0:0|0:0|0:0,0:0:0:0:
46,132,92572,1,4,0:0:0:0:
18,212,92765,1,6,0:0:0:0:
61,285,92959,6,0,L|67:367,1,71,4|4,0:3|0:3,0:0:0:0:
151,347,93346,2,0,P|186:338|221:346,1,71,4|4,0:3|0:3,0:0:0:0:
259,361,93636,1,4,0:3:0:0:
329,312,93830,1,4,0:3:0:0:
362,338,93926,2,0,L|400:344,2,35.5,4|4|8,0:3|0:3|0:1,0:0:0:0:
372,167,94507,6,0,B|411:110|411:110|392:37,1,142,6|8,0:1|0:0,0:0:0:0:
308,23,95088,2,0,L|254:23,3,35.5
229,23,95475,1,2,0:0:0:0:
146,42,95668,5,2,0:1:0:0:
103,116,95862,2,0,L|108:164,3,35.5,0|0|2|0,0:0|0:0|0:0|0:0,0:0:0:0:
112,193,96249,1,2,0:0:0:0:
65,264,96443,2,0,P|99:278|140:273,1,71,2|2,0:1|0:0,0:0:0:0:
171,258,96733,2,0,P|206:255|238:269,1,71,2|2,0:0|0:0,0:0:0:0:
271,297,97023,1,2,0:1:0:0:
339,348,97217,2,0,P|373:354|407:343,1,71,8|2,0:0|0:0,0:0:0:0:
459,275,97604,6,0,B|475:201|475:201|448:151,1,133.125005078316,2|0,0:0|0:0,0:0:0:0:
415,121,98185,6,0,L|412:82,4,35.5,4|4|4|4|6,0:0|0:0|0:0|0:0|0:0,0:0:0:0:
343,167,98765,1,12,0:0:0:0:
267,127,98959,2,0,L|264:88,4,35.5,4|4|6|4|6,0:0|0:0|0:0|0:0|0:0,0:0:0:0:
195,173,99539,1,12,0:0:0:0:
123,127,99733,1,4,0:0:0:0:
64,188,99926,2,0,P|59:242|73:297,1,106.5,0|0,0:0|0:0,0:0:0:0:
108,314,100314,2,0,L|136:312,6,17.75,2|2|2|2|2|2|2,0:2|0:2|0:2|0:2|0:2|0:2|0:2,0:0:0:0:
150,310,100701,6,0,P|217:289|283:310,1,142,2|8,0:1|0:0,0:0:0:0:
363,283,101281,2,0,L|366:248,3,35.5
366,205,101668,1,2,0:0:0:0:
298,153,101862,1,2,0:1:0:0:
222,191,102055,6,0,L|230:236,3,35.5,0|0|2|0,0:0|0:0|0:0|0:0,0:0:0:0:
219,268,102443,1,2,0:0:0:0:
138,240,102636,1,2,0:1:0:0:
70,291,102830,2,0,L|77:339,1,35.5,0|8,0:0|0:0,0:0:0:0:
5,246,103120,1,0,0:0:0:0:
5,246,103217,2,0,L|12:198,1,35.5,2|0,0:1|0:0,0:0:0:0:
19,169,103410,2,0,P|23:131|16:98,1,71,8|2,0:0|0:0,0:0:0:0:
8,14,103797,6,0,B|76:33|76:33|161:15,1,133.125005078316,2|0,0:0|0:0,0:0:0:0:
176,37,104378,2,0,L|174:77,4,35.5,4|4|4|4|6,0:0|0:0|0:0|0:0|0:0,0:0:0:0:
260,21,104959,1,12,0:0:0:0:
333,64,105152,2,0,L|380:57,2,35.5,4|4|12,0:0|0:0|0:1,0:0:0:0:
256,192,105443,12,8,106507,0:1:0:0:
372,289,106894,6,0,P|319:305|255:253,1,142,4|2,0:1|0:0,0:0:0:0:
291,192,107475,1,0,3:0:0:0:
256,129,107668,2,0,L|256:92,2,35.5,0|0|0,3:0|0:0|0:0,0:0:0:0:
220,192,108055,2,0,L|143:192,1,71,2|0,0:0|0:0,0:0:0:0:
93,147,108443,6,0,L|105:67,2,71,2|0|2,0:0|0:0|0:0,0:0:0:0:
38,192,109023,1,0,0:0:0:0:
38,192,109120,1,0,0:0:0:0:
4,254,109314,1,0,0:0:0:0:
4,254,109410,1,0,0:0:0:0:
33,318,109604,2,0,P|61:335|105:335,1,71,2|0,0:0|0:0,0:0:0:0:
165,313,109991,6,0,P|183:343|190:383,2,71,2|0|2,0:0|0:0|0:0,0:0:0:0:
122,255,110572,2,0,L|131:214,1,35.5,0|0,0:0|0:0,0:0:0:0:
182,172,110862,2,0,P|236:155|284:173,1,106.5,0|2,0:0|0:0,0:0:0:0:
340,210,111346,1,0,0:0:0:0:
378,269,111539,6,0,P|373:318|340:369,2,106.5,2|2|2,0:0|0:0|0:0,0:0:0:0:
412,206,112314,2,0,L|445:176,3,35.5,2|2|2|2,0:0|0:3|0:3|0:3,0:0:0:0:
465,158,112701,2,0,L|464:116,3,35.5,2|2|2|2,0:0|0:3|0:3|0:3,0:0:0:0:
461,87,113088,6,0,P|393:70|328:96,1,142,4|8,0:1|0:0,0:0:0:0:
284,151,113668,2,0,L|255:132,3,35.5,0|0|2|0,0:0|0:0|0:0|0:0,0:0:0:0:
223,113,114055,1,0,0:0:0:0:
160,146,114249,1,8,0:0:0:0:
88,144,114443,1,0,0:0:0:0:
27,106,114636,6,0,P|20:70|31:37,1,71,2|0,0:0|0:0,0:0:0:0:
98,16,115023,1,8,0:0:0:0:
131,86,115217,1,0,0:0:0:0:
131,86,115314,1,0,0:0:0:0:
88,144,115507,1,0,0:0:0:0:
88,144,115604,2,0,P|84:179|91:227,1,71,0|8,0:0|0:0,0:0:0:0:
129,272,115991,1,0,0:0:0:0:
181,320,116185,6,0,P|217:327|255:319,1,71,2|0,0:0|0:0,0:0:0:0:
315,292,116572,1,8,0:0:0:0:
380,266,116765,2,0,L|416:265,1,35.5,8|8,0:0|0:0,0:0:0:0:
424,194,117055,1,0,0:0:0:0:
424,194,117152,2,0,L|352:184,1,71,0|8,0:0|0:0,0:0:0:0:
293,146,117539,1,0,0:0:0:0:
259,83,117733,6,0,P|283:42|338:25,4,106.5,8|2|2|2|2,0:1|0:0|0:0|0:0|0:0,0:0:0:0:
205,129,119088,1,2,0:0:0:0:
150,84,119281,5,4,0:1:0:0:
