osu file format v12

[General]
AudioFilename: Anjuu2000.mp3
AudioLeadIn: 0
PreviewTime: 14603
Countdown: 0
SampleSet: Normal
StackLeniency: 0.7
Mode: 1
LetterboxInBreaks: 0

[Editor]
Bookmarks: 7282,14555,181820,232737
DistanceSpacing: 0.1
BeatDivisor: 4
GridSize: 32

[Metadata]
Title:Anjuu
TitleUnicode:Anjuu
Artist:Melyceria&Disease
ArtistUnicode:Melyceria&Disease
Creator:_Gezo_
Version:Zhuhong Oni
Source:
Tags:Taiko Vangel Gezoda Original Psychedelic Beats
BeatmapID:179416
BeatmapSetID:54121

[Difficulty]
HPDrainRate:5
CircleSize:5
OverallDifficulty:6
ApproachRate:5
SliderMultiplier:1.4
SliderTickRate:1

[Events]
//Background and Video events
0,0,"BG.jpg",0,0
//Break Periods
//Storyboard Layer 0 (Background)
//Storyboard Layer 1 (Fail)
//Storyboard Layer 2 (Pass)
//Storyboard Layer 3 (Foreground)
//Storyboard Sound Samples
//Background Colour Transformations
3,100,163,162,255

[TimingPoints]
58,454.545454545455,4,1,0,80,1,0
14603,-100,4,1,0,80,0,1
29148,-100,4,1,0,80,0,0
87330,-100,4,1,0,80,0,1
145512,-100,4,1,0,80,0,0
174603,-100,4,1,0,80,0,1
203694,-100,4,1,0,80,0,0
225512,-117.647058823529,4,1,0,80,0,0
232728,-83.3333333333333,4,1,0,80,0,0

[Colours]
Combo1 : 0,0,255
Combo2 : 255,0,0

[HitObjects]
256,192,7330,1,0,0:0:0:0:
256,192,7558,1,0,0:0:0:0:
256,192,7671,1,0,0:0:0:0:
256,192,7785,5,8,0:0:0:0:
256,192,8012,1,8,0:0:0:0:
256,192,8239,5,0,0:0:0:0:
256,192,8353,1,0,0:0:0:0:
256,192,8467,5,8,0:0:0:0:
256,192,8580,1,8,0:0:0:0:
256,192,8694,5,0,0:0:0:0:
256,192,8921,5,8,0:0:0:0:
256,192,9148,5,0,0:0:0:0:
256,192,9262,1,0,0:0:0:0:
256,192,9489,5,8,0:0:0:0:
256,192,9603,5,0,0:0:0:0:
256,192,9830,5,8,0:0:0:0:
256,192,10058,5,0,0:0:0:0:
256,192,10171,1,0,0:0:0:0:
256,192,10285,5,8,0:0:0:0:
256,192,10398,1,8,0:0:0:0:
256,192,10512,5,0,0:0:0:0:
256,192,10739,5,8,0:0:0:0:
256,192,10967,5,0,0:0:0:0:
256,192,11194,1,0,0:0:0:0:
256,192,11308,1,0,0:0:0:0:
256,192,11421,5,8,0:0:0:0:
256,192,11535,5,0,0:0:0:0:
256,192,11648,1,0,0:0:0:0:
256,192,11876,1,0,0:0:0:0:
256,192,11989,1,0,0:0:0:0:
256,192,12103,5,8,0:0:0:0:
256,192,12217,1,8,0:0:0:0:
256,192,12330,5,0,0:0:0:0:
256,192,12558,1,0,0:0:0:0:
256,192,12671,1,0,0:0:0:0:
256,192,12785,5,8,0:0:0:0:
256,192,12898,5,0,0:0:0:0:
256,192,13012,1,0,0:0:0:0:
256,192,13239,1,0,0:0:0:0:
256,192,13353,5,8,0:0:0:0:
256,192,13467,5,0,0:0:0:0:
256,192,13580,1,0,0:0:0:0:
256,192,13694,5,8,0:0:0:0:
256,192,13921,1,8,0:0:0:0:
252,192,14035,1,8,0:0:0:0:
256,192,14148,5,0,0:0:0:0:
256,192,14376,5,8,0:0:0:0:
256,192,14603,5,0,0:0:0:0:
256,192,14717,1,0,0:0:0:0:
256,192,14830,1,0,0:0:0:0:
256,192,14944,5,8,0:0:0:0:
256,192,15058,1,8,0:0:0:0:
256,192,15171,1,8,0:0:0:0:
256,192,15285,5,0,0:0:0:0:
256,192,15398,1,0,0:0:0:0:
256,192,15512,1,0,0:0:0:0:
256,192,15626,5,8,0:0:0:0:
256,192,15739,1,8,0:0:0:0:
256,192,15853,1,8,0:0:0:0:
256,192,15967,5,0,0:0:0:0:
256,192,16194,1,0,0:0:0:0:
256,192,16421,5,8,0:0:0:0:
256,192,16535,5,0,0:0:0:0:
256,192,16762,5,8,0:0:0:0:
256,192,16876,5,0,0:0:0:0:
256,192,17103,5,8,0:0:0:0:
256,192,17217,5,0,0:0:0:0:
256,192,17444,5,8,0:0:0:0:
256,192,17557,5,0,0:0:0:0:
256,192,17785,5,8,0:0:0:0:
256,192,17898,5,0,0:0:0:0:
256,192,18012,1,0,0:0:0:0:
256,192,18126,1,0,0:0:0:0:
256,192,18239,5,8,0:0:0:0:
256,192,18353,1,8,0:0:0:0:
256,192,18467,5,0,0:0:0:0:
256,192,18580,5,8,0:0:0:0:
256,192,18694,5,0,0:0:0:0:
256,192,18807,1,0,0:0:0:0:
256,192,18921,5,8,0:0:0:0:
256,192,19035,1,8,0:0:0:0:
256,192,19148,5,0,0:0:0:0:
256,192,19262,5,8,0:0:0:0:
256,192,19376,5,0,0:0:0:0:
256,192,19489,1,0,0:0:0:0:
256,192,19603,5,8,0:0:0:0:
256,192,19830,1,8,0:0:0:0:
256,192,20057,5,4,0:0:0:0:
256,192,20398,1,4,0:0:0:0:
256,192,20739,5,12,0:0:0:0:
256,192,21080,1,12,0:0:0:0:
256,192,21421,1,12,0:0:0:0:
256,192,21648,1,8,0:0:0:0:
256,192,21876,5,0,0:0:0:0:
256,192,22103,1,0,0:0:0:0:
256,192,22217,1,0,0:0:0:0:
256,192,22330,1,0,0:0:0:0:
256,192,22557,5,8,0:0:0:0:
256,192,22785,5,0,0:0:0:0:
256,192,22898,1,0,0:0:0:0:
256,192,23012,1,0,0:0:0:0:
256,192,23239,5,8,0:0:0:0:
256,192,23467,1,8,0:0:0:0:
256,192,23694,5,0,0:0:0:0:
256,192,23807,5,8,0:0:0:0:
256,192,23921,1,8,0:0:0:0:
256,192,24035,5,0,0:0:0:0:
256,192,24262,5,8,0:0:0:0:
256,192,24376,5,0,0:0:0:0:
256,192,24603,5,8,0:0:0:0:
256,192,24717,5,0,0:0:0:0:
256,192,24944,5,8,0:0:0:0:
256,192,25057,5,0,0:0:0:0:
256,192,25285,1,0,0:0:0:0:
256,192,25512,5,8,0:0:0:0:
256,192,25626,1,8,0:0:0:0:
256,192,25739,5,0,0:0:0:0:
256,192,25853,5,8,0:0:0:0:
256,192,25967,5,0,0:0:0:0:
256,192,26080,1,0,0:0:0:0:
256,192,26194,5,8,0:0:0:0:
256,192,26307,1,8,0:0:0:0:
256,192,26421,5,0,0:0:0:0:
256,192,26535,5,8,0:0:0:0:
256,192,26648,5,0,0:0:0:0:
256,192,26762,1,0,0:0:0:0:
256,192,26876,5,8,0:0:0:0:
256,192,27103,1,8,0:0:0:0:
256,192,27330,5,4,0:0:0:0:
256,192,27671,1,4,0:0:0:0:
256,192,28012,5,12,0:0:0:0:
256,192,28353,5,4,0:0:0:0:
256,192,28694,1,4,0:0:0:0:
256,192,28921,5,8,0:0:0:0:
256,192,29148,5,4,0:0:0:0:
256,192,29376,1,0,0:0:0:0:
256,192,29489,5,8,0:0:0:0:
256,192,29603,1,8,0:0:0:0:
256,192,29830,5,0,0:0:0:0:
256,192,30057,5,8,0:0:0:0:
256,192,30171,1,8,0:0:0:0:
256,192,30285,5,0,0:0:0:0:
256,192,30398,1,0,0:0:0:0:
256,192,30512,5,8,0:0:0:0:
256,192,30739,5,0,0:0:0:0:
256,192,30967,1,0,0:0:0:0:
256,192,31194,1,0,0:0:0:0:
256,192,31307,1,0,0:0:0:0:
256,192,31421,5,8,0:0:0:0:
256,192,31648,5,0,0:0:0:0:
256,192,31876,5,8,0:0:0:0:
256,192,31989,1,8,0:0:0:0:
256,192,32103,5,0,0:0:0:0:
256,192,32217,1,0,0:0:0:0:
256,192,32330,5,8,0:0:0:0:
256,192,32557,5,0,0:0:0:0:
256,192,32785,5,8,0:0:0:0:
256,192,32898,1,8,0:0:0:0:
256,192,33126,5,0,0:0:0:0:
256,192,33353,1,0,0:0:0:0:
256,192,33467,5,8,0:0:0:0:
256,192,33580,1,8,0:0:0:0:
256,192,33694,5,0,0:0:0:0:
256,192,33807,5,8,0:0:0:0:
256,192,34035,5,0,0:0:0:0:
256,192,34262,5,8,0:0:0:0:
256,192,34376,5,0,0:0:0:0:
256,192,34489,1,0,0:0:0:0:
256,192,34603,5,8,0:0:0:0:
256,192,34717,5,0,0:0:0:0:
256,192,34944,1,0,0:0:0:0:
256,192,35171,5,8,0:0:0:0:
256,192,35285,1,8,0:0:0:0:
256,192,35398,5,0,0:0:0:0:
256,192,35512,5,8,0:0:0:0:
256,192,35626,5,0,0:0:0:0:
256,192,35853,5,8,0:0:0:0:
256,192,36080,5,0,0:0:0:0:
256,192,36194,5,8,0:0:0:0:
256,192,36307,5,0,0:0:0:0:
256,192,36421,5,8,0:0:0:0:
256,192,36648,5,0,0:0:0:0:
256,192,36762,1,0,0:0:0:0:
256,192,36876,5,8,0:0:0:0:
256,192,37103,5,0,0:0:0:0:
256,192,37330,5,8,0:0:0:0:
256,192,37444,1,0,0:0:0:0:
256,192,37557,5,0,0:0:0:0:
256,192,37785,1,0,0:0:0:0:
256,192,38012,5,8,0:0:0:0:
256,192,38239,5,0,0:0:0:0:
256,192,38353,1,0,0:0:0:0:
256,192,38467,1,0,0:0:0:0:
256,192,38694,5,8,0:0:0:0:
256,192,38921,5,0,0:0:0:0:
256,192,39035,1,0,0:0:0:0:
256,192,39148,1,0,0:0:0:0:
256,192,39262,5,8,0:0:0:0:
256,192,39376,1,8,0:0:0:0:
256,192,39489,1,8,0:0:0:0:
256,192,39603,5,0,0:0:0:0:
256,192,39830,5,8,0:0:0:0:
256,192,40057,5,0,0:0:0:0:
256,192,40171,1,0,0:0:0:0:
256,192,40398,5,8,0:0:0:0:
256,192,40512,5,0,0:0:0:0:
256,192,40739,5,8,0:0:0:0:
256,192,40967,5,0,0:0:0:0:
256,192,41080,1,0,0:0:0:0:
256,192,41307,5,8,0:0:0:0:
256,192,41421,5,0,0:0:0:0:
256,192,41648,5,8,0:0:0:0:
256,192,41876,5,0,0:0:0:0:
256,192,41989,1,0,0:0:0:0:
256,192,42103,1,0,0:0:0:0:
256,192,42217,1,0,0:0:0:0:
256,192,42330,5,8,0:0:0:0:
256,192,42444,1,8,0:0:0:0:
256,192,42557,1,8,0:0:0:0:
256,192,42671,1,8,0:0:0:0:
256,192,42785,5,0,0:0:0:0:
256,192,43012,5,8,0:0:0:0:
256,192,43239,5,0,0:0:0:0:
256,192,43353,1,0,0:0:0:0:
256,192,43467,5,8,0:0:0:0:
256,192,43694,5,4,0:0:0:0:
256,192,43921,1,0,0:0:0:0:
256,192,44148,5,8,0:0:0:0:
256,192,44376,5,0,0:0:0:0:
256,192,44489,1,0,0:0:0:0:
256,192,44603,1,0,0:0:0:0:
256,192,44717,5,8,0:0:0:0:
256,192,44830,5,0,0:0:0:0:
256,192,44944,5,8,0:0:0:0:
256,192,45057,5,0,0:0:0:0:
256,192,45285,5,8,0:0:0:0:
256,192,45512,5,0,0:0:0:0:
256,192,45626,1,0,0:0:0:0:
256,192,45739,5,8,0:0:0:0:
256,192,45967,5,0,0:0:0:0:
256,192,46194,5,8,0:0:0:0:
256,192,46307,1,8,0:0:0:0:
256,192,46421,5,0,0:0:0:0:
256,192,46648,5,8,0:0:0:0:
256,192,46876,1,8,0:0:0:0:
256,192,47103,5,0,0:0:0:0:
256,192,47217,1,0,0:0:0:0:
256,192,47330,5,8,0:0:0:0:
256,192,47557,5,0,0:0:0:0:
256,192,47671,5,8,0:0:0:0:
256,192,47898,1,8,0:0:0:0:
256,192,48012,5,0,0:0:0:0:
256,192,48239,1,0,0:0:0:0:
256,192,48353,1,0,0:0:0:0:
256,192,48580,5,8,0:0:0:0:
256,192,48807,5,0,0:0:0:0:
256,192,48921,5,8,0:0:0:0:
256,192,49148,1,8,0:0:0:0:
256,192,49262,1,8,0:0:0:0:
256,192,49376,5,0,0:0:0:0:
256,192,49489,5,8,0:0:0:0:
256,192,49603,1,8,0:0:0:0:
256,192,49717,5,0,0:0:0:0:
256,192,49830,5,8,0:0:0:0:
256,192,49944,1,8,0:0:0:0:
256,192,50057,5,0,0:0:0:0:
256,192,50171,5,8,0:0:0:0:
256,192,50285,1,8,0:0:0:0:
256,192,50398,5,0,0:0:0:0:
256,192,50512,5,8,0:0:0:0:
256,192,50626,1,8,0:0:0:0:
256,192,50739,5,0,0:0:0:0:
256,192,50853,5,8,0:0:0:0:
256,192,50967,5,0,0:0:0:0:
256,192,51194,1,0,0:0:0:0:
256,192,51307,1,0,0:0:0:0:
256,192,51421,5,8,0:0:0:0:
256,192,51648,5,0,0:0:0:0:
256,192,51762,1,0,0:0:0:0:
256,192,51876,5,8,0:0:0:0:
256,192,51989,5,0,0:0:0:0:
256,192,52217,5,8,0:0:0:0:
256,192,52444,5,0,0:0:0:0:
256,192,52557,5,8,0:0:0:0:
256,192,52785,5,0,0:0:0:0:
256,192,53012,1,0,0:0:0:0:
256,192,53239,5,8,0:0:0:0:
256,192,53467,5,0,0:0:0:0:
256,192,53580,1,0,0:0:0:0:
256,192,53694,1,0,0:0:0:0:
256,192,53807,5,8,0:0:0:0:
256,192,53921,1,8,0:0:0:0:
256,192,54035,5,0,0:0:0:0:
256,192,54148,5,8,0:0:0:0:
256,192,54376,1,8,0:0:0:0:
256,192,54489,1,8,0:0:0:0:
256,192,54603,5,0,0:0:0:0:
256,192,54717,1,0,0:0:0:0:
256,192,54830,1,0,0:0:0:0:
256,192,54944,1,0,0:0:0:0:
256,192,55057,5,8,0:0:0:0:
256,192,55171,5,0,0:0:0:0:
256,192,55285,1,0,0:0:0:0:
256,192,55398,1,0,0:0:0:0:
256,192,55512,1,0,0:0:0:0:
256,192,55626,1,0,0:0:0:0:
256,192,55739,1,0,0:0:0:0:
256,192,55853,1,0,0:0:0:0:
256,192,55967,5,8,0:0:0:0:
256,192,56194,5,0,0:0:0:0:
256,192,56421,5,8,0:0:0:0:
256,192,56535,1,8,0:0:0:0:
256,192,56648,5,0,0:0:0:0:
256,192,56762,5,8,0:0:0:0:
256,192,56876,1,8,0:0:0:0:
256,192,57103,5,0,0:0:0:0:
256,192,57217,1,0,0:0:0:0:
256,192,57330,5,8,0:0:0:0:
256,192,57557,5,0,0:0:0:0:
256,192,57671,5,8,0:0:0:0:
256,192,57898,5,0,0:0:0:0:
256,192,58012,5,8,0:0:0:0:
256,192,58239,5,4,0:0:0:0:
256,192,58467,1,0,0:0:0:0:
256,192,58694,5,8,0:0:0:0:
256,192,58921,5,0,0:0:0:0:
256,192,59035,1,0,0:0:0:0:
256,192,59148,1,0,0:0:0:0:
256,192,59376,5,8,0:0:0:0:
256,192,59603,1,8,0:0:0:0:
256,192,60057,5,0,0:0:0:0:
256,192,60171,1,0,0:0:0:0:
256,192,60285,5,8,0:0:0:0:
256,192,60398,5,0,0:0:0:0:
256,192,60512,5,8,0:0:0:0:
256,192,60739,5,0,0:0:0:0:
256,192,60967,5,8,0:0:0:0:
256,192,61080,1,8,0:0:0:0:
256,192,61194,5,0,0:0:0:0:
256,192,61307,1,0,0:0:0:0:
256,192,61421,5,8,0:0:0:0:
256,192,61648,5,0,0:0:0:0:
256,192,61876,5,8,0:0:0:0:
256,192,61989,5,0,0:0:0:0:
256,192,62217,1,0,0:0:0:0:
256,192,62444,5,8,0:0:0:0:
256,192,62557,5,0,0:0:0:0:
256,192,62671,1,0,0:0:0:0:
256,192,62785,5,8,0:0:0:0:
256,192,62898,5,0,0:0:0:0:
256,192,63126,1,0,0:0:0:0:
256,192,63239,5,8,0:0:0:0:
256,192,63353,1,8,0:0:0:0:
256,192,63580,1,8,0:0:0:0:
256,192,63694,5,0,0:0:0:0:
256,192,63807,1,0,0:0:0:0:
256,192,63921,5,8,0:0:0:0:
256,192,64148,5,0,0:0:0:0:
256,192,64376,5,8,0:0:0:0:
256,192,64489,1,8,0:0:0:0:
256,192,64603,5,0,0:0:0:0:
256,192,64717,1,0,0:0:0:0:
256,192,64830,5,8,0:0:0:0:
256,192,65057,5,0,0:0:0:0:
256,192,65285,5,8,0:0:0:0:
256,192,65398,1,8,0:0:0:0:
256,192,65512,1,8,0:0:0:0:
256,192,65739,5,0,0:0:0:0:
256,192,65967,5,8,0:0:0:0:
256,192,66194,5,0,0:0:0:0:
256,192,66307,1,0,0:0:0:0:
256,192,66421,5,8,0:0:0:0:
256,192,66535,5,0,0:0:0:0:
256,192,66648,5,8,0:0:0:0:
256,192,66762,1,8,0:0:0:0:
256,192,66876,5,0,0:0:0:0:
256,192,67103,1,0,0:0:0:0:
256,192,67217,1,0,0:0:0:0:
256,192,67330,5,8,0:0:0:0:
256,192,67557,1,8,0:0:0:0:
256,192,67785,5,0,0:0:0:0:
256,192,67898,5,8,0:0:0:0:
256,192,68012,5,0,0:0:0:0:
256,192,68126,1,0,0:0:0:0:
256,192,68239,5,8,0:0:0:0:
256,192,68353,1,8,0:0:0:0:
256,192,68467,1,8,0:0:0:0:
256,192,68694,5,0,0:0:0:0:
256,192,68921,1,0,0:0:0:0:
256,192,69148,5,8,0:0:0:0:
256,192,69262,5,0,0:0:0:0:
256,192,69489,1,0,0:0:0:0:
256,192,69717,5,8,0:0:0:0:
256,192,69830,5,0,0:0:0:0:
256,192,69944,1,0,0:0:0:0:
256,192,70057,5,8,0:0:0:0:
256,192,70171,1,8,0:0:0:0:
256,192,70398,5,0,0:0:0:0:
256,192,70626,5,8,0:0:0:0:
256,192,70739,1,8,0:0:0:0:
256,192,70853,5,0,0:0:0:0:
256,192,70967,5,8,0:0:0:0:
256,192,71080,1,8,0:0:0:0:
256,192,71307,5,0,0:0:0:0:
256,192,71535,5,8,0:0:0:0:
256,192,71648,5,0,0:0:0:0:
256,192,71762,5,8,0:0:0:0:
256,192,71876,5,0,0:0:0:0:
256,192,71989,1,0,0:0:0:0:
256,192,72217,5,8,0:0:0:0:
256,192,72444,5,0,0:0:0:0:
256,192,72557,5,8,0:0:0:0:
256,192,72785,5,4,0:0:0:0:
256,192,73012,1,0,0:0:0:0:
256,192,73126,5,8,0:0:0:0:
256,192,73239,1,8,0:0:0:0:
256,192,73467,5,0,0:0:0:0:
256,192,73694,5,8,0:0:0:0:
256,192,73807,1,8,0:0:0:0:
256,192,74035,5,0,0:0:0:0:
256,192,74148,1,0,0:0:0:0:
256,192,74262,5,8,0:0:0:0:
256,192,74376,1,8,0:0:0:0:
256,192,74603,5,0,0:0:0:0:
256,192,74830,5,8,0:0:0:0:
256,192,74944,1,8,0:0:0:0:
256,192,75057,5,0,0:0:0:0:
256,192,75285,1,0,0:0:0:0:
256,192,75398,5,8,0:0:0:0:
256,192,75626,5,0,0:0:0:0:
256,192,75739,1,0,0:0:0:0:
256,192,75853,1,0,0:0:0:0:
256,192,75967,5,8,0:0:0:0:
256,192,76194,1,8,0:0:0:0:
256,192,76307,1,8,0:0:0:0:
256,192,76421,5,0,0:0:0:0:
256,192,76648,1,0,0:0:0:0:
256,192,76876,5,8,0:0:0:0:
256,192,77103,5,0,0:0:0:0:
256,192,77217,1,0,0:0:0:0:
256,192,77330,1,0,0:0:0:0:
256,192,77557,1,0,0:0:0:0:
256,192,77785,5,8,0:0:0:0:
256,192,78012,1,8,0:0:0:0:
256,192,78126,1,8,0:0:0:0:
256,192,78239,5,0,0:0:0:0:
256,192,78467,1,0,0:0:0:0:
256,192,78694,5,8,0:0:0:0:
256,192,78921,5,0,0:0:0:0:
256,192,79035,5,8,0:0:0:0:
256,192,79148,5,0,0:0:0:0:
256,192,79262,5,8,0:0:0:0:
256,192,79376,5,0,0:0:0:0:
256,192,79603,5,8,0:0:0:0:
256,192,79830,1,8,0:0:0:0:
256,192,79944,1,8,0:0:0:0:
256,192,80057,5,0,0:0:0:0:
256,192,80285,1,0,0:0:0:0:
256,192,80512,5,8,0:0:0:0:
256,192,80739,5,0,0:0:0:0:
256,192,80853,1,0,0:0:0:0:
256,192,80967,1,0,0:0:0:0:
256,192,81080,5,8,0:0:0:0:
256,192,81194,5,0,0:0:0:0:
256,192,81307,1,0,0:0:0:0:
256,192,81421,5,8,0:0:0:0:
256,192,81648,1,8,0:0:0:0:
256,192,81876,5,0,0:0:0:0:
256,192,82103,1,0,0:0:0:0:
256,192,82217,5,8,0:0:0:0:
256,192,82330,5,0,0:0:0:0:
256,192,82557,5,8,0:0:0:0:
256,192,82785,5,0,0:0:0:0:
256,192,82898,5,8,0:0:0:0:
256,192,83012,5,0,0:0:0:0:
256,192,83126,5,8,0:0:0:0:
256,192,83239,5,0,0:0:0:0:
256,192,83467,5,8,0:0:0:0:
256,192,83694,5,0,0:0:0:0:
256,192,84148,5,8,0:0:0:0:
256,192,84603,5,0,0:0:0:0:
256,192,85057,5,8,0:0:0:0:
256,192,85512,5,0,0:0:0:0:
256,192,85739,5,8,0:0:0:0:
256,192,85967,5,0,0:0:0:0:
256,192,86194,5,8,0:0:0:0:
256,192,86421,5,0,0:0:0:0:
256,192,86648,1,0,0:0:0:0:
256,192,86876,5,8,0:0:0:0:
256,192,87330,1,12,0:0:0:0:
256,192,87557,5,0,0:0:0:0:
256,192,87671,1,0,0:0:0:0:
256,192,87785,5,8,0:0:0:0:
256,192,87898,5,0,0:0:0:0:
256,192,88126,1,0,0:0:0:0:
256,192,88239,5,8,0:0:0:0:
256,192,88467,5,0,0:0:0:0:
256,192,88694,5,8,0:0:0:0:
256,192,88807,1,8,0:0:0:0:
256,192,88921,5,0,0:0:0:0:
256,192,89148,1,0,0:0:0:0:
256,192,89262,1,0,0:0:0:0:
256,192,89376,5,8,0:0:0:0:
256,192,89489,1,8,0:0:0:0:
256,192,89603,5,0,0:0:0:0:
256,192,89830,5,8,0:0:0:0:
256,192,90057,5,0,0:0:0:0:
256,192,90133,1,0,0:0:0:0:
256,192,90209,1,0,0:0:0:0:
256,192,90285,5,8,0:0:0:0:
256,192,90512,1,8,0:0:0:0:
256,192,90739,5,0,0:0:0:0:
256,192,90967,5,8,0:0:0:0:
256,192,91080,1,8,0:0:0:0:
256,192,91194,5,0,0:0:0:0:
256,192,91421,1,0,0:0:0:0:
256,192,91648,5,8,0:0:0:0:
256,192,91762,1,8,0:0:0:0:
256,192,91876,5,0,0:0:0:0:
256,192,92103,1,0,0:0:0:0:
256,192,92217,1,0,0:0:0:0:
256,192,92330,5,8,0:0:0:0:
256,192,92557,5,0,0:0:0:0:
256,192,92785,5,8,0:0:0:0:
256,192,92898,5,0,0:0:0:0:
256,192,93012,5,8,0:0:0:0:
256,192,93126,1,8,0:0:0:0:
256,192,93353,1,8,0:0:0:0:
256,192,93467,5,0,0:0:0:0:
256,192,93580,1,0,0:0:0:0:
256,192,93694,1,0,0:0:0:0:
256,192,93921,1,0,0:0:0:0:
256,192,94035,1,0,0:0:0:0:
256,192,94148,5,8,0:0:0:0:
256,192,94262,5,0,0:0:0:0:
256,192,94376,1,0,0:0:0:0:
256,192,94603,5,8,0:0:0:0:
256,192,94830,5,0,0:0:0:0:
256,192,94944,5,8,0:0:0:0:
256,192,95171,5,0,0:0:0:0:
256,192,95285,5,8,0:0:0:0:
256,192,95512,5,0,0:0:0:0:
256,192,95626,5,8,0:0:0:0:
256,192,95853,5,0,0:0:0:0:
256,192,95967,5,8,0:0:0:0:
256,192,96194,1,8,0:0:0:0:
256,192,96421,5,0,0:0:0:0:
256,192,96648,5,8,0:0:0:0:
256,192,96762,5,0,0:0:0:0:
256,192,96989,5,8,0:0:0:0:
256,192,97103,5,0,0:0:0:0:
256,192,97330,5,8,0:0:0:0:
256,192,97444,5,0,0:0:0:0:
256,192,97671,5,8,0:0:0:0:
256,192,97785,5,0,0:0:0:0:
256,192,98012,1,0,0:0:0:0:
256,192,98239,5,8,0:0:0:0:
256,192,98353,5,0,0:0:0:0:
256,192,98580,5,8,0:0:0:0:
256,192,98694,5,0,0:0:0:0:
256,192,98921,5,8,0:0:0:0:
256,192,99035,5,0,0:0:0:0:
256,192,99262,5,8,0:0:0:0:
256,192,99376,5,0,0:0:0:0:
256,192,99603,5,8,0:0:0:0:
256,192,99717,5,0,0:0:0:0:
256,192,99830,5,8,0:0:0:0:
256,192,99944,1,8,0:0:0:0:
256,192,100057,5,0,0:0:0:0:
256,192,100171,5,8,0:0:0:0:
256,192,100398,5,0,0:0:0:0:
256,192,100512,5,8,0:0:0:0:
256,192,100739,5,0,0:0:0:0:
256,192,100853,5,8,0:0:0:0:
256,192,101080,5,0,0:0:0:0:
256,192,101194,5,8,0:0:0:0:
256,192,101421,5,0,0:0:0:0:
256,192,101535,5,8,0:0:0:0:
256,192,101648,5,0,0:0:0:0:
256,192,101876,1,4,0:0:0:0:
256,192,102103,1,0,0:0:0:0:
256,192,102217,1,0,0:0:0:0:
256,192,102330,1,0,0:0:0:0:
256,192,102444,5,8,0:0:0:0:
256,192,102671,1,8,0:0:0:0:
256,192,102898,5,0,0:0:0:0:
256,192,103012,1,0,0:0:0:0:
256,192,103239,5,8,0:0:0:0:
256,192,103467,1,8,0:0:0:0:
256,192,103542,1,8,0:0:0:0:
256,192,103618,1,8,0:0:0:0:
256,192,103694,1,8,0:0:0:0:
256,192,103921,5,0,0:0:0:0:
256,192,104035,1,0,0:0:0:0:
256,192,104148,5,8,0:0:0:0:
256,192,104262,5,0,0:0:0:0:
256,192,104489,1,0,0:0:0:0:
256,192,104603,5,8,0:0:0:0:
256,192,104830,1,8,0:0:0:0:
256,192,105057,5,0,0:0:0:0:
256,192,105171,1,0,0:0:0:0:
256,192,105285,1,0,0:0:0:0:
256,192,105398,5,8,0:0:0:0:
256,192,105512,5,0,0:0:0:0:
256,192,105739,1,0,0:0:0:0:
256,192,105853,1,0,0:0:0:0:
256,192,105967,5,8,0:0:0:0:
256,192,106080,1,8,0:0:0:0:
256,192,106307,5,0,0:0:0:0:
256,192,106421,5,8,0:0:0:0:
256,192,106648,1,8,0:0:0:0:
256,192,106876,5,0,0:0:0:0:
256,192,107103,1,0,0:0:0:0:
256,192,107217,1,0,0:0:0:0:
256,192,107330,5,8,0:0:0:0:
256,192,107444,5,0,0:0:0:0:
256,192,107557,5,8,0:0:0:0:
256,192,107671,5,0,0:0:0:0:
256,192,107785,5,8,0:0:0:0:
256,192,107898,5,0,0:0:0:0:
256,192,108012,1,0,0:0:0:0:
256,192,108126,1,0,0:0:0:0:
256,192,108239,5,8,0:0:0:0:
256,192,108353,5,0,0:0:0:0:
256,192,108467,5,8,0:0:0:0:
256,192,108580,5,0,0:0:0:0:
256,192,108694,5,8,0:0:0:0:
256,192,108807,5,0,0:0:0:0:
256,192,108921,1,0,0:0:0:0:
256,192,109035,1,0,0:0:0:0:
256,192,109148,5,8,0:0:0:0:
256,192,109376,5,0,0:0:0:0:
256,192,109489,1,0,0:0:0:0:
256,192,109603,5,8,0:0:0:0:
256,192,109717,5,0,0:0:0:0:
256,192,109944,5,8,0:0:0:0:
256,192,110171,5,0,0:0:0:0:
256,192,110398,1,0,0:0:0:0:
256,192,110512,5,8,0:0:0:0:
256,192,110739,5,0,0:0:0:0:
256,192,110853,5,8,0:0:0:0:
256,192,110967,1,8,0:0:0:0:
256,192,111194,1,8,0:0:0:0:
256,192,111307,5,0,0:0:0:0:
256,192,111421,5,8,0:0:0:0:
256,192,111535,1,8,0:0:0:0:
256,192,111648,5,0,0:0:0:0:
256,192,111762,1,0,0:0:0:0:
256,192,111989,1,0,0:0:0:0:
256,192,112217,5,8,0:0:0:0:
256,192,112330,5,0,0:0:0:0:
256,192,112557,1,0,0:0:0:0:
256,192,112671,1,0,0:0:0:0:
256,192,112785,5,8,0:0:0:0:
256,192,113012,5,0,0:0:0:0:
256,192,113126,5,8,0:0:0:0:
256,192,113239,1,8,0:0:0:0:
256,192,113353,1,8,0:0:0:0:
256,192,113580,5,0,0:0:0:0:
256,192,113807,5,8,0:0:0:0:
256,192,114035,1,8,0:0:0:0:
256,192,114376,5,0,0:0:0:0:
256,192,114489,5,8,0:0:0:0:
256,192,114603,1,8,0:0:0:0:
256,192,114830,1,8,0:0:0:0:
256,192,114944,5,0,0:0:0:0:
256,192,115057,5,8,0:0:0:0:
256,192,115171,1,8,0:0:0:0:
256,192,115285,1,8,0:0:0:0:
256,192,115398,5,0,0:0:0:0:
256,192,115626,1,0,0:0:0:0:
256,192,115853,1,0,0:0:0:0:
256,192,116080,5,8,0:0:0:0:
256,192,116194,5,0,0:0:0:0:
256,192,116421,1,4,0:0:0:0:
256,192,116648,1,0,0:0:0:0:
256,192,116762,5,8,0:0:0:0:
256,192,116876,5,0,0:0:0:0:
256,192,116989,5,8,0:0:0:0:
256,192,117217,1,8,0:0:0:0:
256,192,117330,5,0,0:0:0:0:
256,192,117444,1,0,0:0:0:0:
256,192,117557,5,8,0:0:0:0:
256,192,117785,5,0,0:0:0:0:
256,192,118012,5,8,0:0:0:0:
256,192,118126,5,0,0:0:0:0:
256,192,118239,5,8,0:0:0:0:
256,192,118467,5,0,0:0:0:0:
256,192,118580,5,8,0:0:0:0:
256,192,118694,5,0,0:0:0:0:
256,192,118807,1,0,0:0:0:0:
256,192,119035,1,0,0:0:0:0:
256,192,119262,1,0,0:0:0:0:
256,192,119489,1,0,0:0:0:0:
256,192,119717,5,8,0:0:0:0:
256,192,119830,1,8,0:0:0:0:
256,192,119944,1,8,0:0:0:0:
256,192,120057,5,0,0:0:0:0:
256,192,120285,5,8,0:0:0:0:
256,192,120398,5,0,0:0:0:0:
256,192,120512,5,8,0:0:0:0:
256,192,120626,1,8,0:0:0:0:
256,192,120853,1,8,0:0:0:0:
256,192,121080,5,0,0:0:0:0:
256,192,121307,1,0,0:0:0:0:
256,192,121535,5,8,0:0:0:0:
256,192,121648,1,8,0:0:0:0:
256,192,121762,1,8,0:0:0:0:
256,192,121876,5,0,0:0:0:0:
256,192,122103,1,0,0:0:0:0:
256,192,122217,5,8,0:0:0:0:
256,192,122330,1,8,0:0:0:0:
256,192,122444,5,0,0:0:0:0:
256,192,122671,5,8,0:0:0:0:
256,192,122898,5,0,0:0:0:0:
256,192,123126,5,8,0:0:0:0:
256,192,123239,5,0,0:0:0:0:
256,192,123353,1,0,0:0:0:0:
256,192,123467,5,8,0:0:0:0:
256,192,123580,1,8,0:0:0:0:
256,192,123694,5,0,0:0:0:0:
256,192,123921,5,8,0:0:0:0:
256,192,124035,5,0,0:0:0:0:
256,192,124262,5,8,0:0:0:0:
256,192,124489,1,8,0:0:0:0:
256,192,124603,5,0,0:0:0:0:
256,192,124830,1,0,0:0:0:0:
256,192,124944,1,0,0:0:0:0:
256,192,125057,5,8,0:0:0:0:
256,192,125171,5,0,0:0:0:0:
256,192,125285,5,8,0:0:0:0:
256,192,125398,1,8,0:0:0:0:
256,192,125512,1,8,0:0:0:0:
256,192,125739,5,0,0:0:0:0:
256,192,125853,5,8,0:0:0:0:
256,192,125967,1,8,0:0:0:0:
256,192,126080,1,8,0:0:0:0:
256,192,126307,5,0,0:0:0:0:
256,192,126421,5,8,0:0:0:0:
256,192,126648,1,8,0:0:0:0:
256,192,126876,5,0,0:0:0:0:
256,192,127103,1,0,0:0:0:0:
256,192,127217,1,0,0:0:0:0:
256,192,127330,5,8,0:0:0:0:
256,192,127557,5,0,0:0:0:0:
256,192,127671,5,8,0:0:0:0:
256,192,127785,5,0,0:0:0:0:
256,192,127898,5,8,0:0:0:0:
256,192,128126,5,0,0:0:0:0:
256,192,128239,1,0,0:0:0:0:
256,192,128467,5,8,0:0:0:0:
256,192,128580,5,0,0:0:0:0:
256,192,128694,1,0,0:0:0:0:
256,192,128807,5,8,0:0:0:0:
256,192,128921,1,8,0:0:0:0:
256,192,129035,1,8,0:0:0:0:
256,192,129148,5,0,0:0:0:0:
256,192,129262,1,0,0:0:0:0:
256,192,129376,1,0,0:0:0:0:
256,192,129489,1,0,0:0:0:0:
256,192,129603,5,8,0:0:0:0:
256,192,129717,1,8,0:0:0:0:
256,192,129830,1,8,0:0:0:0:
256,192,129944,1,8,0:0:0:0:
256,192,130057,1,8,0:0:0:0:
256,192,130285,5,0,0:0:0:0:
256,192,130512,5,8,0:0:0:0:
256,192,130739,1,8,0:0:0:0:
256,192,130967,5,4,0:0:0:0:
256,192,131194,1,0,0:0:0:0:
256,192,131421,5,8,0:0:0:0:
256,192,131648,5,0,0:0:0:0:
256,192,131762,1,0,0:0:0:0:
256,192,131876,1,0,0:0:0:0:
256,192,132103,1,0,0:0:0:0:
256,192,132330,5,8,0:0:0:0:
256,192,132785,5,0,0:0:0:0:
256,192,132898,1,0,0:0:0:0:
256,192,133126,1,0,0:0:0:0:
256,192,133239,1,0,0:0:0:0:
256,192,133467,5,8,0:0:0:0:
256,192,133694,5,0,0:0:0:0:
256,192,134148,5,8,0:0:0:0:
256,192,134603,5,0,0:0:0:0:
256,192,134717,5,8,0:0:0:0:
256,192,134830,5,0,0:0:0:0:
256,192,134944,1,0,0:0:0:0:
256,192,135057,1,0,0:0:0:0:
256,192,135171,5,8,0:0:0:0:
256,192,135285,1,8,0:0:0:0:
256,192,135398,5,0,0:0:0:0:
256,192,135512,5,8,0:0:0:0:
256,192,135739,5,0,0:0:0:0:
256,192,135853,1,0,0:0:0:0:
256,192,135967,1,0,0:0:0:0:
256,192,136194,5,8,0:0:0:0:
256,192,136307,1,8,0:0:0:0:
256,192,136421,5,0,0:0:0:0:
256,192,136648,5,8,0:0:0:0:
256,192,136762,5,0,0:0:0:0:
256,192,136876,5,8,0:0:0:0:
256,192,136989,1,8,0:0:0:0:
256,192,137217,1,8,0:0:0:0:
256,192,137444,1,8,0:0:0:0:
256,192,137671,1,8,0:0:0:0:
256,192,137898,1,8,0:0:0:0:
256,192,138126,5,0,0:0:0:0:
256,192,138239,5,8,0:0:0:0:
256,192,138467,5,0,0:0:0:0:
256,192,138580,1,0,0:0:0:0:
256,192,138694,5,8,0:0:0:0:
256,192,138807,1,8,0:0:0:0:
256,192,139035,1,8,0:0:0:0:
256,192,139148,5,0,0:0:0:0:
256,192,139262,5,8,0:0:0:0:
256,192,139376,1,8,0:0:0:0:
256,192,139489,1,8,0:0:0:0:
256,192,139603,5,0,0:0:0:0:
256,192,139717,5,8,0:0:0:0:
256,192,139830,1,8,0:0:0:0:
256,192,139944,1,8,0:0:0:0:
256,192,140057,5,0,0:0:0:0:
256,192,140285,5,8,0:0:0:0:
256,192,140398,5,0,0:0:0:0:
256,192,140512,1,0,0:0:0:0:
256,192,140626,5,8,0:0:0:0:
256,192,140853,5,0,0:0:0:0:
256,192,141080,1,0,0:0:0:0:
256,192,141307,1,0,0:0:0:0:
256,192,141535,5,8,0:0:0:0:
256,192,141762,5,0,0:0:0:0:
256,192,141876,5,8,0:0:0:0:
256,192,142103,5,0,0:0:0:0:
256,192,142217,5,8,0:0:0:0:
256,192,142330,1,8,0:0:0:0:
256,192,142444,1,8,0:0:0:0:
256,192,142671,5,0,0:0:0:0:
256,192,142898,5,8,0:0:0:0:
256,192,143126,5,0,0:0:0:0:
256,192,143353,5,8,0:0:0:0:
256,192,143580,5,0,0:0:0:0:
256,192,143694,1,0,0:0:0:0:
256,192,143807,5,8,0:0:0:0:
256,192,143921,5,0,0:0:0:0:
256,192,144035,1,0,0:0:0:0:
256,192,144148,1,0,0:0:0:0:
256,192,144262,1,0,0:0:0:0:
256,192,144376,5,8,0:0:0:0:
256,192,144489,5,0,0:0:0:0:
256,192,144717,5,8,0:0:0:0:
256,192,144944,1,8,0:0:0:0:
256,192,145171,1,8,0:0:0:0:
256,192,145285,5,0,0:0:0:0:
256,192,145512,1,4,0:0:0:0:
256,192,145739,1,0,0:0:0:0:
256,192,145853,1,0,0:0:0:0:
256,192,145967,5,8,0:0:0:0:
256,192,146194,5,0,0:0:0:0:
256,192,146421,5,8,0:0:0:0:
256,192,146535,1,8,0:0:0:0:
256,192,146648,5,0,0:0:0:0:
256,192,146762,5,8,0:0:0:0:
256,192,146876,1,8,0:0:0:0:
256,192,147103,5,0,0:0:0:0:
256,192,147330,5,8,0:0:0:0:
256,192,147444,5,0,0:0:0:0:
256,192,147557,5,8,0:0:0:0:
256,192,147671,1,8,0:0:0:0:
256,192,147898,1,8,0:0:0:0:
256,192,148012,5,0,0:0:0:0:
256,192,148239,1,0,0:0:0:0:
256,192,148353,5,8,0:0:0:0:
256,192,148467,5,0,0:0:0:0:
256,192,148580,1,0,0:0:0:0:
256,192,148694,5,8,0:0:0:0:
256,192,148921,5,0,0:0:0:0:
256,192,149148,5,8,0:0:0:0:
256,192,149262,5,0,0:0:0:0:
256,192,149489,1,0,0:0:0:0:
256,192,149603,5,8,0:0:0:0:
256,192,149717,5,0,0:0:0:0:
256,192,149830,1,0,0:0:0:0:
256,192,150057,5,8,0:0:0:0:
256,192,150171,1,8,0:0:0:0:
256,192,150398,5,0,0:0:0:0:
256,192,150512,5,8,0:0:0:0:
256,192,150626,1,8,0:0:0:0:
256,192,150739,5,0,0:0:0:0:
256,192,150967,5,8,0:0:0:0:
256,192,151080,5,0,0:0:0:0:
256,192,151307,5,8,0:0:0:0:
256,192,151421,5,0,0:0:0:0:
256,192,151535,1,0,0:0:0:0:
256,192,151648,5,8,0:0:0:0:
256,192,151876,5,0,0:0:0:0:
256,192,151989,5,8,0:0:0:0:
256,192,152103,1,8,0:0:0:0:
256,192,152217,1,8,0:0:0:0:
256,192,152330,5,0,0:0:0:0:
256,192,152444,5,8,0:0:0:0:
256,192,152557,1,8,0:0:0:0:
256,192,152671,1,8,0:0:0:0:
256,192,152785,5,0,0:0:0:0:
256,192,153012,5,8,0:0:0:0:
256,192,153126,1,8,0:0:0:0:
256,192,153239,5,0,0:0:0:0:
256,192,153353,1,0,0:0:0:0:
256,192,153467,5,8,0:0:0:0:
256,192,153694,5,0,0:0:0:0:
256,192,153807,1,0,0:0:0:0:
256,192,154035,5,8,0:0:0:0:
256,192,154148,5,0,0:0:0:0:
256,192,154376,5,8,0:0:0:0:
256,192,154603,5,0,0:0:0:0:
256,192,154717,1,0,0:0:0:0:
256,192,154830,5,8,0:0:0:0:
256,192,154944,1,8,0:0:0:0:
256,192,155057,5,0,0:0:0:0:
256,192,155285,5,8,0:0:0:0:
256,192,155512,5,0,0:0:0:0:
256,192,155626,1,0,0:0:0:0:
256,192,155853,5,8,0:0:0:0:
256,192,155967,5,0,0:0:0:0:
256,192,156080,1,0,0:0:0:0:
256,192,156194,5,8,0:0:0:0:
256,192,156421,5,0,0:0:0:0:
256,192,156535,1,0,0:0:0:0:
256,192,156648,5,8,0:0:0:0:
256,192,156762,5,0,0:0:0:0:
256,192,156876,1,0,0:0:0:0:
256,192,156989,1,0,0:0:0:0:
256,192,157103,5,8,0:0:0:0:
256,192,157330,5,0,0:0:0:0:
256,192,157444,1,0,0:0:0:0:
256,192,157557,1,0,0:0:0:0:
256,192,157671,1,0,0:0:0:0:
256,192,157785,5,8,0:0:0:0:
256,192,158012,5,0,0:0:0:0:
256,192,158126,1,0,0:0:0:0:
256,192,158239,1,0,0:0:0:0:
256,192,158353,1,0,0:0:0:0:
256,192,158467,5,8,0:0:0:0:
256,192,158580,5,0,0:0:0:0:
256,192,158694,5,8,0:0:0:0:
256,192,158921,5,0,0:0:0:0:
256,192,159035,1,0,0:0:0:0:
256,192,159148,5,8,0:0:0:0:
256,192,159262,1,8,0:0:0:0:
256,192,159376,5,0,0:0:0:0:
256,192,159489,5,8,0:0:0:0:
256,192,159603,5,0,0:0:0:0:
256,192,159830,5,8,0:0:0:0:
256,192,160057,5,4,0:0:0:0:
256,192,160512,5,8,0:0:0:0:
256,192,160739,5,0,0:0:0:0:
256,192,160853,1,0,0:0:0:0:
256,192,160967,1,0,0:0:0:0:
256,192,161194,1,0,0:0:0:0:
256,192,161421,5,8,0:0:0:0:
256,192,161648,1,8,0:0:0:0:
256,192,161876,5,0,0:0:0:0:
256,192,161989,1,0,0:0:0:0:
256,192,162103,5,8,0:0:0:0:
256,192,162217,5,0,0:0:0:0:
256,192,162330,1,0,0:0:0:0:
256,192,162557,1,0,0:0:0:0:
256,192,162785,1,0,0:0:0:0:
256,192,163012,1,0,0:0:0:0:
256,192,163126,1,0,0:0:0:0:
256,192,163239,5,8,0:0:0:0:
256,192,163467,1,8,0:0:0:0:
256,192,163694,5,0,0:0:0:0:
256,192,163807,1,0,0:0:0:0:
256,192,163921,5,8,0:0:0:0:
256,192,164148,5,0,0:0:0:0:
256,192,164376,5,8,0:0:0:0:
256,192,164489,1,8,0:0:0:0:
256,192,164603,5,0,0:0:0:0:
256,192,164717,5,8,0:0:0:0:
256,192,164830,1,8,0:0:0:0:
256,192,164944,5,0,0:0:0:0:
256,192,165057,5,8,0:0:0:0:
256,192,165285,5,0,0:0:0:0:
256,192,165512,5,8,0:0:0:0:
256,192,165626,1,8,0:0:0:0:
256,192,165739,5,0,0:0:0:0:
256,192,165853,1,0,0:0:0:0:
256,192,165967,5,8,0:0:0:0:
256,192,166194,5,0,0:0:0:0:
256,192,166421,5,8,0:0:0:0:
256,192,166535,5,0,0:0:0:0:
256,192,166648,5,8,0:0:0:0:
256,192,166762,1,8,0:0:0:0:
256,192,166876,5,0,0:0:0:0:
256,192,166989,5,8,0:0:0:0:
256,192,167103,1,8,0:0:0:0:
256,192,167217,1,8,0:0:0:0:
256,192,167330,5,0,0:0:0:0:
256,192,167557,1,0,0:0:0:0:
256,192,167671,5,8,0:0:0:0:
256,192,167785,1,8,0:0:0:0:
256,192,168012,5,0,0:0:0:0:
256,192,168126,1,0,0:0:0:0:
256,192,168239,5,8,0:0:0:0:
256,192,168467,1,8,0:0:0:0:
256,192,168580,1,8,0:0:0:0:
256,192,168694,1,8,0:0:0:0:
256,192,168921,5,0,0:0:0:0:
256,192,169148,5,8,0:0:0:0:
256,192,169262,5,0,0:0:0:0:
256,192,169376,1,0,0:0:0:0:
256,192,169489,5,8,0:0:0:0:
256,192,169603,1,8,0:0:0:0:
256,192,169830,5,0,0:0:0:0:
256,192,170057,5,8,0:0:0:0:
256,192,170171,5,0,0:0:0:0:
256,192,170285,5,8,0:0:0:0:
256,192,170398,1,8,0:0:0:0:
256,192,170512,5,0,0:0:0:0:
256,192,170739,5,8,0:0:0:0:
256,192,170967,5,0,0:0:0:0:
256,192,171080,1,0,0:0:0:0:
256,192,171307,5,8,0:0:0:0:
256,192,171421,5,0,0:0:0:0:
256,192,171648,5,8,0:0:0:0:
256,192,171876,5,0,0:0:0:0:
256,192,171989,1,0,0:0:0:0:
256,192,172217,5,8,0:0:0:0:
256,192,172330,5,0,0:0:0:0:
256,192,172444,1,0,0:0:0:0:
256,192,172557,5,8,0:0:0:0:
256,192,172785,5,0,0:0:0:0:
256,192,172898,1,0,0:0:0:0:
256,192,173126,5,8,0:0:0:0:
256,192,173239,5,0,0:0:0:0:
256,192,173467,5,8,0:0:0:0:
256,192,173694,5,0,0:0:0:0:
256,192,173807,1,0,0:0:0:0:
256,192,174035,5,8,0:0:0:0:
256,192,174148,5,0,0:0:0:0:
256,192,174262,1,0,0:0:0:0:
256,192,174376,5,8,0:0:0:0:
256,192,174603,5,4,0:0:0:0:
256,192,174830,1,0,0:0:0:0:
256,192,174944,5,8,0:0:0:0:
256,192,175171,1,8,0:0:0:0:
256,192,175285,5,0,0:0:0:0:
256,192,175512,1,0,0:0:0:0:
256,192,175739,1,0,0:0:0:0:
256,192,175853,1,0,0:0:0:0:
256,192,175967,5,8,0:0:0:0:
256,192,176194,1,8,0:0:0:0:
256,192,176307,5,0,0:0:0:0:
256,192,176421,1,0,0:0:0:0:
256,192,176535,5,8,0:0:0:0:
256,192,176648,5,0,0:0:0:0:
256,192,176876,1,0,0:0:0:0:
256,192,176989,5,8,0:0:0:0:
256,192,177103,5,0,0:0:0:0:
256,192,177330,1,0,0:0:0:0:
256,192,177557,1,8,0:0:0:0:
256,192,177671,5,8,0:0:0:0:
256,192,177785,1,8,0:0:0:0:
256,192,178012,5,0,0:0:0:0:
256,192,178239,1,0,0:0:0:0:
256,192,178467,1,0,0:0:0:0:
256,192,178580,1,0,0:0:0:0:
256,192,178694,5,8,0:0:0:0:
256,192,178921,1,8,0:0:0:0:
256,192,179035,5,0,0:0:0:0:
256,192,179262,1,0,0:0:0:0:
256,192,179376,5,8,0:0:0:0:
256,192,179603,5,0,0:0:0:0:
256,192,179830,1,0,0:0:0:0:
256,192,180057,1,0,0:0:0:0:
256,192,180171,1,0,0:0:0:0:
256,192,180285,5,8,0:0:0:0:
256,192,180398,1,8,0:0:0:0:
256,192,180512,5,0,0:0:0:0:
256,192,180626,5,8,0:0:0:0:
256,192,180739,5,0,0:0:0:0:
256,192,180853,1,0,0:0:0:0:
256,192,180967,5,8,0:0:0:0:
256,192,181080,1,8,0:0:0:0:
256,192,181194,5,0,0:0:0:0:
256,192,181307,5,8,0:0:0:0:
256,192,181421,5,0,0:0:0:0:
256,192,181648,1,0,0:0:0:0:
256,192,181876,1,4,0:0:0:0:
256,192,182217,1,4,0:0:0:0:
256,192,182557,1,4,0:0:0:0:
256,192,182898,1,4,0:0:0:0:
256,192,183239,1,4,0:0:0:0:
256,192,183467,1,0,0:0:0:0:
256,192,183694,5,12,0:0:0:0:
256,192,184035,1,12,0:0:0:0:
256,192,184376,1,12,0:0:0:0:
256,192,184717,1,12,0:0:0:0:
256,192,185057,1,12,0:0:0:0:
256,192,185285,1,8,0:0:0:0:
256,192,185512,5,0,0:0:0:0:
256,192,185739,5,8,0:0:0:0:
256,192,185853,5,0,0:0:0:0:
256,192,185967,5,8,0:0:0:0:
256,192,186194,5,0,0:0:0:0:
256,192,186307,5,8,0:0:0:0:
256,192,186421,5,0,0:0:0:0:
256,192,186648,5,8,0:0:0:0:
256,192,186762,5,0,0:0:0:0:
256,192,186876,5,8,0:0:0:0:
256,192,187103,5,0,0:0:0:0:
256,192,187217,5,8,0:0:0:0:
256,192,187330,5,0,0:0:0:0:
256,192,187557,1,0,0:0:0:0:
256,192,187785,1,0,0:0:0:0:
256,192,187898,1,0,0:0:0:0:
256,192,188012,1,0,0:0:0:0:
256,192,188126,1,0,0:0:0:0:
256,192,188239,5,8,0:0:0:0:
256,192,188353,1,8,0:0:0:0:
256,192,188467,5,0,0:0:0:0:
256,192,188694,5,8,0:0:0:0:
256,192,188921,1,8,0:0:0:0:
256,192,189148,5,4,0:0:0:0:
256,192,189376,1,0,0:0:0:0:
256,192,189489,1,0,0:0:0:0:
256,192,189603,5,8,0:0:0:0:
256,192,189830,1,8,0:0:0:0:
256,192,189944,5,0,0:0:0:0:
256,192,190171,1,0,0:0:0:0:
256,192,190285,5,8,0:0:0:0:
256,192,190512,5,0,0:0:0:0:
256,192,190739,1,0,0:0:0:0:
256,192,190853,1,0,0:0:0:0:
256,192,190967,1,0,0:0:0:0:
256,192,191194,1,0,0:0:0:0:
256,192,191307,5,8,0:0:0:0:
256,192,191421,5,0,0:0:0:0:
256,192,191648,1,0,0:0:0:0:
256,192,191876,1,0,0:0:0:0:
256,192,191989,5,8,0:0:0:0:
256,192,192217,1,8,0:0:0:0:
256,192,192330,5,0,0:0:0:0:
256,192,192444,1,0,0:0:0:0:
256,192,192557,5,8,0:0:0:0:
256,192,192671,1,8,0:0:0:0:
256,192,192785,5,0,0:0:0:0:
256,192,193012,1,0,0:0:0:0:
256,192,193126,1,0,0:0:0:0:
256,192,193239,5,8,0:0:0:0:
256,192,193467,1,8,0:0:0:0:
256,192,193694,1,8,0:0:0:0:
256,192,193807,5,0,0:0:0:0:
256,192,193921,1,0,0:0:0:0:
256,192,194035,1,0,0:0:0:0:
256,192,194148,5,8,0:0:0:0:
256,192,194376,1,8,0:0:0:0:
256,192,194489,1,8,0:0:0:0:
256,192,194603,5,0,0:0:0:0:
256,192,194830,1,0,0:0:0:0:
256,192,194944,5,8,0:0:0:0:
256,192,195171,5,0,0:0:0:0:
256,192,195285,1,0,0:0:0:0:
256,192,195512,1,0,0:0:0:0:
256,192,195626,5,8,0:0:0:0:
256,192,195853,5,0,0:0:0:0:
256,192,195967,1,0,0:0:0:0:
256,192,196194,1,0,0:0:0:0:
256,192,196307,5,8,0:0:0:0:
256,192,196421,5,0,0:0:0:0:
256,192,196648,1,0,0:0:0:0:
256,192,196762,1,0,0:0:0:0:
256,192,196876,5,8,0:0:0:0:
256,192,197103,1,8,0:0:0:0:
256,192,197330,5,0,0:0:0:0:
256,192,197444,5,8,0:0:0:0:
256,192,197557,1,8,0:0:0:0:
256,192,197671,1,8,0:0:0:0:
256,192,197785,5,0,0:0:0:0:
256,192,197898,1,0,0:0:0:0:
256,192,198012,5,8,0:0:0:0:
256,192,198126,5,0,0:0:0:0:
256,192,198239,1,0,0:0:0:0:
256,192,198580,5,12,0:0:0:0:
256,192,198921,5,4,0:0:0:0:
256,192,199262,1,0,0:0:0:0:
256,192,199376,1,0,0:0:0:0:
256,192,199603,5,12,0:0:0:0:
256,192,199830,1,0,0:0:0:0:
256,192,200057,5,0,0:0:0:0:
256,192,200171,1,0,0:0:0:0:
256,192,200398,1,0,0:0:0:0:
256,192,200512,5,8,0:0:0:0:
256,192,200739,5,0,0:0:0:0:
256,192,200853,1,0,0:0:0:0:
256,192,201080,5,8,0:0:0:0:
256,192,201194,1,8,0:0:0:0:
256,192,201307,5,0,0:0:0:0:
256,192,201421,5,8,0:0:0:0:
256,192,201535,1,8,0:0:0:0:
256,192,201762,5,0,0:0:0:0:
256,192,201876,1,0,0:0:0:0:
256,192,202217,5,12,0:0:0:0:
256,192,202557,5,4,0:0:0:0:
256,192,202898,5,8,0:0:0:0:
256,192,203012,5,0,0:0:0:0:
256,192,203239,1,4,0:0:0:0:
256,192,203467,5,8,0:0:0:0:
256,192,203694,1,12,0:0:0:0:
256,192,203921,5,0,0:0:0:0:
256,192,204035,1,0,0:0:0:0:
256,192,204148,5,8,0:0:0:0:
256,192,204262,1,8,0:0:0:0:
256,192,204376,5,0,0:0:0:0:
256,192,204603,5,8,0:0:0:0:
256,192,204830,1,8,0:0:0:0:
256,192,205057,5,0,0:0:0:0:
256,192,205171,1,0,0:0:0:0:
256,192,205285,1,0,0:0:0:0:
256,192,205398,5,8,0:0:0:0:
256,192,205512,5,0,0:0:0:0:
256,192,205739,5,8,0:0:0:0:
256,192,205853,1,8,0:0:0:0:
256,192,205967,5,0,0:0:0:0:
256,192,206194,5,8,0:0:0:0:
256,192,206421,5,0,0:0:0:0:
256,192,206535,1,0,0:0:0:0:
256,192,206648,5,8,0:0:0:0:
256,192,206762,1,8,0:0:0:0:
256,192,206876,1,8,0:0:0:0:
256,192,207103,1,8,0:0:0:0:
256,192,207330,5,0,0:0:0:0:
256,192,207557,5,8,0:0:0:0:
256,192,207671,1,8,0:0:0:0:
256,192,207785,5,0,0:0:0:0:
256,192,208012,5,8,0:0:0:0:
256,192,208239,5,0,0:0:0:0:
256,192,208353,1,0,0:0:0:0:
256,192,208467,5,8,0:0:0:0:
256,192,208580,1,8,0:0:0:0:
256,192,208694,5,0,0:0:0:0:
256,192,208921,5,8,0:0:0:0:
256,192,209148,5,0,0:0:0:0:
256,192,209262,1,0,0:0:0:0:
256,192,209489,5,8,0:0:0:0:
256,192,209603,5,0,0:0:0:0:
256,192,209830,5,8,0:0:0:0:
256,192,210057,5,0,0:0:0:0:
256,192,210171,1,0,0:0:0:0:
256,192,210285,5,8,0:0:0:0:
256,192,210398,1,8,0:0:0:0:
256,192,210512,5,0,0:0:0:0:
256,192,210739,5,8,0:0:0:0:
256,192,210967,5,0,0:0:0:0:
256,192,211194,1,0,0:0:0:0:
256,192,211307,1,0,0:0:0:0:
256,192,211421,5,8,0:0:0:0:
256,192,211648,5,0,0:0:0:0:
256,192,211876,5,8,0:0:0:0:
256,192,211989,5,0,0:0:0:0:
256,192,212103,5,8,0:0:0:0:
256,192,212217,1,8,0:0:0:0:
256,192,212330,1,8,0:0:0:0:
256,192,212557,1,8,0:0:0:0:
256,192,212785,5,0,0:0:0:0:
256,192,212898,1,0,0:0:0:0:
256,192,213126,5,8,0:0:0:0:
256,192,213239,5,0,0:0:0:0:
256,192,213467,5,8,0:0:0:0:
256,192,213694,5,0,0:0:0:0:
256,192,213807,1,0,0:0:0:0:
256,192,214035,5,8,0:0:0:0:
256,192,214148,5,0,0:0:0:0:
256,192,214262,5,8,0:0:0:0:
256,192,214376,1,8,0:0:0:0:
256,192,214603,5,0,0:0:0:0:
256,192,214717,1,0,0:0:0:0:
256,192,214830,1,0,0:0:0:0:
256,192,214944,5,8,0:0:0:0:
256,192,215057,5,0,0:0:0:0:
256,192,215285,5,8,0:0:0:0:
256,192,215512,5,0,0:0:0:0:
256,192,215626,1,0,0:0:0:0:
256,192,215739,1,0,0:0:0:0:
256,192,215853,5,8,0:0:0:0:
256,192,215967,5,0,0:0:0:0:
256,192,216080,5,8,0:0:0:0:
256,192,216194,1,8,0:0:0:0:
256,192,216421,5,0,0:0:0:0:
256,192,216535,1,0,0:0:0:0:
256,192,216648,1,0,0:0:0:0:
256,192,216762,5,8,0:0:0:0:
256,192,216876,5,0,0:0:0:0:
256,192,217103,5,8,0:0:0:0:
256,192,217330,5,0,0:0:0:0:
256,192,217444,1,0,0:0:0:0:
256,192,217557,1,0,0:0:0:0:
256,192,217671,5,8,0:0:0:0:
256,192,217785,5,0,0:0:0:0:
256,192,217898,1,0,0:0:0:0:
256,192,218012,5,8,0:0:0:0:
256,192,218239,5,4,0:0:0:0:
256,192,218467,5,8,0:0:0:0:
256,192,218580,1,8,0:0:0:0:
256,192,218694,5,0,0:0:0:0:
256,192,218921,5,8,0:0:0:0:
256,192,219035,5,0,0:0:0:0:
256,192,219148,1,0,0:0:0:0:
256,192,219376,1,0,0:0:0:0:
256,192,219603,5,8,0:0:0:0:
256,192,219717,1,8,0:0:0:0:
256,192,219830,5,0,0:0:0:0:
256,192,220057,1,0,0:0:0:0:
256,192,220171,1,0,0:0:0:0:
256,192,220285,5,8,0:0:0:0:
256,192,220398,1,8,0:0:0:0:
256,192,220512,5,0,0:0:0:0:
256,192,220739,5,8,0:0:0:0:
256,192,220967,5,0,0:0:0:0:
256,192,221080,1,0,0:0:0:0:
256,192,221194,5,8,0:0:0:0:
256,192,221307,1,8,0:0:0:0:
256,192,221421,1,8,0:0:0:0:
256,192,221648,1,8,0:0:0:0:
256,192,221876,5,0,0:0:0:0:
256,192,221989,1,0,0:0:0:0:
256,192,222103,1,0,0:0:0:0:
256,192,222330,5,8,0:0:0:0:
256,192,222557,5,0,0:0:0:0:
256,192,222785,5,8,0:0:0:0:
256,192,222898,1,8,0:0:0:0:
256,192,223012,5,0,0:0:0:0:
256,192,223239,5,8,0:0:0:0:
256,192,223467,5,0,0:0:0:0:
256,192,223694,5,8,0:0:0:0:
256,192,223921,5,0,0:0:0:0:
256,192,224035,1,0,0:0:0:0:
256,192,224148,5,8,0:0:0:0:
256,192,224262,1,8,0:0:0:0:
256,192,224376,5,0,0:0:0:0:
256,192,224603,5,8,0:0:0:0:
256,192,224830,5,0,0:0:0:0:
256,192,225057,5,8,0:0:0:0:
256,192,225285,5,0,0:0:0:0:
256,192,225512,5,8,0:0:0:0:
256,192,225739,5,0,0:0:0:0:
256,192,225853,1,0,0:0:0:0:
256,192,225967,1,0,0:0:0:0:
256,192,226194,5,8,0:0:0:0:
256,192,226421,5,0,0:0:0:0:
256,192,226648,1,0,0:0:0:0:
256,192,226762,1,0,0:0:0:0:
256,192,226876,5,8,0:0:0:0:
256,192,227103,5,0,0:0:0:0:
256,192,227330,5,8,0:0:0:0:
256,192,227557,5,0,0:0:0:0:
256,192,227671,1,0,0:0:0:0:
256,192,227785,5,8,0:0:0:0:
256,192,228012,1,8,0:0:0:0:
256,192,228239,5,0,0:0:0:0:
256,192,228353,1,0,0:0:0:0:
256,192,228467,5,8,0:0:0:0:
256,192,228694,1,8,0:0:0:0:
256,192,228921,5,0,0:0:0:0:
256,192,229148,1,0,0:0:0:0:
256,192,229376,5,8,0:0:0:0:
256,192,229489,1,8,0:0:0:0:
256,192,229603,5,0,0:0:0:0:
256,192,229830,1,0,0:0:0:0:
256,192,230057,5,8,0:0:0:0:
256,192,230171,1,8,0:0:0:0:
256,192,230285,5,0,0:0:0:0:
256,192,230512,1,0,0:0:0:0:
256,192,230739,5,8,0:0:0:0:
256,192,230967,5,0,0:0:0:0:
256,192,231194,5,8,0:0:0:0:
256,192,231307,1,8,0:0:0:0:
256,192,231421,5,0,0:0:0:0:
256,192,231648,1,0,0:0:0:0:
256,192,231762,1,0,0:0:0:0:
256,192,231876,5,8,0:0:0:0:
256,192,231989,1,8,0:0:0:0:
256,192,232103,5,0,0:0:0:0:
256,192,232330,1,0,0:0:0:0:
256,192,232557,5,8,0:0:0:0:
256,192,232785,5,4,0:0:0:0:
256,192,233012,12,0,234603,0:0:0:0:
256,192,234906,5,4,0:0:0:0:
256,192,235057,1,4,0:0:0:0:
