osu file format v12

[General]
AudioFilename: Anjuu2000.mp3
AudioLeadIn: 0
PreviewTime: 14603
Countdown: 0
SampleSet: Normal
StackLeniency: 0.7
Mode: 1
LetterboxInBreaks: 0

[Editor]
Bookmarks: 14555,181820
DistanceSpacing: 0.1
BeatDivisor: 4
GridSize: 32

[Metadata]
Title:Anjuu
TitleUnicode:Anjuu
Artist:Melyceria&Disease
ArtistUnicode:Melyceria&Disease
Creator:_Gezo_
Version:Tianlan Oni
Source:
Tags:Taiko Vangel Gezoda Original Psychedelic Beats
BeatmapID:174452
BeatmapSetID:54121

[Difficulty]
HPDrainRate:5
CircleSize:5
OverallDifficulty:6
ApproachRate:5
SliderMultiplier:1.4
SliderTickRate:1

[Events]
//Background and Video events
0,0,"BG.jpg",0,0
//Break Periods
//Storyboard Layer 0 (Background)
//Storyboard Layer 1 (Fail)
//Storyboard Layer 2 (Pass)
//Storyboard Layer 3 (Foreground)
//Storyboard Sound Samples
//Background Colour Transformations
3,100,163,162,255

[TimingPoints]
58,454.545454545455,4,1,0,80,1,0
14603,-100,4,1,0,80,0,1
29148,-100,4,1,0,80,0,0
87330,-100,4,1,0,80,0,1
145512,-100,4,1,0,80,0,0
174603,-100,4,1,0,80,0,1
203694,-100,4,1,0,80,0,0
225512,-117.647058823529,4,1,0,80,0,0
232728,-83.3333333333333,4,1,0,80,0,0

[Colours]
Combo1 : 0,0,255
Combo2 : 255,0,0

[HitObjects]
256,192,7330,5,0,0:0:0:0:
256,192,7444,1,0,0:0:0:0:
256,192,7558,1,0,0:0:0:0:
256,192,7671,1,0,0:0:0:0:
256,192,7785,1,0,0:0:0:0:
256,192,8012,1,0,0:0:0:0:
256,192,8126,1,0,0:0:0:0:
256,192,8239,5,8,0:0:0:0:
256,192,8467,1,8,0:0:0:0:
256,192,8580,1,8,0:0:0:0:
256,192,8694,5,0,0:0:0:0:
256,192,8808,5,8,0:0:0:0:
256,192,8921,1,8,0:0:0:0:
256,192,9035,1,8,0:0:0:0:
256,192,9148,5,0,0:0:0:0:
256,192,9376,1,0,0:0:0:0:
256,192,9489,1,0,0:0:0:0:
256,192,9603,5,8,0:0:0:0:
256,192,9830,5,0,0:0:0:0:
256,192,9944,5,8,0:0:0:0:
256,192,10057,1,8,0:0:0:0:
256,192,10171,5,0,0:0:0:0:
256,192,10285,1,0,0:0:0:0:
256,192,10398,5,8,0:0:0:0:
256,192,10512,5,0,0:0:0:0:
256,192,10739,1,0,0:0:0:0:
256,192,10853,5,8,0:0:0:0:
256,192,10967,1,8,0:0:0:0:
256,192,11194,1,8,0:0:0:0:
256,192,11307,1,8,0:0:0:0:
256,192,11421,5,0,0:0:0:0:
256,192,11648,5,8,0:0:0:0:
256,192,11762,1,8,0:0:0:0:
256,192,11876,5,0,0:0:0:0:
256,192,11989,1,0,0:0:0:0:
256,192,12103,1,0,0:0:0:0:
256,192,12217,5,8,0:0:0:0:
256,192,12330,5,0,0:0:0:0:
256,192,12557,5,8,0:0:0:0:
256,192,12671,1,8,0:0:0:0:
256,192,12785,5,0,0:0:0:0:
256,192,13012,5,8,0:0:0:0:
256,192,13126,1,8,0:0:0:0:
256,192,13239,5,0,0:0:0:0:
256,192,13467,1,0,0:0:0:0:
256,192,13580,5,8,0:0:0:0:
256,192,13694,1,8,0:0:0:0:
256,192,13807,5,0,0:0:0:0:
256,192,13921,1,0,0:0:0:0:
256,192,14148,5,8,0:0:0:0:
256,192,14376,1,8,0:0:0:0:
192,192,14603,5,4,0:0:0:0:
192,192,14830,1,0,0:0:0:0:
192,192,14944,5,8,0:0:0:0:
192,192,15057,1,8,0:0:0:0:
192,192,15285,5,0,0:0:0:0:
192,192,15398,1,0,0:0:0:0:
192,192,15512,1,0,0:0:0:0:
192,192,15626,5,8,0:0:0:0:
192,192,15739,1,8,0:0:0:0:
192,192,15967,5,0,0:0:0:0:
192,192,16194,5,8,0:0:0:0:
192,192,16421,5,0,0:0:0:0:
192,192,16535,1,0,0:0:0:0:
192,192,16648,5,8,0:0:0:0:
192,192,16762,5,0,0:0:0:0:
192,192,16989,5,8,0:0:0:0:
192,192,17103,5,0,0:0:0:0:
192,192,17330,5,8,0:0:0:0:
192,192,17444,5,0,0:0:0:0:
192,192,17557,1,0,0:0:0:0:
192,192,17671,5,8,0:0:0:0:
192,192,17785,5,0,0:0:0:0:
192,192,18012,5,8,0:0:0:0:
192,192,18239,5,0,0:0:0:0:
192,192,18353,1,0,0:0:0:0:
192,192,18580,5,8,0:0:0:0:
192,192,18694,5,0,0:0:0:0:
192,192,18921,1,0,0:0:0:0:
192,192,19035,5,8,0:0:0:0:
192,192,19262,1,8,0:0:0:0:
192,192,19376,1,8,0:0:0:0:
192,192,19603,1,8,0:0:0:0:
192,192,19717,5,0,0:0:0:0:
192,192,19830,1,0,0:0:0:0:
192,192,19944,1,0,0:0:0:0:
192,192,20057,5,8,0:0:0:0:
192,192,20171,1,8,0:0:0:0:
192,192,20398,1,8,0:0:0:0:
192,192,20512,5,0,0:0:0:0:
192,192,20739,1,0,0:0:0:0:
192,192,20853,5,8,0:0:0:0:
192,192,21080,1,8,0:0:0:0:
192,192,21194,5,0,0:0:0:0:
192,192,21421,1,0,0:0:0:0:
192,192,21535,1,0,0:0:0:0:
192,192,21648,5,8,0:0:0:0:
192,192,21762,1,8,0:0:0:0:
192,192,21876,5,0,0:0:0:0:
192,192,22103,1,0,0:0:0:0:
192,192,22217,1,0,0:0:0:0:
192,192,22330,5,8,0:0:0:0:
192,192,22558,1,8,0:0:0:0:
192,192,22785,1,8,0:0:0:0:
192,192,22898,1,8,0:0:0:0:
192,192,23012,5,0,0:0:0:0:
192,192,23126,5,8,0:0:0:0:
192,192,23239,5,0,0:0:0:0:
192,192,23467,1,0,0:0:0:0:
192,192,23694,1,0,0:0:0:0:
192,192,23808,5,8,0:0:0:0:
192,192,23921,5,0,0:0:0:0:
192,192,24035,5,8,0:0:0:0:
192,192,24148,5,0,0:0:0:0:
192,192,24376,1,0,0:0:0:0:
192,192,24603,1,0,0:0:0:0:
192,192,24717,5,8,0:0:0:0:
192,192,24830,5,0,0:0:0:0:
192,192,24944,5,8,0:0:0:0:
192,192,25058,5,0,0:0:0:0:
192,192,25285,5,8,0:0:0:0:
192,192,25512,5,0,0:0:0:0:
192,192,25626,5,8,0:0:0:0:
192,192,25739,5,0,0:0:0:0:
192,192,25853,1,0,0:0:0:0:
192,192,25967,5,8,0:0:0:0:
192,192,26194,5,0,0:0:0:0:
192,192,26308,5,8,0:0:0:0:
192,192,26421,5,0,0:0:0:0:
192,192,26535,5,8,0:0:0:0:
192,192,26648,1,8,0:0:0:0:
192,192,26876,5,0,0:0:0:0:
192,192,27103,5,8,0:0:0:0:
192,192,27217,1,8,0:0:0:0:
192,192,27330,5,0,0:0:0:0:
192,192,27444,1,0,0:0:0:0:
192,192,27558,5,8,0:0:0:0:
192,192,27671,5,0,0:0:0:0:
192,192,27785,1,0,0:0:0:0:
192,192,28012,1,0,0:0:0:0:
192,192,28126,1,0,0:0:0:0:
192,192,28239,5,8,0:0:0:0:
192,192,28353,5,0,0:0:0:0:
192,192,28467,1,0,0:0:0:0:
192,192,28694,5,8,0:0:0:0:
192,192,28921,1,8,0:0:0:0:
192,192,29148,5,4,0:0:0:0:
192,192,29376,1,0,0:0:0:0:
192,192,29489,1,0,0:0:0:0:
192,192,29603,5,8,0:0:0:0:
192,192,29830,1,8,0:0:0:0:
192,192,30058,1,8,0:0:0:0:
192,192,30171,1,8,0:0:0:0:
192,192,30285,1,8,0:0:0:0:
192,192,30398,1,8,0:0:0:0:
192,192,30512,5,0,0:0:0:0:
192,192,30739,1,0,0:0:0:0:
192,192,30967,1,0,0:0:0:0:
192,192,31080,5,8,0:0:0:0:
192,192,31194,5,0,0:0:0:0:
192,192,31308,5,8,0:0:0:0:
192,192,31421,5,0,0:0:0:0:
192,192,31648,5,8,0:0:0:0:
192,192,31876,1,8,0:0:0:0:
192,192,31989,5,0,0:0:0:0:
192,192,32103,5,8,0:0:0:0:
192,192,32217,1,8,0:0:0:0:
192,192,32330,5,0,0:0:0:0:
192,192,32558,5,8,0:0:0:0:
192,192,32785,5,0,0:0:0:0:
192,192,32898,1,0,0:0:0:0:
192,192,33012,5,8,0:0:0:0:
192,192,33126,5,0,0:0:0:0:
192,192,33239,1,0,0:0:0:0:
192,192,33353,5,8,0:0:0:0:
192,192,33580,5,0,0:0:0:0:
192,192,33694,5,8,0:0:0:0:
192,192,33921,1,8,0:0:0:0:
192,192,34035,5,0,0:0:0:0:
192,192,34148,5,8,0:0:0:0:
192,192,34262,1,8,0:0:0:0:
192,192,34489,1,8,0:0:0:0:
192,192,34603,5,0,0:0:0:0:
192,192,34717,1,0,0:0:0:0:
192,192,34830,1,0,0:0:0:0:
192,192,34944,5,8,0:0:0:0:
192,192,35171,1,8,0:0:0:0:
192,192,35285,5,0,0:0:0:0:
192,192,35512,1,0,0:0:0:0:
192,192,35626,5,8,0:0:0:0:
192,192,35739,1,8,0:0:0:0:
192,192,35853,1,8,0:0:0:0:
192,192,35967,5,0,0:0:0:0:
192,192,36194,1,0,0:0:0:0:
192,192,36421,1,0,0:0:0:0:
192,192,36648,1,0,0:0:0:0:
192,192,36762,1,0,0:0:0:0:
192,192,36876,5,8,0:0:0:0:
192,192,37103,1,8,0:0:0:0:
192,192,37330,1,8,0:0:0:0:
192,192,37444,1,8,0:0:0:0:
192,192,37557,5,0,0:0:0:0:
192,192,37671,1,0,0:0:0:0:
192,192,37785,5,8,0:0:0:0:
192,192,37898,1,8,0:0:0:0:
192,192,38012,5,0,0:0:0:0:
192,192,38239,1,0,0:0:0:0:
192,192,38467,1,0,0:0:0:0:
192,192,38580,5,8,0:0:0:0:
192,192,38694,5,0,0:0:0:0:
192,192,38921,1,0,0:0:0:0:
192,192,39148,1,0,0:0:0:0:
192,192,39262,5,8,0:0:0:0:
192,192,39376,5,0,0:0:0:0:
192,192,39489,5,8,0:0:0:0:
192,192,39603,5,0,0:0:0:0:
192,192,39830,5,8,0:0:0:0:
192,192,40057,5,0,0:0:0:0:
192,192,40171,1,0,0:0:0:0:
192,192,40285,5,8,0:0:0:0:
192,192,40398,1,8,0:0:0:0:
192,192,40512,5,0,0:0:0:0:
192,192,40739,1,0,0:0:0:0:
192,192,40853,1,0,0:0:0:0:
192,192,40967,5,8,0:0:0:0:
192,192,41194,1,8,0:0:0:0:
192,184,41421,5,0,0:0:0:0:
192,192,41876,1,0,0:0:0:0:
192,192,41989,1,0,0:0:0:0:
192,192,42103,5,8,0:0:0:0:
192,192,42217,5,0,0:0:0:0:
192,192,42330,5,8,0:0:0:0:
192,192,42557,1,8,0:0:0:0:
192,192,42671,5,0,0:0:0:0:
192,192,42785,5,8,0:0:0:0:
192,192,43012,1,8,0:0:0:0:
192,192,43126,1,8,0:0:0:0:
192,192,43239,5,0,0:0:0:0:
192,192,43467,1,0,0:0:0:0:
192,192,43694,1,4,0:0:0:0:
192,192,43921,1,0,0:0:0:0:
192,192,44035,1,0,0:0:0:0:
192,192,44148,5,8,0:0:0:0:
192,192,44262,5,0,0:0:0:0:
192,192,44376,1,0,0:0:0:0:
192,192,44489,5,8,0:0:0:0:
192,192,44603,5,0,0:0:0:0:
192,192,44717,1,0,0:0:0:0:
192,192,44830,5,8,0:0:0:0:
192,192,44944,1,8,0:0:0:0:
192,192,45057,5,0,0:0:0:0:
192,192,45285,1,0,0:0:0:0:
192,192,45398,5,8,0:0:0:0:
192,192,45512,1,8,0:0:0:0:
192,192,45739,1,8,0:0:0:0:
192,192,45967,5,0,0:0:0:0:
192,192,46080,5,8,0:0:0:0:
192,192,46194,5,0,0:0:0:0:
192,192,46421,1,0,0:0:0:0:
192,192,46648,1,0,0:0:0:0:
192,192,46762,5,8,0:0:0:0:
192,192,46876,5,0,0:0:0:0:
192,192,46989,1,0,0:0:0:0:
192,192,47103,5,8,0:0:0:0:
192,192,47217,1,8,0:0:0:0:
192,192,47330,5,0,0:0:0:0:
192,192,47557,1,0,0:0:0:0:
192,192,47671,5,8,0:0:0:0:
192,192,47898,1,8,0:0:0:0:
192,192,48012,5,0,0:0:0:0:
192,192,48239,1,0,0:0:0:0:
192,192,48467,1,0,0:0:0:0:
192,192,48580,5,8,0:0:0:0:
192,192,48807,1,8,0:0:0:0:
192,192,48921,5,0,0:0:0:0:
192,192,49148,5,8,0:0:0:0:
192,192,49262,1,8,0:0:0:0:
192,192,49376,5,0,0:0:0:0:
192,192,49489,5,8,0:0:0:0:
192,192,49603,5,0,0:0:0:0:
192,192,49717,1,0,0:0:0:0:
192,192,49830,5,8,0:0:0:0:
192,192,49944,1,8,0:0:0:0:
192,192,50057,5,0,0:0:0:0:
192,192,50171,5,8,0:0:0:0:
192,192,50285,5,0,0:0:0:0:
192,192,50398,1,0,0:0:0:0:
192,192,50512,5,8,0:0:0:0:
192,192,50626,1,8,0:0:0:0:
192,192,50739,5,0,0:0:0:0:
192,192,50967,1,0,0:0:0:0:
192,192,51194,5,8,0:0:0:0:
192,192,51421,5,0,0:0:0:0:
192,192,51648,1,0,0:0:0:0:
192,192,51762,1,0,0:0:0:0:
192,192,51876,5,8,0:0:0:0:
192,192,52103,5,0,0:0:0:0:
192,192,52217,5,8,0:0:0:0:
192,192,52444,1,8,0:0:0:0:
192,192,52557,5,0,0:0:0:0:
192,192,52671,1,0,0:0:0:0:
192,192,52785,5,8,0:0:0:0:
192,192,53012,1,8,0:0:0:0:
192,192,53239,5,0,0:0:0:0:
192,192,53467,1,0,0:0:0:0:
192,192,53580,1,0,0:0:0:0:
192,192,53694,5,8,0:0:0:0:
192,192,53921,5,0,0:0:0:0:
192,192,54035,1,0,0:0:0:0:
192,192,54148,5,8,0:0:0:0:
192,192,54262,5,0,0:0:0:0:
192,192,54376,1,0,0:0:0:0:
192,192,54489,5,8,0:0:0:0:
192,192,54603,5,0,0:0:0:0:
192,192,54830,5,8,0:0:0:0:
192,192,55057,5,0,0:0:0:0:
192,192,55285,1,0,0:0:0:0:
192,192,55398,1,0,0:0:0:0:
192,192,55512,1,0,0:0:0:0:
192,192,55626,5,8,0:0:0:0:
192,192,55739,1,8,0:0:0:0:
192,192,55853,1,8,0:0:0:0:
192,192,55967,5,0,0:0:0:0:
192,192,56194,1,0,0:0:0:0:
192,192,56421,1,0,0:0:0:0:
192,192,56535,1,0,0:0:0:0:
192,192,56648,1,0,0:0:0:0:
192,192,56762,5,8,0:0:0:0:
192,192,56876,5,0,0:0:0:0:
192,192,57103,1,0,0:0:0:0:
192,192,57330,1,0,0:0:0:0:
192,192,57444,1,0,0:0:0:0:
192,192,57557,5,8,0:0:0:0:
192,192,57671,5,0,0:0:0:0:
192,192,57898,1,0,0:0:0:0:
192,192,58012,5,8,0:0:0:0:
192,192,58239,5,4,0:0:0:0:
192,192,58467,1,0,0:0:0:0:
192,192,58580,1,0,0:0:0:0:
192,192,58694,5,8,0:0:0:0:
192,192,58921,1,8,0:0:0:0:
192,192,59035,1,8,0:0:0:0:
192,192,59148,5,0,0:0:0:0:
192,192,59262,1,0,0:0:0:0:
192,192,59376,5,8,0:0:0:0:
192,192,59603,1,8,0:0:0:0:
192,192,59830,1,8,0:0:0:0:
192,192,60057,1,8,0:0:0:0:
192,192,60171,1,8,0:0:0:0:
192,192,60285,5,0,0:0:0:0:
192,192,60512,5,8,0:0:0:0:
192,192,60626,5,0,0:0:0:0:
192,192,60739,1,0,0:0:0:0:
192,192,60967,1,0,0:0:0:0:
192,192,61080,5,8,0:0:0:0:
192,192,61194,5,0,0:0:0:0:
192,192,61307,5,8,0:0:0:0:
192,192,61421,5,0,0:0:0:0:
192,192,61648,5,8,0:0:0:0:
192,192,61876,5,0,0:0:0:0:
192,192,61989,5,8,0:0:0:0:
192,192,62103,1,8,0:0:0:0:
192,192,62217,1,8,0:0:0:0:
192,192,62330,5,0,0:0:0:0:
184,191,62557,1,0,0:0:0:0:
192,192,62671,5,8,0:0:0:0:
192,192,62785,1,8,0:0:0:0:
192,192,62898,1,8,0:0:0:0:
192,192,63012,1,8,0:0:0:0:
192,192,63239,5,0,0:0:0:0:
192,192,63467,1,0,0:0:0:0:
192,192,63580,5,8,0:0:0:0:
192,192,63694,1,8,0:0:0:0:
192,192,63807,5,0,0:0:0:0:
192,192,64035,1,0,0:0:0:0:
192,192,64262,1,0,0:0:0:0:
192,192,64376,5,8,0:0:0:0:
192,192,64489,1,8,0:0:0:0:
192,192,64603,5,0,0:0:0:0:
192,192,64830,1,0,0:0:0:0:
192,192,64944,5,8,0:0:0:0:
192,192,65057,1,8,0:0:0:0:
192,192,65171,1,8,0:0:0:0:
192,192,65285,5,0,0:0:0:0:
192,192,65398,1,0,0:0:0:0:
192,192,65512,5,8,0:0:0:0:
192,192,65739,1,8,0:0:0:0:
192,192,65853,5,0,0:0:0:0:
192,192,65967,5,8,0:0:0:0:
192,192,66080,5,0,0:0:0:0:
192,192,66194,5,8,0:0:0:0:
192,192,66421,1,8,0:0:0:0:
192,192,66648,5,0,0:0:0:0:
192,192,66762,1,0,0:0:0:0:
192,192,66876,1,0,0:0:0:0:
192,192,67103,5,8,0:0:0:0:
192,192,67217,1,8,0:0:0:0:
192,192,67330,5,0,0:0:0:0:
192,192,67557,5,8,0:0:0:0:
192,192,67671,1,8,0:0:0:0:
192,192,67785,5,0,0:0:0:0:
192,192,68012,5,8,0:0:0:0:
192,192,68126,1,8,0:0:0:0:
192,192,68239,5,0,0:0:0:0:
192,192,68353,5,8,0:0:0:0:
192,192,68467,1,8,0:0:0:0:
192,192,68580,1,8,0:0:0:0:
192,192,68694,5,0,0:0:0:0:
192,192,68921,1,0,0:0:0:0:
192,192,69148,1,0,0:0:0:0:
192,192,69262,1,0,0:0:0:0:
192,192,69376,5,8,0:0:0:0:
192,192,69489,5,0,0:0:0:0:
192,192,69717,1,0,0:0:0:0:
192,192,69944,1,0,0:0:0:0:
192,192,70057,1,0,0:0:0:0:
192,192,70171,1,0,0:0:0:0:
192,192,70285,5,8,0:0:0:0:
192,192,70398,5,0,0:0:0:0:
192,192,70626,1,0,0:0:0:0:
192,192,70853,1,0,0:0:0:0:
192,192,70967,5,8,0:0:0:0:
192,192,71080,5,0,0:0:0:0:
192,192,71194,1,0,0:0:0:0:
192,192,71307,5,8,0:0:0:0:
192,192,71535,1,8,0:0:0:0:
192,192,71762,1,8,0:0:0:0:
192,192,71876,1,8,0:0:0:0:
192,192,71989,5,0,0:0:0:0:
192,192,72103,5,8,0:0:0:0:
192,192,72217,5,0,0:0:0:0:
192,192,72444,5,8,0:0:0:0:
192,192,72557,1,8,0:0:0:0:
192,192,72785,5,4,0:0:0:0:
192,192,73012,1,0,0:0:0:0:
192,192,73126,1,0,0:0:0:0:
192,192,73239,5,8,0:0:0:0:
192,192,73467,1,8,0:0:0:0:
192,192,73694,1,8,0:0:0:0:
192,192,73807,1,8,0:0:0:0:
192,192,73921,1,8,0:0:0:0:
192,192,74035,1,8,0:0:0:0:
192,192,74148,5,0,0:0:0:0:
192,192,74376,1,0,0:0:0:0:
192,192,74603,1,0,0:0:0:0:
192,192,74717,1,0,0:0:0:0:
192,192,74830,5,8,0:0:0:0:
192,192,74944,5,0,0:0:0:0:
192,192,75171,1,0,0:0:0:0:
192,192,75398,1,0,0:0:0:0:
192,192,75512,5,8,0:0:0:0:
192,192,75626,5,0,0:0:0:0:
192,192,75739,5,8,0:0:0:0:
192,192,75853,1,8,0:0:0:0:
192,192,76080,1,8,0:0:0:0:
192,192,76194,1,8,0:0:0:0:
192,192,76307,1,8,0:0:0:0:
192,192,76421,5,0,0:0:0:0:
192,192,76648,1,0,0:0:0:0:
192,192,76762,5,8,0:0:0:0:
192,192,76876,5,0,0:0:0:0:
192,192,77103,1,0,0:0:0:0:
192,192,77330,1,0,0:0:0:0:
192,192,77444,5,8,0:0:0:0:
192,192,77557,5,0,0:0:0:0:
192,192,77671,1,0,0:0:0:0:
192,192,77785,1,0,0:0:0:0:
192,192,78012,1,0,0:0:0:0:
192,192,78239,1,0,0:0:0:0:
192,192,78353,1,0,0:0:0:0:
192,192,78467,5,8,0:0:0:0:
192,192,78580,5,0,0:0:0:0:
192,192,78807,1,0,0:0:0:0:
192,192,79035,1,0,0:0:0:0:
192,192,79148,5,8,0:0:0:0:
192,192,79262,5,0,0:0:0:0:
192,192,79376,5,8,0:0:0:0:
192,192,79489,5,0,0:0:0:0:
192,192,79717,1,0,0:0:0:0:
192,192,79830,5,8,0:0:0:0:
192,192,79944,1,8,0:0:0:0:
192,192,80057,5,0,0:0:0:0:
192,192,80285,1,0,0:0:0:0:
192,192,80398,1,0,0:0:0:0:
192,192,80512,5,8,0:0:0:0:
192,192,80626,5,0,0:0:0:0:
192,192,80853,1,0,0:0:0:0:
192,192,81080,1,0,0:0:0:0:
192,192,81194,5,8,0:0:0:0:
192,192,81307,5,0,0:0:0:0:
192,192,81421,5,8,0:0:0:0:
192,192,81535,5,0,0:0:0:0:
192,192,81762,1,0,0:0:0:0:
192,192,81989,5,8,0:0:0:0:
192,192,82103,1,8,0:0:0:0:
192,192,82217,5,0,0:0:0:0:
192,192,82330,5,8,0:0:0:0:
192,192,82444,5,0,0:0:0:0:
192,192,82671,5,8,0:0:0:0:
192,192,82898,1,8,0:0:0:0:
192,192,83012,1,8,0:0:0:0:
192,192,83126,5,0,0:0:0:0:
192,192,83239,5,8,0:0:0:0:
192,192,83353,5,0,0:0:0:0:
192,192,83580,5,8,0:0:0:0:
192,192,83807,1,8,0:0:0:0:
192,192,83921,5,0,0:0:0:0:
192,192,84035,1,0,0:0:0:0:
192,192,84148,5,8,0:0:0:0:
192,192,84262,5,0,0:0:0:0:
192,192,84489,5,8,0:0:0:0:
192,192,84717,5,0,0:0:0:0:
192,192,84830,5,8,0:0:0:0:
192,192,84944,5,0,0:0:0:0:
192,192,85057,5,8,0:0:0:0:
192,192,85171,5,0,0:0:0:0:
192,192,85398,5,8,0:0:0:0:
192,192,85626,1,8,0:0:0:0:
192,192,85739,1,8,0:0:0:0:
192,192,85853,1,8,0:0:0:0:
192,192,85967,5,0,0:0:0:0:
192,192,86080,1,0,0:0:0:0:
192,192,86307,1,0,0:0:0:0:
192,192,86535,1,0,0:0:0:0:
192,192,86648,5,8,0:0:0:0:
192,192,86762,1,8,0:0:0:0:
192,192,86876,1,8,0:0:0:0:
192,192,86989,1,8,0:0:0:0:
192,192,87103,5,0,0:0:0:0:
192,192,87330,5,12,0:0:0:0:
192,192,87557,1,8,0:0:0:0:
192,192,87671,1,8,0:0:0:0:
192,192,87785,5,0,0:0:0:0:
192,192,87898,5,8,0:0:0:0:
192,192,88126,5,0,0:0:0:0:
192,192,88239,5,8,0:0:0:0:
192,192,88353,5,0,0:0:0:0:
192,192,88580,1,0,0:0:0:0:
192,192,88694,5,8,0:0:0:0:
192,192,88921,1,8,0:0:0:0:
192,192,89035,1,8,0:0:0:0:
192,192,89148,5,0,0:0:0:0:
192,192,89376,1,0,0:0:0:0:
192,192,89489,1,0,0:0:0:0:
192,192,89603,5,8,0:0:0:0:
192,192,89717,5,0,0:0:0:0:
192,192,89944,1,0,0:0:0:0:
192,192,90171,1,0,0:0:0:0:
192,192,90285,1,0,0:0:0:0:
192,192,90398,5,8,0:0:0:0:
192,192,90512,5,0,0:0:0:0:
192,192,90739,5,8,0:0:0:0:
192,192,90967,1,8,0:0:0:0:
192,192,91080,1,8,0:0:0:0:
192,192,91307,1,8,0:0:0:0:
192,192,91421,5,0,0:0:0:0:
192,192,91648,1,0,0:0:0:0:
192,192,91762,1,0,0:0:0:0:
192,192,91876,1,0,0:0:0:0:
192,192,92103,1,0,0:0:0:0:
192,192,92217,1,0,0:0:0:0:
192,192,92330,5,8,0:0:0:0:
192,192,92557,1,8,0:0:0:0:
192,192,92671,5,0,0:0:0:0:
192,192,92898,5,8,0:0:0:0:
192,192,93012,5,0,0:0:0:0:
192,192,93239,1,0,0:0:0:0:
192,192,93467,1,0,0:0:0:0:
192,192,93580,5,8,0:0:0:0:
192,192,93694,5,0,0:0:0:0:
192,192,93807,5,8,0:0:0:0:
192,192,93921,5,0,0:0:0:0:
192,192,94035,1,0,0:0:0:0:
192,192,94148,5,8,0:0:0:0:
192,192,94262,1,8,0:0:0:0:
192,192,94376,5,0,0:0:0:0:
192,192,94603,1,0,0:0:0:0:
192,192,94717,1,0,0:0:0:0:
192,192,94830,1,0,0:0:0:0:
192,192,94944,5,8,0:0:0:0:
192,192,95057,1,8,0:0:0:0:
192,192,95171,1,8,0:0:0:0:
192,192,95285,5,0,0:0:0:0:
192,192,95398,1,0,0:0:0:0:
192,192,95512,1,0,0:0:0:0:
192,192,95626,5,8,0:0:0:0:
192,192,95739,1,8,0:0:0:0:
192,192,95853,1,8,0:0:0:0:
192,192,95967,5,0,0:0:0:0:
192,192,96194,1,0,0:0:0:0:
192,192,96421,1,4,0:0:0:0:
192,192,96762,1,4,0:0:0:0:
192,192,97103,1,4,0:0:0:0:
192,192,97444,1,4,0:0:0:0:
192,192,97785,1,4,0:0:0:0:
192,192,98012,1,4,0:0:0:0:
192,192,98239,5,12,0:0:0:0:
192,192,98580,1,12,0:0:0:0:
192,192,98921,1,12,0:0:0:0:
192,192,99262,1,12,0:0:0:0:
192,192,99603,1,12,0:0:0:0:
192,192,99830,1,12,0:0:0:0:
192,192,100057,5,0,0:0:0:0:
192,192,100285,1,0,0:0:0:0:
192,192,100398,5,8,0:0:0:0:
192,192,100626,1,8,0:0:0:0:
192,192,100739,5,0,0:0:0:0:
192,192,100967,1,0,0:0:0:0:
192,192,101080,5,8,0:0:0:0:
192,192,101307,1,8,0:0:0:0:
192,192,101421,5,0,0:0:0:0:
192,192,101535,1,0,0:0:0:0:
192,192,101648,1,0,0:0:0:0:
192,192,101876,1,0,0:0:0:0:
192,192,102103,5,8,0:0:0:0:
192,192,102217,5,0,0:0:0:0:
192,192,102444,1,0,0:0:0:0:
192,192,102671,1,0,0:0:0:0:
192,192,102785,1,0,0:0:0:0:
192,192,102898,1,0,0:0:0:0:
192,192,103126,1,0,0:0:0:0:
192,192,103239,5,8,0:0:0:0:
192,192,103353,5,0,0:0:0:0:
192,192,103580,1,0,0:0:0:0:
192,192,103694,1,0,0:0:0:0:
192,192,103921,5,8,0:0:0:0:
192,192,104035,1,8,0:0:0:0:
192,192,104148,5,0,0:0:0:0:
192,192,104262,1,0,0:0:0:0:
192,192,104489,1,0,0:0:0:0:
192,192,104717,1,0,0:0:0:0:
192,192,104830,1,0,0:0:0:0:
192,192,105057,5,8,0:0:0:0:
192,192,105171,5,0,0:0:0:0:
192,192,105285,1,0,0:0:0:0:
192,192,105398,1,0,0:0:0:0:
192,192,105512,5,8,0:0:0:0:
192,192,105739,1,8,0:0:0:0:
192,192,105853,1,8,0:0:0:0:
192,192,105967,5,0,0:0:0:0:
192,192,106080,5,8,0:0:0:0:
192,192,106307,5,0,0:0:0:0:
192,192,106535,1,0,0:0:0:0:
192,192,106876,1,0,0:0:0:0:
192,192,107103,1,0,0:0:0:0:
192,192,107217,5,8,0:0:0:0:
192,192,107330,1,8,0:0:0:0:
192,192,107557,1,8,0:0:0:0:
192,192,107671,1,8,0:0:0:0:
192,192,107785,5,0,0:0:0:0:
192,192,107898,5,8,0:0:0:0:
192,192,108126,5,0,0:0:0:0:
192,192,108353,1,0,0:0:0:0:
192,192,108580,1,0,0:0:0:0:
192,192,108694,1,0,0:0:0:0:
192,192,108807,5,8,0:0:0:0:
192,192,108921,1,8,0:0:0:0:
192,192,109035,5,0,0:0:0:0:
192,192,109148,5,8,0:0:0:0:
192,192,109376,1,8,0:0:0:0:
192,192,109489,1,8,0:0:0:0:
192,192,109603,5,0,0:0:0:0:
192,192,109717,1,0,0:0:0:0:
192,192,109944,5,8,0:0:0:0:
192,192,110171,1,8,0:0:0:0:
192,192,110398,1,8,0:0:0:0:
192,192,110512,5,0,0:0:0:0:
192,192,110739,1,0,0:0:0:0:
192,192,110853,1,0,0:0:0:0:
192,192,110967,5,8,0:0:0:0:
192,192,111194,1,8,0:0:0:0:
192,192,111307,5,0,0:0:0:0:
192,192,111421,5,8,0:0:0:0:
192,192,111535,5,0,0:0:0:0:
192,192,111762,1,0,0:0:0:0:
192,192,111989,1,0,0:0:0:0:
192,192,112330,1,0,0:0:0:0:
192,192,112557,1,0,0:0:0:0:
192,192,112671,5,8,0:0:0:0:
192,192,112785,1,8,0:0:0:0:
192,192,113012,1,8,0:0:0:0:
192,192,113126,1,8,0:0:0:0:
192,192,113239,5,0,0:0:0:0:
192,192,113353,5,8,0:0:0:0:
192,192,113580,1,8,0:0:0:0:
192,192,113694,5,0,0:0:0:0:
192,192,113921,1,0,0:0:0:0:
192,192,114035,1,0,0:0:0:0:
192,192,114148,1,0,0:0:0:0:
192,192,114376,1,0,0:0:0:0:
192,192,114489,1,0,0:0:0:0:
192,192,114603,5,8,0:0:0:0:
192,192,114830,5,0,0:0:0:0:
192,192,114944,1,0,0:0:0:0:
192,192,115057,5,8,0:0:0:0:
192,192,115171,1,8,0:0:0:0:
192,192,115398,5,0,0:0:0:0:
192,192,115626,1,0,0:0:0:0:
192,192,115739,5,8,0:0:0:0:
192,192,115967,1,8,0:0:0:0:
192,192,116194,1,8,0:0:0:0:
192,192,116421,5,4,0:0:0:0:
192,192,116648,5,8,0:0:0:0:
192,192,116762,1,8,0:0:0:0:
192,192,116876,5,0,0:0:0:0:
192,192,116989,5,8,0:0:0:0:
192,192,117217,5,0,0:0:0:0:
192,192,117330,5,8,0:0:0:0:
192,192,117444,5,0,0:0:0:0:
192,192,117671,1,0,0:0:0:0:
192,192,117785,5,8,0:0:0:0:
192,192,118012,1,8,0:0:0:0:
192,192,118126,1,8,0:0:0:0:
192,192,118239,5,0,0:0:0:0:
192,192,118467,1,0,0:0:0:0:
192,192,118580,1,0,0:0:0:0:
192,192,118694,5,8,0:0:0:0:
192,192,118807,5,0,0:0:0:0:
192,192,119035,1,0,0:0:0:0:
192,192,119262,1,0,0:0:0:0:
192,192,119376,1,0,0:0:0:0:
192,192,119489,5,8,0:0:0:0:
192,192,119603,5,0,0:0:0:0:
192,192,119830,5,8,0:0:0:0:
192,192,120057,1,8,0:0:0:0:
192,192,120171,1,8,0:0:0:0:
192,192,120398,1,8,0:0:0:0:
192,192,120512,5,0,0:0:0:0:
192,192,120739,1,0,0:0:0:0:
192,192,120853,1,0,0:0:0:0:
192,192,120967,1,0,0:0:0:0:
192,192,121194,1,0,0:0:0:0:
192,192,121307,1,0,0:0:0:0:
192,192,121421,5,8,0:0:0:0:
192,192,121648,1,8,0:0:0:0:
192,192,121762,5,0,0:0:0:0:
192,192,121989,5,8,0:0:0:0:
192,192,122103,5,0,0:0:0:0:
192,192,122330,1,0,0:0:0:0:
192,192,122557,1,0,0:0:0:0:
192,192,122671,5,8,0:0:0:0:
192,192,122785,5,0,0:0:0:0:
192,192,122898,5,8,0:0:0:0:
192,192,123012,5,0,0:0:0:0:
192,192,123126,1,0,0:0:0:0:
192,192,123239,5,8,0:0:0:0:
192,192,123353,1,8,0:0:0:0:
192,192,123467,5,0,0:0:0:0:
192,192,123694,1,0,0:0:0:0:
192,192,123807,1,0,0:0:0:0:
192,192,123921,1,0,0:0:0:0:
192,192,124035,5,8,0:0:0:0:
192,192,124148,1,8,0:0:0:0:
192,192,124262,1,8,0:0:0:0:
192,192,124376,5,0,0:0:0:0:
192,192,124489,1,0,0:0:0:0:
192,192,124603,1,0,0:0:0:0:
192,192,124717,5,8,0:0:0:0:
192,192,124830,1,8,0:0:0:0:
192,192,124944,1,8,0:0:0:0:
192,192,125057,5,0,0:0:0:0:
192,192,125285,1,0,0:0:0:0:
192,192,125512,1,4,0:0:0:0:
192,192,125853,1,4,0:0:0:0:
192,192,126194,1,4,0:0:0:0:
192,192,126535,1,4,0:0:0:0:
192,192,126876,1,4,0:0:0:0:
192,192,127103,1,4,0:0:0:0:
192,192,127330,5,12,0:0:0:0:
192,192,127671,1,12,0:0:0:0:
192,192,128012,1,12,0:0:0:0:
192,192,128353,1,12,0:0:0:0:
192,192,128694,1,12,0:0:0:0:
192,192,128921,1,12,0:0:0:0:
192,192,129148,5,0,0:0:0:0:
192,192,129376,1,0,0:0:0:0:
192,192,129489,5,8,0:0:0:0:
192,192,129717,1,8,0:0:0:0:
192,192,129830,5,0,0:0:0:0:
192,192,130057,1,0,0:0:0:0:
192,192,130171,5,8,0:0:0:0:
192,192,130398,1,8,0:0:0:0:
192,192,130512,5,0,0:0:0:0:
192,192,130626,1,0,0:0:0:0:
192,192,130739,1,0,0:0:0:0:
192,192,130967,1,4,0:0:0:0:
192,192,131194,5,8,0:0:0:0:
192,192,131307,5,0,0:0:0:0:
192,192,131535,1,0,0:0:0:0:
192,192,131762,1,0,0:0:0:0:
192,192,131876,1,0,0:0:0:0:
192,192,131989,1,0,0:0:0:0:
192,192,132217,1,0,0:0:0:0:
192,192,132330,5,8,0:0:0:0:
192,192,132444,5,0,0:0:0:0:
192,192,132671,1,0,0:0:0:0:
192,192,132785,1,0,0:0:0:0:
192,192,133012,5,8,0:0:0:0:
192,192,133126,1,8,0:0:0:0:
192,192,133239,5,0,0:0:0:0:
192,192,133353,1,0,0:0:0:0:
192,192,133580,1,0,0:0:0:0:
192,192,133807,1,0,0:0:0:0:
192,192,133921,1,0,0:0:0:0:
192,192,134148,5,8,0:0:0:0:
192,192,134262,5,0,0:0:0:0:
192,192,134376,1,0,0:0:0:0:
192,192,134489,1,0,0:0:0:0:
192,192,134603,5,8,0:0:0:0:
192,192,134830,1,8,0:0:0:0:
192,192,134944,1,8,0:0:0:0:
192,192,135057,5,0,0:0:0:0:
192,192,135171,5,8,0:0:0:0:
192,192,135398,5,0,0:0:0:0:
192,192,135626,1,0,0:0:0:0:
192,192,135967,1,0,0:0:0:0:
192,192,136194,1,0,0:0:0:0:
192,192,136307,5,8,0:0:0:0:
192,192,136421,1,8,0:0:0:0:
192,192,136648,1,8,0:0:0:0:
192,192,136762,1,8,0:0:0:0:
192,192,136876,5,0,0:0:0:0:
192,192,136989,5,8,0:0:0:0:
192,192,137217,5,0,0:0:0:0:
192,192,137444,1,0,0:0:0:0:
192,192,137671,1,0,0:0:0:0:
192,192,137785,1,0,0:0:0:0:
192,192,137898,5,8,0:0:0:0:
192,192,138012,1,8,0:0:0:0:
192,192,138126,5,0,0:0:0:0:
192,192,138239,1,0,0:0:0:0:
192,192,138467,5,8,0:0:0:0:
192,192,138580,1,8,0:0:0:0:
192,192,138694,5,0,0:0:0:0:
192,192,138807,1,0,0:0:0:0:
192,192,139035,5,8,0:0:0:0:
192,192,139262,1,8,0:0:0:0:
192,192,139489,1,8,0:0:0:0:
192,192,139603,5,0,0:0:0:0:
192,192,139830,1,0,0:0:0:0:
192,192,139944,1,0,0:0:0:0:
192,192,140057,5,8,0:0:0:0:
192,192,140285,1,8,0:0:0:0:
192,192,140398,1,8,0:0:0:0:
192,192,140512,5,8,0:0:0:0:
192,192,140626,1,0,0:0:0:0:
192,192,140853,1,0,0:0:0:0:
192,192,141080,1,0,0:0:0:0:
192,192,141421,1,0,0:0:0:0:
192,192,141648,1,0,0:0:0:0:
192,192,141762,5,8,0:0:0:0:
192,192,141876,1,8,0:0:0:0:
192,192,142103,1,8,0:0:0:0:
192,192,142217,1,8,0:0:0:0:
192,192,142330,5,0,0:0:0:0:
192,192,142444,5,8,0:0:0:0:
192,192,142671,1,8,0:0:0:0:
192,192,142785,5,0,0:0:0:0:
192,192,143012,1,0,0:0:0:0:
192,192,143126,1,0,0:0:0:0:
192,192,143239,1,0,0:0:0:0:
192,192,143467,1,0,0:0:0:0:
192,192,143580,1,0,0:0:0:0:
192,192,143694,5,8,0:0:0:0:
192,192,143921,5,0,0:0:0:0:
192,192,144035,1,0,0:0:0:0:
192,192,144148,5,8,0:0:0:0:
192,192,144262,1,8,0:0:0:0:
192,192,144489,5,0,0:0:0:0:
192,192,144717,1,0,0:0:0:0:
192,192,144830,5,8,0:0:0:0:
192,192,145057,1,8,0:0:0:0:
192,192,145285,1,8,0:0:0:0:
256,192,145512,5,4,0:0:0:0:
256,192,145739,5,8,0:0:0:0:
256,192,145853,1,8,0:0:0:0:
256,192,145967,5,0,0:0:0:0:
256,192,146080,5,8,0:0:0:0:
256,192,146194,5,0,0:0:0:0:
256,192,146307,1,0,0:0:0:0:
256,192,146421,5,8,0:0:0:0:
256,192,146648,1,8,0:0:0:0:
256,192,146762,1,8,0:0:0:0:
256,192,146876,5,0,0:0:0:0:
256,192,147103,1,0,0:0:0:0:
256,192,147217,5,8,0:0:0:0:
256,192,147330,5,0,0:0:0:0:
256,192,147444,5,8,0:0:0:0:
256,192,147557,1,8,0:0:0:0:
256,192,147671,1,8,0:0:0:0:
256,192,147785,5,0,0:0:0:0:
256,192,148012,1,0,0:0:0:0:
256,192,148239,5,8,0:0:0:0:
256,192,148353,1,8,0:0:0:0:
256,192,148467,5,0,0:0:0:0:
256,192,148580,5,8,0:0:0:0:
256,192,148694,5,0,0:0:0:0:
256,192,148921,1,0,0:0:0:0:
256,192,149148,1,0,0:0:0:0:
256,192,149262,5,8,0:0:0:0:
256,192,149376,5,0,0:0:0:0:
256,192,149489,1,0,0:0:0:0:
256,192,149603,5,8,0:0:0:0:
256,192,149830,1,8,0:0:0:0:
256,192,149944,5,0,0:0:0:0:
256,192,150057,1,0,0:0:0:0:
256,192,150171,1,0,0:0:0:0:
256,192,150285,5,8,0:0:0:0:
256,192,150512,1,8,0:0:0:0:
256,192,150739,5,0,0:0:0:0:
256,192,150967,5,8,0:0:0:0:
256,192,151080,5,0,0:0:0:0:
256,192,151194,5,8,0:0:0:0:
256,192,151307,1,8,0:0:0:0:
256,192,151421,5,0,0:0:0:0:
256,192,151648,1,0,0:0:0:0:
256,192,151762,5,8,0:0:0:0:
256,192,151876,1,8,0:0:0:0:
256,192,151989,1,8,0:0:0:0:
256,192,152103,5,0,0:0:0:0:
256,192,152330,1,0,0:0:0:0:
256,192,152406,1,0,0:0:0:0:
256,192,152482,1,0,0:0:0:0:
256,192,152557,1,0,0:0:0:0:
256,192,152671,1,0,0:0:0:0:
256,192,152785,5,8,0:0:0:0:
256,192,153012,5,0,0:0:0:0:
256,192,153126,1,0,0:0:0:0:
256,192,153239,1,0,0:0:0:0:
256,192,153467,5,8,0:0:0:0:
256,192,153694,5,0,0:0:0:0:
256,192,153807,1,0,0:0:0:0:
256,192,153921,5,8,0:0:0:0:
256,192,154148,1,8,0:0:0:0:
256,192,154376,1,8,0:0:0:0:
256,192,154489,1,8,0:0:0:0:
256,192,154603,5,0,0:0:0:0:
256,192,154830,1,0,0:0:0:0:
256,192,155057,1,0,0:0:0:0:
256,192,155171,5,8,0:0:0:0:
256,192,155285,5,0,0:0:0:0:
256,192,155512,1,0,0:0:0:0:
256,192,155739,1,0,0:0:0:0:
256,192,155853,5,8,0:0:0:0:
256,192,155967,5,0,0:0:0:0:
256,192,156080,1,0,0:0:0:0:
256,192,156194,5,8,0:0:0:0:
256,192,156421,1,8,0:0:0:0:
256,192,156648,5,0,0:0:0:0:
256,192,156762,1,0,0:0:0:0:
256,192,156876,1,0,0:0:0:0:
256,192,157103,1,0,0:0:0:0:
256,192,157217,5,8,0:0:0:0:
256,192,157330,5,0,0:0:0:0:
256,192,157557,1,0,0:0:0:0:
256,192,157671,1,0,0:0:0:0:
256,192,157898,5,8,0:0:0:0:
256,192,158012,5,0,0:0:0:0:
256,192,158239,1,0,0:0:0:0:
256,192,158467,1,0,0:0:0:0:
256,192,158580,1,0,0:0:0:0:
256,192,158694,5,8,0:0:0:0:
256,192,158807,1,8,0:0:0:0:
256,192,158921,5,0,0:0:0:0:
256,192,159035,5,8,0:0:0:0:
256,192,159148,1,8,0:0:0:0:
256,192,159376,1,8,0:0:0:0:
256,192,159489,1,8,0:0:0:0:
256,192,159603,5,0,0:0:0:0:
256,192,159830,1,0,0:0:0:0:
256,192,160057,1,4,0:0:0:0:
256,192,160285,5,8,0:0:0:0:
256,192,160398,1,8,0:0:0:0:
256,192,160512,5,0,0:0:0:0:
256,192,160739,1,0,0:0:0:0:
256,192,160967,5,8,0:0:0:0:
256,192,161194,1,8,0:0:0:0:
256,192,161307,1,8,0:0:0:0:
256,192,161421,5,0,0:0:0:0:
256,192,161648,1,0,0:0:0:0:
256,192,161876,1,0,0:0:0:0:
256,192,161989,5,8,0:0:0:0:
256,192,162217,1,8,0:0:0:0:
256,192,162330,1,8,0:0:0:0:
256,192,162557,1,8,0:0:0:0:
256,192,162671,1,8,0:0:0:0:
256,192,162785,5,0,0:0:0:0:
256,192,163012,1,0,0:0:0:0:
256,192,163126,5,8,0:0:0:0:
256,192,163239,1,8,0:0:0:0:
256,192,163353,5,0,0:0:0:0:
256,192,163467,1,0,0:0:0:0:
256,192,163580,5,8,0:0:0:0:
256,192,163694,5,0,0:0:0:0:
256,192,163921,1,0,0:0:0:0:
256,192,164035,1,0,0:0:0:0:
256,192,164148,5,8,0:0:0:0:
256,192,164376,5,0,0:0:0:0:
256,192,164603,5,8,0:0:0:0:
256,192,164830,5,0,0:0:0:0:
256,192,164944,1,0,0:0:0:0:
256,192,165057,5,8,0:0:0:0:
256,192,165171,1,8,0:0:0:0:
256,192,165285,5,0,0:0:0:0:
256,192,165512,1,0,0:0:0:0:
256,192,165739,1,0,0:0:0:0:
256,192,165853,5,8,0:0:0:0:
256,192,166080,1,8,0:0:0:0:
256,192,166194,5,0,0:0:0:0:
256,192,166421,1,0,0:0:0:0:
256,192,166648,1,0,0:0:0:0:
256,192,166762,1,0,0:0:0:0:
256,192,166876,5,8,0:0:0:0:
256,192,166989,5,0,0:0:0:0:
256,192,167103,1,0,0:0:0:0:
256,192,167330,5,8,0:0:0:0:
256,192,167557,5,0,0:0:0:0:
256,192,167671,1,0,0:0:0:0:
256,192,167785,5,8,0:0:0:0:
256,192,168012,5,0,0:0:0:0:
256,192,168126,1,0,0:0:0:0:
256,192,168239,5,8,0:0:0:0:
256,192,168467,1,8,0:0:0:0:
256,192,168580,1,8,0:0:0:0:
256,192,168694,5,0,0:0:0:0:
256,192,168921,1,0,0:0:0:0:
256,192,169148,1,0,0:0:0:0:
256,192,169262,5,8,0:0:0:0:
256,192,169376,5,0,0:0:0:0:
256,192,169489,1,0,0:0:0:0:
256,192,169603,1,0,0:0:0:0:
256,192,169717,5,8,0:0:0:0:
256,192,169830,5,0,0:0:0:0:
256,192,170057,1,0,0:0:0:0:
256,192,170285,1,0,0:0:0:0:
256,192,170398,5,8,0:0:0:0:
256,192,170512,1,8,0:0:0:0:
256,192,170626,5,0,0:0:0:0:
256,192,170853,1,0,0:0:0:0:
256,192,170967,5,8,0:0:0:0:
256,192,171194,1,8,0:0:0:0:
256,192,171307,1,8,0:0:0:0:
256,192,171421,5,0,0:0:0:0:
256,192,171648,1,0,0:0:0:0:
256,192,171876,1,0,0:0:0:0:
256,192,171989,5,8,0:0:0:0:
256,192,172103,5,0,0:0:0:0:
256,192,172330,1,0,0:0:0:0:
256,192,172557,1,0,0:0:0:0:
256,192,172671,1,0,0:0:0:0:
256,192,172785,1,0,0:0:0:0:
256,192,172898,5,8,0:0:0:0:
256,192,173012,5,0,0:0:0:0:
256,192,173239,1,0,0:0:0:0:
256,192,173467,1,0,0:0:0:0:
256,192,173580,5,8,0:0:0:0:
256,192,173694,1,8,0:0:0:0:
256,192,173807,1,8,0:0:0:0:
256,192,173921,5,0,0:0:0:0:
256,192,174035,1,0,0:0:0:0:
256,192,174148,5,8,0:0:0:0:
256,192,174376,1,8,0:0:0:0:
256,192,174603,5,4,0:0:0:0:
256,192,174830,1,0,0:0:0:0:
256,192,174944,5,8,0:0:0:0:
256,192,175171,1,8,0:0:0:0:
256,192,175285,5,0,0:0:0:0:
256,192,175512,1,0,0:0:0:0:
256,192,175739,1,0,0:0:0:0:
256,192,175853,1,0,0:0:0:0:
256,192,175967,5,8,0:0:0:0:
256,192,176194,1,8,0:0:0:0:
256,192,176307,5,0,0:0:0:0:
256,192,176421,1,0,0:0:0:0:
256,192,176535,5,8,0:0:0:0:
256,192,176648,5,0,0:0:0:0:
256,192,176876,1,0,0:0:0:0:
256,192,176989,5,8,0:0:0:0:
256,192,177103,5,0,0:0:0:0:
256,192,177330,1,0,0:0:0:0:
256,192,177557,1,8,0:0:0:0:
256,192,177671,5,8,0:0:0:0:
256,192,177785,1,8,0:0:0:0:
256,192,178012,5,0,0:0:0:0:
256,192,178239,1,0,0:0:0:0:
256,192,178467,1,0,0:0:0:0:
256,192,178580,1,0,0:0:0:0:
256,192,178694,5,8,0:0:0:0:
256,192,178921,1,8,0:0:0:0:
256,192,179035,5,0,0:0:0:0:
256,192,179262,1,0,0:0:0:0:
256,192,179376,5,8,0:0:0:0:
256,192,179603,5,0,0:0:0:0:
256,192,179830,1,0,0:0:0:0:
256,192,180057,1,0,0:0:0:0:
256,192,180171,1,0,0:0:0:0:
256,192,180285,5,8,0:0:0:0:
256,192,180398,5,0,0:0:0:0:
256,192,180512,1,0,0:0:0:0:
256,192,180739,1,0,0:0:0:0:
256,192,180853,1,0,0:0:0:0:
256,192,180967,5,8,0:0:0:0:
256,192,181080,5,0,0:0:0:0:
256,192,181194,1,0,0:0:0:0:
256,192,181421,1,0,0:0:0:0:
256,192,181648,1,0,0:0:0:0:
256,192,181876,1,4,0:0:0:0:
256,192,182217,1,4,0:0:0:0:
256,192,182557,1,4,0:0:0:0:
256,192,182898,1,4,0:0:0:0:
256,192,183239,1,4,0:0:0:0:
256,192,183467,1,0,0:0:0:0:
256,192,183694,5,12,0:0:0:0:
256,192,184035,1,12,0:0:0:0:
256,192,184376,1,12,0:0:0:0:
256,192,184717,1,12,0:0:0:0:
256,192,185057,1,12,0:0:0:0:
256,192,185285,1,8,0:0:0:0:
256,192,185398,1,8,0:0:0:0:
256,192,185512,5,0,0:0:0:0:
256,192,185739,5,8,0:0:0:0:
256,192,185853,5,0,0:0:0:0:
256,192,185967,5,8,0:0:0:0:
256,192,186194,5,0,0:0:0:0:
256,192,186307,5,8,0:0:0:0:
256,192,186421,5,0,0:0:0:0:
256,192,186648,5,8,0:0:0:0:
256,192,186762,5,0,0:0:0:0:
256,192,186876,5,8,0:0:0:0:
256,192,187103,5,0,0:0:0:0:
256,192,187217,5,8,0:0:0:0:
256,192,187330,5,0,0:0:0:0:
256,192,187557,1,0,0:0:0:0:
256,192,187785,1,0,0:0:0:0:
256,192,187898,1,0,0:0:0:0:
256,192,188012,1,0,0:0:0:0:
256,192,188126,1,0,0:0:0:0:
256,192,188239,5,8,0:0:0:0:
256,192,188353,1,8,0:0:0:0:
256,192,188467,5,0,0:0:0:0:
256,192,188694,5,8,0:0:0:0:
256,192,188921,1,8,0:0:0:0:
256,192,189148,5,4,0:0:0:0:
256,192,189376,1,0,0:0:0:0:
256,192,189489,1,0,0:0:0:0:
256,192,189603,5,8,0:0:0:0:
256,192,189830,1,8,0:0:0:0:
256,192,189944,5,0,0:0:0:0:
256,192,190171,1,0,0:0:0:0:
256,192,190285,5,8,0:0:0:0:
256,192,190512,5,0,0:0:0:0:
256,192,190739,1,0,0:0:0:0:
256,192,190853,1,0,0:0:0:0:
256,192,190967,1,0,0:0:0:0:
256,192,191194,1,0,0:0:0:0:
256,192,191307,5,8,0:0:0:0:
256,192,191421,5,0,0:0:0:0:
256,192,191648,1,0,0:0:0:0:
256,192,191876,1,0,0:0:0:0:
256,192,191989,5,8,0:0:0:0:
256,192,192217,1,8,0:0:0:0:
256,192,192330,5,0,0:0:0:0:
256,192,192444,1,0,0:0:0:0:
256,192,192557,5,8,0:0:0:0:
256,192,192671,1,8,0:0:0:0:
256,192,192785,5,0,0:0:0:0:
256,192,193012,1,0,0:0:0:0:
256,192,193126,1,0,0:0:0:0:
256,192,193239,5,8,0:0:0:0:
256,192,193467,1,8,0:0:0:0:
256,192,193694,1,8,0:0:0:0:
256,192,193807,5,0,0:0:0:0:
256,192,193921,1,0,0:0:0:0:
256,192,194035,1,0,0:0:0:0:
256,192,194148,5,8,0:0:0:0:
256,192,194376,1,8,0:0:0:0:
256,192,194489,1,8,0:0:0:0:
256,192,194603,5,0,0:0:0:0:
256,192,194830,1,0,0:0:0:0:
256,192,194944,5,8,0:0:0:0:
256,192,195171,5,0,0:0:0:0:
256,192,195285,1,0,0:0:0:0:
256,192,195512,1,0,0:0:0:0:
256,192,195626,5,8,0:0:0:0:
256,192,195853,5,0,0:0:0:0:
256,192,195967,1,0,0:0:0:0:
256,192,196194,1,0,0:0:0:0:
256,192,196307,5,8,0:0:0:0:
256,192,196421,5,0,0:0:0:0:
256,192,196648,1,0,0:0:0:0:
256,192,196762,1,0,0:0:0:0:
256,192,196876,5,8,0:0:0:0:
256,192,197103,1,8,0:0:0:0:
256,192,197330,5,0,0:0:0:0:
256,192,197444,5,8,0:0:0:0:
256,192,197557,1,8,0:0:0:0:
256,192,197671,1,8,0:0:0:0:
256,192,197785,5,0,0:0:0:0:
256,192,197898,1,0,0:0:0:0:
256,192,198012,5,8,0:0:0:0:
256,192,198126,5,0,0:0:0:0:
256,192,198239,1,0,0:0:0:0:
256,192,198580,5,8,0:0:0:0:
256,192,198921,5,0,0:0:0:0:
256,192,199262,1,0,0:0:0:0:
256,192,199376,1,0,0:0:0:0:
256,192,199603,5,8,0:0:0:0:
256,192,199830,1,0,0:0:0:0:
256,192,200057,5,0,0:0:0:0:
256,192,200171,1,0,0:0:0:0:
256,192,200398,1,0,0:0:0:0:
256,192,200512,5,8,0:0:0:0:
256,192,200739,5,0,0:0:0:0:
256,192,200853,1,0,0:0:0:0:
256,192,201080,5,8,0:0:0:0:
256,192,201194,1,8,0:0:0:0:
256,192,201307,5,0,0:0:0:0:
256,192,201421,5,8,0:0:0:0:
256,192,201535,5,0,0:0:0:0:
256,192,201762,1,0,0:0:0:0:
256,192,201876,1,0,0:0:0:0:
256,192,202217,5,8,0:0:0:0:
256,192,202557,5,0,0:0:0:0:
256,192,202898,5,8,0:0:0:0:
256,192,203012,5,0,0:0:0:0:
256,192,203239,1,0,0:0:0:0:
256,192,203467,5,8,0:0:0:0:
256,192,203694,1,12,0:0:0:0:
256,192,203921,5,0,0:0:0:0:
256,192,204035,1,0,0:0:0:0:
256,192,204148,1,0,0:0:0:0:
256,192,204376,5,8,0:0:0:0:
256,192,204603,5,0,0:0:0:0:
256,192,204717,1,0,0:0:0:0:
256,192,204830,5,8,0:0:0:0:
256,192,205057,1,8,0:0:0:0:
256,192,205285,1,8,0:0:0:0:
256,192,205398,1,8,0:0:0:0:
256,192,205512,5,0,0:0:0:0:
256,192,205739,1,0,0:0:0:0:
256,192,205967,1,0,0:0:0:0:
256,192,206080,5,8,0:0:0:0:
256,192,206194,5,0,0:0:0:0:
256,192,206421,1,0,0:0:0:0:
256,192,206648,1,0,0:0:0:0:
256,192,206762,5,8,0:0:0:0:
256,192,206876,5,0,0:0:0:0:
256,192,206989,1,0,0:0:0:0:
256,192,207103,5,8,0:0:0:0:
256,192,207330,1,8,0:0:0:0:
256,192,207557,5,0,0:0:0:0:
256,192,207671,1,0,0:0:0:0:
256,192,207785,1,0,0:0:0:0:
256,192,208012,1,0,0:0:0:0:
256,192,208126,5,8,0:0:0:0:
256,192,208239,5,0,0:0:0:0:
256,192,208467,1,0,0:0:0:0:
256,192,208580,1,0,0:0:0:0:
256,192,208807,5,8,0:0:0:0:
256,192,208921,5,0,0:0:0:0:
256,192,209148,1,0,0:0:0:0:
256,192,209376,1,0,0:0:0:0:
256,192,209489,1,0,0:0:0:0:
256,192,209603,5,8,0:0:0:0:
256,192,209717,1,8,0:0:0:0:
256,192,209830,5,0,0:0:0:0:
256,192,209944,5,8,0:0:0:0:
256,192,210057,1,8,0:0:0:0:
256,192,210285,1,8,0:0:0:0:
256,192,210398,1,8,0:0:0:0:
256,192,210512,5,0,0:0:0:0:
256,192,210739,1,0,0:0:0:0:
256,192,210853,5,8,0:0:0:0:
256,192,210967,5,0,0:0:0:0:
256,192,211080,1,0,0:0:0:0:
256,192,211194,5,8,0:0:0:0:
256,192,211307,1,8,0:0:0:0:
256,192,211421,5,0,0:0:0:0:
256,192,211648,1,0,0:0:0:0:
256,192,211876,5,8,0:0:0:0:
256,192,212103,1,8,0:0:0:0:
256,192,212217,1,8,0:0:0:0:
256,192,212330,5,0,0:0:0:0:
256,192,212557,1,0,0:0:0:0:
256,192,212785,1,0,0:0:0:0:
256,192,212898,5,8,0:0:0:0:
256,192,213126,1,8,0:0:0:0:
256,192,213239,1,8,0:0:0:0:
256,192,213467,1,8,0:0:0:0:
256,192,213580,1,8,0:0:0:0:
256,192,213694,5,0,0:0:0:0:
256,192,213921,1,0,0:0:0:0:
256,192,214035,5,8,0:0:0:0:
256,192,214148,1,8,0:0:0:0:
256,192,214262,5,0,0:0:0:0:
256,192,214376,1,0,0:0:0:0:
256,192,214489,5,8,0:0:0:0:
256,192,214603,5,0,0:0:0:0:
256,192,214830,1,0,0:0:0:0:
256,192,214944,1,0,0:0:0:0:
256,192,215057,5,8,0:0:0:0:
256,192,215285,5,0,0:0:0:0:
256,192,215512,5,8,0:0:0:0:
256,192,215739,5,0,0:0:0:0:
256,192,215853,1,0,0:0:0:0:
256,192,215967,5,8,0:0:0:0:
256,192,216080,1,8,0:0:0:0:
256,192,216194,5,0,0:0:0:0:
256,192,216421,1,0,0:0:0:0:
256,192,216648,1,0,0:0:0:0:
256,192,216762,5,8,0:0:0:0:
256,192,216989,1,8,0:0:0:0:
256,192,217103,5,0,0:0:0:0:
256,192,217330,1,0,0:0:0:0:
256,192,217557,1,0,0:0:0:0:
256,192,217671,1,0,0:0:0:0:
256,192,217785,5,8,0:0:0:0:
256,192,217898,5,0,0:0:0:0:
256,192,218012,1,0,0:0:0:0:
256,192,218239,1,4,0:0:0:0:
256,192,218467,1,0,0:0:0:0:
256,192,218580,1,0,0:0:0:0:
256,192,218694,5,8,0:0:0:0:
256,192,218921,5,0,0:0:0:0:
256,192,219035,5,8,0:0:0:0:
256,192,219148,1,8,0:0:0:0:
256,192,219376,1,8,0:0:0:0:
256,192,219489,1,8,0:0:0:0:
256,192,219603,5,0,0:0:0:0:
256,192,219830,1,0,0:0:0:0:
256,192,220057,1,0,0:0:0:0:
256,192,220171,5,8,0:0:0:0:
256,192,220285,5,0,0:0:0:0:
256,192,220398,1,0,0:0:0:0:
256,192,220512,1,0,0:0:0:0:
256,192,220626,5,8,0:0:0:0:
256,192,220739,5,0,0:0:0:0:
256,192,220967,1,0,0:0:0:0:
256,192,221194,1,0,0:0:0:0:
256,192,221307,5,8,0:0:0:0:
256,192,221421,1,8,0:0:0:0:
256,192,221535,5,0,0:0:0:0:
256,192,221762,1,0,0:0:0:0:
256,192,221876,5,8,0:0:0:0:
256,192,222103,1,8,0:0:0:0:
256,192,222217,1,8,0:0:0:0:
256,192,222330,5,0,0:0:0:0:
256,192,222557,1,0,0:0:0:0:
256,192,222785,1,0,0:0:0:0:
256,192,222898,5,8,0:0:0:0:
256,192,223012,5,0,0:0:0:0:
256,192,223239,1,0,0:0:0:0:
256,192,223467,1,0,0:0:0:0:
256,192,223580,1,0,0:0:0:0:
256,192,223694,1,0,0:0:0:0:
256,192,223807,5,8,0:0:0:0:
256,192,223921,5,0,0:0:0:0:
256,192,224148,1,0,0:0:0:0:
256,192,224376,1,0,0:0:0:0:
256,192,224489,5,8,0:0:0:0:
256,192,224603,1,8,0:0:0:0:
256,192,224717,1,8,0:0:0:0:
256,192,224830,5,0,0:0:0:0:
256,192,224944,1,0,0:0:0:0:
256,192,225057,5,8,0:0:0:0:
256,192,225285,1,8,0:0:0:0:
256,192,225512,1,8,0:0:0:0:
256,192,225739,5,0,0:0:0:0:
256,192,225967,1,0,0:0:0:0:
256,192,226194,5,8,0:0:0:0:
256,192,226421,5,0,0:0:0:0:
256,192,226648,1,0,0:0:0:0:
256,192,226876,5,8,0:0:0:0:
256,192,227103,5,0,0:0:0:0:
256,192,227330,5,8,0:0:0:0:
256,192,227557,5,0,0:0:0:0:
256,192,227785,1,0,0:0:0:0:
256,192,228012,5,8,0:0:0:0:
256,192,228239,5,0,0:0:0:0:
256,192,228467,1,0,0:0:0:0:
256,192,228694,5,8,0:0:0:0:
256,192,228921,5,0,0:0:0:0:
256,192,229148,1,0,0:0:0:0:
256,192,229376,5,8,0:0:0:0:
256,192,229603,1,8,0:0:0:0:
256,192,229830,5,0,0:0:0:0:
256,192,230057,5,8,0:0:0:0:
256,192,230285,1,8,0:0:0:0:
256,192,230512,5,0,0:0:0:0:
256,192,230739,5,8,0:0:0:0:
256,192,230967,5,0,0:0:0:0:
256,192,231194,5,8,0:0:0:0:
256,192,231421,1,8,0:0:0:0:
256,192,231648,5,0,0:0:0:0:
256,192,231876,5,8,0:0:0:0:
256,192,232103,1,8,0:0:0:0:
256,192,232330,5,0,0:0:0:0:
256,192,232557,5,8,0:0:0:0:
256,192,232785,5,4,0:0:0:0:
256,192,233012,12,0,234603,0:0:0:0:
256,192,234830,5,0,0:0:0:0:
256,192,234906,1,0,0:0:0:0:
256,192,234982,1,0,0:0:0:0:
256,192,235057,1,0,0:0:0:0:
