osu file format v12

[General]
AudioFilename: Anjuu2000.mp3
AudioLeadIn: 0
PreviewTime: 14603
Countdown: 0
SampleSet: Normal
StackLeniency: 0.7
Mode: 1
LetterboxInBreaks: 0

[Editor]
Bookmarks: 14555,181820
DistanceSpacing: 0.1
BeatDivisor: 1
GridSize: 32

[Metadata]
Title:Anjuu
TitleUnicode:Anjuu
Artist:Melyceria&Disease
ArtistUnicode:Melyceria&Disease
Creator:_Gezo_
Version:Oni
Source:
Tags:Taiko Vangel Gezoda Original Psychedelic Beats
BeatmapID:179415
BeatmapSetID:54121

[Difficulty]
HPDrainRate:5
CircleSize:5
OverallDifficulty:5
ApproachRate:5
SliderMultiplier:1.4
SliderTickRate:1

[Events]
//Background and Video events
0,0,"BG.jpg",0,0
//Break Periods
//Storyboard Layer 0 (Background)
//Storyboard Layer 1 (Fail)
//Storyboard Layer 2 (Pass)
//Storyboard Layer 3 (Foreground)
//Storyboard Sound Samples
//Background Colour Transformations
3,100,163,162,255

[TimingPoints]
58,454.545454545455,4,1,0,80,1,0
14603,-100,4,1,0,80,0,1
29148,-100,4,1,0,80,0,0
87330,-100,4,1,0,80,0,1
145512,-100,4,1,0,80,0,0
174603,-100,4,1,0,80,0,1
203694,-100,4,1,0,80,0,0
232785,-83.3333333333333,4,1,0,80,0,0

[Colours]
Combo1 : 0,0,255
Combo2 : 255,0,0

[HitObjects]
256,192,7330,5,0,0:0:0:0:
256,192,7558,1,0,0:0:0:0:
256,192,7671,1,0,0:0:0:0:
256,192,7785,1,0,0:0:0:0:
256,192,8012,5,8,0:0:0:0:
256,192,8239,5,0,0:0:0:0:
256,192,8467,1,0,0:0:0:0:
256,192,8580,1,0,0:0:0:0:
256,192,8694,5,8,0:0:0:0:
256,192,8921,1,8,0:0:0:0:
256,192,9148,5,0,0:0:0:0:
256,192,9262,1,0,0:0:0:0:
256,192,9376,1,0,0:0:0:0:
256,192,9603,1,0,0:0:0:0:
256,192,9830,5,8,0:0:0:0:
256,192,10058,5,0,0:0:0:0:
256,192,10171,1,0,0:0:0:0:
256,192,10285,1,0,0:0:0:0:
256,192,10512,5,8,0:0:0:0:
256,192,10739,1,8,0:0:0:0:
256,192,10967,5,0,0:0:0:0:
256,192,11080,1,0,0:0:0:0:
256,192,11194,1,0,0:0:0:0:
256,192,11421,5,8,0:0:0:0:
256,192,11648,5,0,0:0:0:0:
256,192,11762,1,0,0:0:0:0:
256,192,11876,1,0,0:0:0:0:
256,192,12103,1,0,0:0:0:0:
256,192,12330,5,8,0:0:0:0:
256,192,12444,1,8,0:0:0:0:
256,192,12558,1,8,0:0:0:0:
256,192,12785,5,0,0:0:0:0:
256,192,13012,1,0,0:0:0:0:
256,192,13126,1,0,0:0:0:0:
256,192,13239,1,0,0:0:0:0:
256,192,13467,5,8,0:0:0:0:
256,192,13694,5,0,0:0:0:0:
256,192,13808,1,0,0:0:0:0:
256,192,13921,1,0,0:0:0:0:
256,192,14148,5,8,0:0:0:0:
256,192,14376,1,8,0:0:0:0:
256,192,14603,5,4,0:0:0:0:
256,192,14944,1,4,0:0:0:0:
256,192,15285,1,4,0:0:0:0:
256,192,15626,1,4,0:0:0:0:
256,192,15967,5,12,0:0:0:0:
256,192,16421,5,4,0:0:0:0:
256,192,16762,5,12,0:0:0:0:
256,192,17103,1,12,0:0:0:0:
256,192,17444,1,12,0:0:0:0:
256,192,17785,1,12,0:0:0:0:
256,192,18239,5,4,0:0:0:0:
256,192,18580,1,4,0:0:0:0:
256,192,18921,5,12,0:0:0:0:
256,192,19262,1,12,0:0:0:0:
256,192,19603,1,12,0:0:0:0:
256,192,20058,5,4,0:0:0:0:
256,192,20398,5,12,0:0:0:0:
256,192,20739,1,12,0:0:0:0:
256,192,21080,5,4,0:0:0:0:
256,192,21421,5,12,0:0:0:0:
256,192,21876,5,4,0:0:0:0:
256,192,22217,1,4,0:0:0:0:
256,192,22558,1,4,0:0:0:0:
256,192,22898,1,4,0:0:0:0:
256,192,23239,5,12,0:0:0:0:
256,192,23694,5,4,0:0:0:0:
256,192,24035,5,12,0:0:0:0:
256,192,24376,1,12,0:0:0:0:
256,192,24717,1,12,0:0:0:0:
256,192,25058,1,12,0:0:0:0:
256,192,25512,5,4,0:0:0:0:
256,192,25853,1,4,0:0:0:0:
256,192,26194,5,12,0:0:0:0:
256,192,26535,1,12,0:0:0:0:
256,192,26876,1,12,0:0:0:0:
256,192,27330,5,4,0:0:0:0:
256,192,27671,5,12,0:0:0:0:
256,192,28012,1,12,0:0:0:0:
256,192,28353,5,4,0:0:0:0:
256,192,28694,5,12,0:0:0:0:
256,192,28921,1,8,0:0:0:0:
256,192,29148,5,4,0:0:0:0:
256,192,29376,1,0,0:0:0:0:
256,192,29603,5,8,0:0:0:0:
256,192,29830,5,0,0:0:0:0:
256,192,29944,1,0,0:0:0:0:
256,192,30058,1,0,0:0:0:0:
256,192,30285,1,0,0:0:0:0:
256,192,30512,5,8,0:0:0:0:
256,192,30967,5,0,0:0:0:0:
256,192,31421,5,8,0:0:0:0:
256,192,31648,5,0,0:0:0:0:
256,192,31762,1,0,0:0:0:0:
256,192,31876,1,0,0:0:0:0:
256,192,32103,1,0,0:0:0:0:
256,192,32330,5,8,0:0:0:0:
256,192,32785,5,0,0:0:0:0:
256,192,32898,1,0,0:0:0:0:
256,192,33126,1,0,0:0:0:0:
256,192,33239,5,8,0:0:0:0:
256,192,33694,5,0,0:0:0:0:
256,192,33808,1,0,0:0:0:0:
256,192,34035,1,0,0:0:0:0:
256,192,34148,5,8,0:0:0:0:
248,191,34376,1,8,0:0:0:0:
256,192,34603,1,8,0:0:0:0:
256,192,34717,5,0,0:0:0:0:
256,192,34944,1,0,0:0:0:0:
256,192,35058,5,8,0:0:0:0:
256,192,35512,1,8,0:0:0:0:
256,192,35626,1,8,0:0:0:0:
256,192,35853,1,8,0:0:0:0:
256,192,35967,5,0,0:0:0:0:
256,192,36194,1,0,0:0:0:0:
256,192,36421,5,8,0:0:0:0:
256,192,36648,5,0,0:0:0:0:
256,192,36876,5,8,0:0:0:0:
256,192,37103,5,0,0:0:0:0:
256,192,37217,1,0,0:0:0:0:
256,192,37330,1,0,0:0:0:0:
256,192,37557,1,0,0:0:0:0:
256,192,37785,5,8,0:0:0:0:
256,192,38239,1,8,0:0:0:0:
256,192,38353,1,8,0:0:0:0:
256,192,38467,1,8,0:0:0:0:
256,192,38694,5,0,0:0:0:0:
256,192,39148,1,0,0:0:0:0:
256,192,39376,1,0,0:0:0:0:
256,192,39603,5,8,0:0:0:0:
256,192,40057,5,0,0:0:0:0:
256,192,40285,1,0,0:0:0:0:
256,192,40512,5,8,0:0:0:0:
256,192,40739,5,0,0:0:0:0:
256,192,40853,1,0,0:0:0:0:
256,192,40967,1,0,0:0:0:0:
256,192,41194,1,0,0:0:0:0:
256,192,41421,5,8,0:0:0:0:
256,192,41876,1,8,0:0:0:0:
256,192,42103,1,8,0:0:0:0:
256,192,42330,5,0,0:0:0:0:
256,192,42557,1,0,0:0:0:0:
249,191,42785,1,0,0:0:0:0:
256,192,43012,1,0,0:0:0:0:
256,192,43239,5,8,0:0:0:0:
256,192,43467,5,0,0:0:0:0:
256,192,43694,1,4,0:0:0:0:
256,192,43921,1,0,0:0:0:0:
256,192,44148,5,8,0:0:0:0:
256,192,44489,5,0,0:0:0:0:
256,192,44603,1,0,0:0:0:0:
256,192,44830,1,0,0:0:0:0:
256,192,44944,1,0,0:0:0:0:
256,192,45057,5,8,0:0:0:0:
256,192,45512,5,0,0:0:0:0:
256,192,45739,1,0,0:0:0:0:
256,192,45967,5,8,0:0:0:0:
256,192,46194,5,0,0:0:0:0:
256,192,46307,1,0,0:0:0:0:
256,192,46421,1,0,0:0:0:0:
256,192,46648,1,0,0:0:0:0:
256,192,46762,5,8,0:0:0:0:
256,192,46876,1,8,0:0:0:0:
256,192,47330,5,0,0:0:0:0:
256,192,47785,5,8,0:0:0:0:
256,192,48012,5,0,0:0:0:0:
256,192,48126,1,0,0:0:0:0:
256,192,48239,1,0,0:0:0:0:
256,192,48467,1,0,0:0:0:0:
256,192,48694,5,8,0:0:0:0:
256,192,49148,5,0,0:0:0:0:
256,192,49376,5,8,0:0:0:0:
256,192,49603,1,8,0:0:0:0:
256,192,49830,5,0,0:0:0:0:
256,192,50057,5,8,0:0:0:0:
256,192,50285,1,8,0:0:0:0:
256,192,50512,1,8,0:0:0:0:
256,192,50967,5,0,0:0:0:0:
256,192,51194,5,8,0:0:0:0:
256,192,51421,5,0,0:0:0:0:
256,192,51648,1,0,0:0:0:0:
256,192,51762,1,0,0:0:0:0:
256,192,51876,1,0,0:0:0:0:
256,192,52103,5,8,0:0:0:0:
256,192,52330,5,0,0:0:0:0:
256,192,52785,1,0,0:0:0:0:
256,192,53012,1,0,0:0:0:0:
256,192,53239,5,8,0:0:0:0:
256,192,53467,5,0,0:0:0:0:
256,192,53580,1,0,0:0:0:0:
256,192,53694,1,0,0:0:0:0:
256,192,53921,1,0,0:0:0:0:
256,192,54148,5,8,0:0:0:0:
256,192,54603,5,0,0:0:0:0:
256,192,54717,1,0,0:0:0:0:
256,192,54830,1,0,0:0:0:0:
256,192,55057,5,8,0:0:0:0:
256,192,55285,5,0,0:0:0:0:
256,192,55512,1,0,0:0:0:0:
256,192,55626,1,0,0:0:0:0:
256,192,55739,5,8,0:0:0:0:
256,192,55967,1,8,0:0:0:0:
256,192,56421,5,0,0:0:0:0:
256,192,56648,5,8,0:0:0:0:
256,192,56876,5,0,0:0:0:0:
256,192,57103,5,8,0:0:0:0:
256,192,57330,5,0,0:0:0:0:
256,192,57557,1,0,0:0:0:0:
256,192,57785,5,8,0:0:0:0:
256,192,58239,5,4,0:0:0:0:
256,192,58467,1,0,0:0:0:0:
256,192,58694,5,8,0:0:0:0:
256,192,58921,5,0,0:0:0:0:
256,192,59148,1,0,0:0:0:0:
256,192,59376,5,8,0:0:0:0:
256,192,59603,1,8,0:0:0:0:
256,192,60057,5,0,0:0:0:0:
256,192,60285,1,0,0:0:0:0:
256,192,60512,1,0,0:0:0:0:
256,192,60626,1,0,0:0:0:0:
256,192,60739,1,0,0:0:0:0:
256,192,60967,5,8,0:0:0:0:
256,192,61194,5,0,0:0:0:0:
256,192,61648,1,0,0:0:0:0:
256,192,61876,5,8,0:0:0:0:
256,192,62103,5,0,0:0:0:0:
256,192,62217,1,0,0:0:0:0:
256,192,62330,1,0,0:0:0:0:
256,192,62557,5,8,0:0:0:0:
256,192,62785,1,8,0:0:0:0:
256,192,63012,1,8,0:0:0:0:
256,192,63467,1,8,0:0:0:0:
224,192,63694,5,0,0:0:0:0:
224,192,63921,1,0,0:0:0:0:
224,192,64035,1,0,0:0:0:0:
224,192,64148,1,0,0:0:0:0:
224,192,64376,5,8,0:0:0:0:
224,192,64603,1,8,0:0:0:0:
224,192,64830,5,0,0:0:0:0:
224,192,65057,1,0,0:0:0:0:
224,192,65285,5,8,0:0:0:0:
224,192,65512,1,8,0:0:0:0:
224,192,65739,5,0,0:0:0:0:
224,192,65967,5,8,0:0:0:0:
224,192,66194,5,0,0:0:0:0:
224,192,66421,5,8,0:0:0:0:
224,192,66876,1,8,0:0:0:0:
192,160,67330,5,0,0:0:0:0:
192,160,67785,5,8,0:0:0:0:
192,160,68012,5,0,0:0:0:0:
192,160,68239,5,8,0:0:0:0:
192,160,68353,1,8,0:0:0:0:
192,160,68467,1,8,0:0:0:0:
192,160,68694,5,0,0:0:0:0:
192,160,69148,1,0,0:0:0:0:
192,160,69376,5,8,0:0:0:0:
192,160,69603,1,8,0:0:0:0:
192,160,69830,5,0,0:0:0:0:
192,160,70057,5,8,0:0:0:0:
192,160,70171,1,8,0:0:0:0:
192,160,70285,1,8,0:0:0:0:
192,160,70512,1,8,0:0:0:0:
192,160,70967,5,0,0:0:0:0:
192,160,71194,5,8,0:0:0:0:
192,160,71421,5,0,0:0:0:0:
192,160,71535,1,0,0:0:0:0:
192,160,71648,1,0,0:0:0:0:
192,160,71876,1,0,0:0:0:0:
192,160,72103,5,8,0:0:0:0:
192,160,72557,1,8,0:0:0:0:
192,160,72785,5,4,0:0:0:0:
192,160,73239,5,8,0:0:0:0:
192,160,73694,5,0,0:0:0:0:
192,160,73921,1,0,0:0:0:0:
192,160,74148,1,0,0:0:0:0:
192,160,74262,1,0,0:0:0:0:
192,160,74376,1,0,0:0:0:0:
192,160,74603,5,8,0:0:0:0:
192,160,74830,5,0,0:0:0:0:
192,160,75057,1,0,0:0:0:0:
192,160,75171,1,0,0:0:0:0:
192,160,75285,1,0,0:0:0:0:
192,160,75512,1,0,0:0:0:0:
192,160,75739,5,8,0:0:0:0:
192,160,76194,1,8,0:0:0:0:
192,160,76421,5,0,0:0:0:0:
192,160,76648,1,0,0:0:0:0:
192,160,76762,1,0,0:0:0:0:
192,160,76876,1,0,0:0:0:0:
192,160,77103,5,8,0:0:0:0:
192,160,77330,1,8,0:0:0:0:
192,160,77557,5,0,0:0:0:0:
192,160,78012,1,0,0:0:0:0:
192,160,78239,5,8,0:0:0:0:
192,160,78467,5,0,0:0:0:0:
192,160,78580,1,0,0:0:0:0:
192,160,78694,1,0,0:0:0:0:
192,160,78921,5,8,0:0:0:0:
192,160,79148,5,0,0:0:0:0:
192,160,79376,5,8,0:0:0:0:
192,160,79830,1,8,0:0:0:0:
192,160,80057,5,0,0:0:0:0:
192,160,80171,1,0,0:0:0:0:
192,160,80285,1,0,0:0:0:0:
192,160,80512,1,0,0:0:0:0:
192,160,80626,1,0,0:0:0:0:
192,160,80739,5,8,0:0:0:0:
192,160,80967,1,8,0:0:0:0:
192,160,81194,5,0,0:0:0:0:
192,160,81648,5,8,0:0:0:0:
192,160,81762,1,8,0:0:0:0:
192,160,81876,1,8,0:0:0:0:
192,160,82103,5,0,0:0:0:0:
192,160,82217,1,0,0:0:0:0:
192,160,82330,1,0,0:0:0:0:
192,160,82557,1,0,0:0:0:0:
192,160,82785,5,8,0:0:0:0:
192,160,83012,1,8,0:0:0:0:
192,160,83467,5,0,0:0:0:0:
192,160,83580,1,0,0:0:0:0:
192,160,83694,1,0,0:0:0:0:
192,160,83921,1,0,0:0:0:0:
192,160,84148,5,8,0:0:0:0:
192,160,84376,1,8,0:0:0:0:
192,160,84603,5,0,0:0:0:0:
192,160,84830,1,0,0:0:0:0:
192,160,85285,1,0,0:0:0:0:
192,160,85398,1,0,0:0:0:0:
192,160,85512,1,0,0:0:0:0:
192,160,85739,5,8,0:0:0:0:
192,160,85853,1,8,0:0:0:0:
192,160,85967,1,8,0:0:0:0:
192,160,86194,5,0,0:0:0:0:
192,160,86421,1,0,0:0:0:0:
192,160,86648,5,8,0:0:0:0:
192,160,86876,5,0,0:0:0:0:
192,160,87103,5,8,0:0:0:0:
256,192,87330,5,4,0:0:0:0:
256,192,87671,1,4,0:0:0:0:
256,192,88012,1,4,0:0:0:0:
256,192,88353,1,4,0:0:0:0:
256,192,88694,5,12,0:0:0:0:
256,192,89148,5,4,0:0:0:0:
256,192,89489,5,12,0:0:0:0:
256,192,89830,1,12,0:0:0:0:
256,192,90171,1,12,0:0:0:0:
256,192,90512,1,12,0:0:0:0:
256,192,90967,5,4,0:0:0:0:
256,192,91308,1,4,0:0:0:0:
256,192,91648,5,12,0:0:0:0:
256,192,91989,1,12,0:0:0:0:
256,192,92330,1,12,0:0:0:0:
256,192,92785,5,4,0:0:0:0:
256,192,93126,5,12,0:0:0:0:
256,192,93467,1,12,0:0:0:0:
256,192,93808,5,4,0:0:0:0:
256,192,94148,5,12,0:0:0:0:
256,192,94603,5,4,0:0:0:0:
256,192,94944,1,4,0:0:0:0:
256,192,95285,1,4,0:0:0:0:
256,192,95626,1,4,0:0:0:0:
256,192,95967,5,12,0:0:0:0:
256,192,96421,5,4,0:0:0:0:
256,192,96762,5,12,0:0:0:0:
256,192,97103,1,12,0:0:0:0:
256,192,97444,1,12,0:0:0:0:
256,192,97785,1,12,0:0:0:0:
256,192,98239,5,4,0:0:0:0:
256,192,98580,1,4,0:0:0:0:
256,192,98921,5,12,0:0:0:0:
256,192,99262,1,12,0:0:0:0:
256,192,99603,1,12,0:0:0:0:
256,192,100058,5,4,0:0:0:0:
256,192,100398,5,12,0:0:0:0:
256,192,100739,1,12,0:0:0:0:
256,192,101080,5,4,0:0:0:0:
256,192,101421,5,12,0:0:0:0:
256,192,101648,1,8,0:0:0:0:
256,192,101876,5,4,0:0:0:0:
192,160,102103,1,0,0:0:0:0:
192,160,102217,1,0,0:0:0:0:
192,160,102330,1,0,0:0:0:0:
192,160,102558,5,8,0:0:0:0:
192,160,102785,1,8,0:0:0:0:
192,160,103239,1,8,0:0:0:0:
192,160,103694,5,0,0:0:0:0:
192,160,103808,1,0,0:0:0:0:
192,160,104035,1,0,0:0:0:0:
192,160,104148,1,0,0:0:0:0:
192,160,104376,1,0,0:0:0:0:
192,160,104603,1,0,0:0:0:0:
192,160,105058,5,8,0:0:0:0:
192,160,105512,5,0,0:0:0:0:
192,160,105626,1,0,0:0:0:0:
192,160,105853,1,0,0:0:0:0:
192,160,105967,1,0,0:0:0:0:
192,160,106194,5,8,0:0:0:0:
192,160,106421,1,8,0:0:0:0:
192,160,106648,5,0,0:0:0:0:
192,160,106876,1,0,0:0:0:0:
192,160,107330,5,8,0:0:0:0:
192,160,107444,1,8,0:0:0:0:
192,160,107558,1,8,0:0:0:0:
192,160,107785,5,0,0:0:0:0:
192,160,108012,1,0,0:0:0:0:
192,160,108126,1,0,0:0:0:0:
192,160,108239,5,8,0:0:0:0:
192,160,108467,1,8,0:0:0:0:
192,160,108694,5,0,0:0:0:0:
192,160,109148,1,0,0:0:0:0:
192,160,109376,5,8,0:0:0:0:
192,160,109603,1,8,0:0:0:0:
192,160,109830,5,0,0:0:0:0:
192,160,110058,5,8,0:0:0:0:
192,160,110285,1,8,0:0:0:0:
192,160,110512,5,0,0:0:0:0:
192,160,110967,1,0,0:0:0:0:
192,160,111194,1,0,0:0:0:0:
192,160,111308,1,0,0:0:0:0:
192,160,111421,1,0,0:0:0:0:
192,160,111648,1,0,0:0:0:0:
192,160,111876,5,8,0:0:0:0:
192,160,112103,1,8,0:0:0:0:
192,160,112330,1,8,0:0:0:0:
192,160,112785,5,0,0:0:0:0:
192,160,113239,5,8,0:0:0:0:
192,160,113467,5,0,0:0:0:0:
192,160,113694,1,0,0:0:0:0:
192,160,114148,5,8,0:0:0:0:
192,160,114376,5,0,0:0:0:0:
192,160,114489,1,0,0:0:0:0:
192,160,114603,1,0,0:0:0:0:
192,160,114830,5,8,0:0:0:0:
192,160,115058,1,8,0:0:0:0:
192,160,115285,5,0,0:0:0:0:
192,160,115512,1,0,0:0:0:0:
192,160,115739,5,8,0:0:0:0:
192,160,115967,1,8,0:0:0:0:
192,160,116194,1,8,0:0:0:0:
192,160,116421,5,4,0:0:0:0:
192,160,116648,1,0,0:0:0:0:
192,160,116762,1,0,0:0:0:0:
192,160,116876,1,0,0:0:0:0:
192,160,117217,1,0,0:0:0:0:
192,160,117558,5,8,0:0:0:0:
192,160,117785,5,0,0:0:0:0:
192,160,118239,5,8,0:0:0:0:
192,160,118467,5,0,0:0:0:0:
192,160,118580,1,0,0:0:0:0:
192,160,118694,1,0,0:0:0:0:
192,160,119035,5,8,0:0:0:0:
192,160,119376,1,8,0:0:0:0:
192,160,119603,5,0,0:0:0:0:
192,160,120058,1,0,0:0:0:0:
192,160,120285,5,8,0:0:0:0:
192,160,120512,1,8,0:0:0:0:
192,160,120739,5,0,0:0:0:0:
192,160,120853,1,0,0:0:0:0:
192,160,120967,1,0,0:0:0:0:
192,160,121194,5,8,0:0:0:0:
192,160,121421,1,8,0:0:0:0:
192,160,121876,1,8,0:0:0:0:
192,160,122103,5,0,0:0:0:0:
192,160,122330,5,8,0:0:0:0:
192,160,122444,1,8,0:0:0:0:
192,160,122558,1,8,0:0:0:0:
192,160,122785,5,0,0:0:0:0:
192,160,123012,5,8,0:0:0:0:
192,160,123467,1,8,0:0:0:0:
192,160,123694,5,0,0:0:0:0:
192,160,123921,1,0,0:0:0:0:
192,160,124148,5,8,0:0:0:0:
192,160,124376,5,0,0:0:0:0:
192,160,124489,1,0,0:0:0:0:
192,160,124603,1,0,0:0:0:0:
192,160,124830,5,8,0:0:0:0:
192,160,125058,1,8,0:0:0:0:
192,160,125512,5,0,0:0:0:0:
192,160,125739,5,8,0:0:0:0:
192,160,125967,5,0,0:0:0:0:
192,160,126080,1,0,0:0:0:0:
192,160,126194,1,0,0:0:0:0:
192,160,126421,5,8,0:0:0:0:
192,160,126648,5,0,0:0:0:0:
192,160,127103,1,0,0:0:0:0:
192,160,127330,5,8,0:0:0:0:
192,160,127558,5,0,0:0:0:0:
192,160,127671,1,0,0:0:0:0:
192,160,127785,1,0,0:0:0:0:
192,160,128012,5,8,0:0:0:0:
192,160,128239,5,0,0:0:0:0:
192,160,128467,5,8,0:0:0:0:
192,160,128694,5,0,0:0:0:0:
192,160,129148,1,0,0:0:0:0:
192,160,129376,5,8,0:0:0:0:
192,160,129603,5,0,0:0:0:0:
192,160,129717,1,0,0:0:0:0:
192,160,129830,1,0,0:0:0:0:
192,160,130058,5,8,0:0:0:0:
192,160,130285,1,8,0:0:0:0:
192,160,130739,1,8,0:0:0:0:
192,160,130967,5,4,0:0:0:0:
192,160,131194,1,0,0:0:0:0:
192,160,131421,5,8,0:0:0:0:
192,160,131648,5,0,0:0:0:0:
192,160,131762,1,0,0:0:0:0:
192,160,131876,1,0,0:0:0:0:
192,160,132103,1,0,0:0:0:0:
192,160,132330,5,8,0:0:0:0:
192,160,132785,1,8,0:0:0:0:
192,160,132898,1,8,0:0:0:0:
192,160,133126,1,8,0:0:0:0:
192,160,133239,5,0,0:0:0:0:
192,160,133467,5,8,0:0:0:0:
192,160,133694,5,0,0:0:0:0:
192,160,133921,1,0,0:0:0:0:
192,160,134035,1,0,0:0:0:0:
192,160,134148,1,0,0:0:0:0:
192,160,134603,1,0,0:0:0:0:
192,160,134717,1,0,0:0:0:0:
192,160,134830,1,0,0:0:0:0:
192,160,135058,5,8,0:0:0:0:
192,160,135285,5,0,0:0:0:0:
192,160,135398,1,0,0:0:0:0:
192,160,135512,1,0,0:0:0:0:
192,160,135626,1,0,0:0:0:0:
192,160,135739,1,0,0:0:0:0:
192,160,135967,5,8,0:0:0:0:
192,160,136421,1,8,0:0:0:0:
192,160,136535,1,8,0:0:0:0:
192,160,136648,1,8,0:0:0:0:
192,160,136876,5,0,0:0:0:0:
192,160,137103,1,0,0:0:0:0:
192,160,137330,5,8,0:0:0:0:
192,160,137444,1,8,0:0:0:0:
192,160,137558,1,8,0:0:0:0:
192,160,137785,5,0,0:0:0:0:
192,160,138012,1,0,0:0:0:0:
192,160,138239,1,0,0:0:0:0:
192,160,138694,5,8,0:0:0:0:
192,160,139148,5,0,0:0:0:0:
192,160,139376,1,0,0:0:0:0:
192,160,139603,5,8,0:0:0:0:
192,160,140058,5,0,0:0:0:0:
192,160,140285,1,0,0:0:0:0:
192,160,140512,5,8,0:0:0:0:
192,160,140739,5,0,0:0:0:0:
192,160,140853,1,0,0:0:0:0:
192,160,140967,1,0,0:0:0:0:
192,160,141194,5,8,0:0:0:0:
192,160,141421,1,8,0:0:0:0:
192,160,141876,5,0,0:0:0:0:
192,160,142103,1,0,0:0:0:0:
192,160,142330,5,8,0:0:0:0:
192,160,142558,5,0,0:0:0:0:
192,160,142671,1,0,0:0:0:0:
192,160,142785,1,0,0:0:0:0:
192,160,143012,5,8,0:0:0:0:
192,160,143239,5,0,0:0:0:0:
192,160,143694,1,0,0:0:0:0:
192,160,143921,1,0,0:0:0:0:
192,160,144148,5,8,0:0:0:0:
192,160,144376,5,0,0:0:0:0:
192,160,144489,1,0,0:0:0:0:
192,160,144603,5,8,0:0:0:0:
192,160,144830,1,8,0:0:0:0:
192,160,145058,5,0,0:0:0:0:
192,160,145512,1,4,0:0:0:0:
192,160,145967,1,0,0:0:0:0:
192,160,146194,5,8,0:0:0:0:
192,160,146421,5,0,0:0:0:0:
192,160,146535,1,0,0:0:0:0:
192,160,146648,1,0,0:0:0:0:
192,160,146876,5,8,0:0:0:0:
192,160,147330,1,8,0:0:0:0:
192,160,147785,5,0,0:0:0:0:
192,160,147898,1,0,0:0:0:0:
192,160,148012,1,0,0:0:0:0:
192,160,148467,1,0,0:0:0:0:
192,160,148694,5,8,0:0:0:0:
192,160,149148,5,0,0:0:0:0:
192,160,149376,5,8,0:0:0:0:
192,160,149489,1,8,0:0:0:0:
192,160,149603,1,8,0:0:0:0:
192,160,149830,5,0,0:0:0:0:
192,160,149944,1,0,0:0:0:0:
192,160,150057,1,0,0:0:0:0:
192,160,150285,5,8,0:0:0:0:
192,160,150739,5,0,0:0:0:0:
192,160,150967,5,8,0:0:0:0:
192,160,151194,5,0,0:0:0:0:
192,160,151307,1,0,0:0:0:0:
192,160,151421,1,0,0:0:0:0:
192,160,151648,5,8,0:0:0:0:
192,160,151876,5,0,0:0:0:0:
192,160,152103,1,0,0:0:0:0:
192,160,152330,5,8,0:0:0:0:
192,160,152785,1,8,0:0:0:0:
192,160,153239,5,0,0:0:0:0:
192,160,153467,5,8,0:0:0:0:
192,160,153694,1,8,0:0:0:0:
192,160,153921,5,0,0:0:0:0:
192,160,154035,1,0,0:0:0:0:
192,160,154148,1,0,0:0:0:0:
192,160,154376,5,8,0:0:0:0:
192,160,154603,5,0,0:0:0:0:
192,160,155057,5,8,0:0:0:0:
192,160,155285,5,0,0:0:0:0:
192,160,155512,5,8,0:0:0:0:
192,160,155739,5,0,0:0:0:0:
192,160,155853,1,0,0:0:0:0:
192,160,155967,1,0,0:0:0:0:
192,160,156194,1,0,0:0:0:0:
192,160,156307,1,0,0:0:0:0:
192,160,156421,5,8,0:0:0:0:
192,160,156648,1,8,0:0:0:0:
192,160,156876,5,0,0:0:0:0:
192,160,157217,1,0,0:0:0:0:
192,160,157557,1,0,0:0:0:0:
192,160,157785,5,8,0:0:0:0:
192,160,158239,5,0,0:0:0:0:
192,160,158467,1,0,0:0:0:0:
192,160,158580,1,0,0:0:0:0:
192,160,158694,1,0,0:0:0:0:
192,160,158921,5,8,0:0:0:0:
192,160,159148,5,0,0:0:0:0:
192,160,159262,1,0,0:0:0:0:
192,160,159376,5,8,0:0:0:0:
192,160,159603,1,8,0:0:0:0:
192,160,159830,1,8,0:0:0:0:
192,160,160057,5,4,0:0:0:0:
192,160,160512,5,8,0:0:0:0:
192,160,160739,5,0,0:0:0:0:
192,160,160853,1,0,0:0:0:0:
192,160,160967,1,0,0:0:0:0:
192,160,161194,1,0,0:0:0:0:
192,160,161421,5,8,0:0:0:0:
192,160,161876,5,0,0:0:0:0:
192,160,162103,5,8,0:0:0:0:
192,160,162330,5,0,0:0:0:0:
192,160,162444,1,0,0:0:0:0:
192,160,162557,1,0,0:0:0:0:
192,160,162785,5,8,0:0:0:0:
192,160,163012,1,8,0:0:0:0:
192,160,163467,1,8,0:0:0:0:
192,160,163694,5,0,0:0:0:0:
192,160,163921,1,0,0:0:0:0:
192,160,164148,5,8,0:0:0:0:
192,160,164376,1,8,0:0:0:0:
192,160,164489,1,8,0:0:0:0:
192,160,164603,1,8,0:0:0:0:
192,160,164830,5,0,0:0:0:0:
192,160,165057,5,8,0:0:0:0:
192,160,165512,5,0,0:0:0:0:
192,160,165626,1,0,0:0:0:0:
192,160,165739,1,0,0:0:0:0:
192,160,165967,5,8,0:0:0:0:
192,160,166194,5,0,0:0:0:0:
192,160,166307,1,0,0:0:0:0:
192,160,166421,5,8,0:0:0:0:
192,160,166648,1,8,0:0:0:0:
192,160,166876,1,8,0:0:0:0:
192,160,166989,1,8,0:0:0:0:
192,160,167103,1,8,0:0:0:0:
192,160,167330,5,0,0:0:0:0:
192,160,167785,5,8,0:0:0:0:
192,160,168012,5,0,0:0:0:0:
192,160,168126,1,0,0:0:0:0:
192,160,168239,1,0,0:0:0:0:
192,160,168467,5,8,0:0:0:0:
192,160,168580,1,8,0:0:0:0:
192,160,168694,1,8,0:0:0:0:
192,160,168921,5,0,0:0:0:0:
192,160,169035,1,0,0:0:0:0:
192,160,169148,1,0,0:0:0:0:
192,160,169376,1,0,0:0:0:0:
192,160,169603,5,8,0:0:0:0:
192,160,170057,5,0,0:0:0:0:
192,160,170512,5,8,0:0:0:0:
192,160,170739,1,8,0:0:0:0:
192,160,170967,5,0,0:0:0:0:
192,160,171421,5,8,0:0:0:0:
192,160,171648,5,0,0:0:0:0:
192,160,171989,1,0,0:0:0:0:
192,160,172330,5,8,0:0:0:0:
192,160,172557,1,8,0:0:0:0:
192,160,172785,5,0,0:0:0:0:
192,160,173012,1,0,0:0:0:0:
192,160,173126,1,0,0:0:0:0:
192,160,173239,5,8,0:0:0:0:
192,160,173467,1,8,0:0:0:0:
192,160,173694,5,0,0:0:0:0:
192,160,173921,1,0,0:0:0:0:
192,160,174148,5,8,0:0:0:0:
256,192,174603,5,4,0:0:0:0:
256,192,174944,1,4,0:0:0:0:
256,192,175285,1,4,0:0:0:0:
256,192,175626,1,4,0:0:0:0:
256,192,175967,5,12,0:0:0:0:
256,192,176421,5,4,0:0:0:0:
256,192,176762,5,12,0:0:0:0:
256,192,177103,1,12,0:0:0:0:
256,192,177444,1,12,0:0:0:0:
256,192,177785,1,12,0:0:0:0:
256,192,178239,5,4,0:0:0:0:
256,192,178580,1,4,0:0:0:0:
256,192,178921,5,12,0:0:0:0:
256,192,179262,1,12,0:0:0:0:
256,192,179603,1,12,0:0:0:0:
256,192,180057,5,4,0:0:0:0:
256,192,180398,5,12,0:0:0:0:
256,192,180739,1,12,0:0:0:0:
256,192,181080,5,4,0:0:0:0:
256,192,181421,5,12,0:0:0:0:
256,192,181876,5,4,0:0:0:0:
256,192,182217,1,4,0:0:0:0:
256,192,182557,1,4,0:0:0:0:
256,192,182898,1,4,0:0:0:0:
256,192,183239,5,12,0:0:0:0:
256,192,183694,5,4,0:0:0:0:
256,192,184035,5,12,0:0:0:0:
256,192,184376,1,12,0:0:0:0:
256,192,184717,1,12,0:0:0:0:
256,192,185057,1,12,0:0:0:0:
256,192,185512,5,4,0:0:0:0:
256,192,185853,1,4,0:0:0:0:
256,192,186194,5,12,0:0:0:0:
256,192,186535,1,12,0:0:0:0:
256,192,186876,1,12,0:0:0:0:
256,192,187330,5,4,0:0:0:0:
256,192,187671,5,12,0:0:0:0:
256,192,188012,1,12,0:0:0:0:
256,192,188353,5,4,0:0:0:0:
256,192,188694,5,12,0:0:0:0:
256,192,188921,1,8,0:0:0:0:
256,192,189148,5,4,0:0:0:0:
256,192,189489,1,4,0:0:0:0:
256,192,189830,1,4,0:0:0:0:
256,192,190171,1,4,0:0:0:0:
256,192,190512,5,12,0:0:0:0:
256,192,190967,5,4,0:0:0:0:
256,192,191307,5,12,0:0:0:0:
256,192,191648,1,12,0:0:0:0:
256,192,191989,1,12,0:0:0:0:
256,192,192330,1,12,0:0:0:0:
256,192,192785,5,4,0:0:0:0:
256,192,193126,1,4,0:0:0:0:
256,192,193467,5,12,0:0:0:0:
256,192,193807,1,12,0:0:0:0:
256,192,194148,1,12,0:0:0:0:
256,192,194603,5,4,0:0:0:0:
256,192,194944,5,12,0:0:0:0:
256,192,195285,1,12,0:0:0:0:
256,192,195626,5,4,0:0:0:0:
256,192,195967,5,12,0:0:0:0:
256,192,196421,5,4,0:0:0:0:
256,192,196762,1,4,0:0:0:0:
256,192,197103,1,4,0:0:0:0:
256,192,197444,1,4,0:0:0:0:
256,192,197785,5,12,0:0:0:0:
256,192,198239,5,4,0:0:0:0:
256,192,198580,5,12,0:0:0:0:
256,192,198921,1,12,0:0:0:0:
256,192,199262,1,12,0:0:0:0:
256,192,199603,1,12,0:0:0:0:
256,192,200057,5,4,0:0:0:0:
256,192,200398,1,4,0:0:0:0:
256,192,200739,5,12,0:0:0:0:
256,192,201080,1,12,0:0:0:0:
256,192,201421,1,12,0:0:0:0:
256,192,201876,5,4,0:0:0:0:
256,192,202217,5,12,0:0:0:0:
256,192,202557,1,12,0:0:0:0:
256,192,202898,5,4,0:0:0:0:
256,192,203239,5,12,0:0:0:0:
256,192,203467,1,8,0:0:0:0:
256,192,203694,5,4,0:0:0:0:
192,160,203921,1,0,0:0:0:0:
192,160,204035,1,0,0:0:0:0:
192,160,204148,1,0,0:0:0:0:
192,160,204376,5,8,0:0:0:0:
192,160,204603,1,8,0:0:0:0:
192,160,204830,1,8,0:0:0:0:
192,160,205285,1,8,0:0:0:0:
192,160,205512,5,0,0:0:0:0:
192,160,205739,1,0,0:0:0:0:
192,160,205853,1,0,0:0:0:0:
192,160,205967,1,0,0:0:0:0:
192,160,206194,5,8,0:0:0:0:
192,160,206421,5,0,0:0:0:0:
192,160,206535,1,0,0:0:0:0:
192,160,206648,5,8,0:0:0:0:
192,160,206762,1,8,0:0:0:0:
192,160,206876,1,8,0:0:0:0:
192,160,207330,1,8,0:0:0:0:
192,160,207557,5,0,0:0:0:0:
192,160,207671,1,0,0:0:0:0:
192,160,207785,1,0,0:0:0:0:
192,160,208012,1,0,0:0:0:0:
192,160,208239,5,8,0:0:0:0:
192,160,208694,1,8,0:0:0:0:
192,160,209148,5,0,0:0:0:0:
192,160,209376,1,0,0:0:0:0:
192,160,209603,5,8,0:0:0:0:
192,160,209830,1,8,0:0:0:0:
192,160,210057,5,0,0:0:0:0:
192,160,210285,1,0,0:0:0:0:
192,160,210512,1,0,0:0:0:0:
192,160,210626,1,0,0:0:0:0:
192,160,210739,1,0,0:0:0:0:
192,160,210853,1,0,0:0:0:0:
192,160,210967,1,0,0:0:0:0:
192,160,211194,1,0,0:0:0:0:
192,160,211421,5,8,0:0:0:0:
192,160,211648,1,8,0:0:0:0:
192,160,211762,1,8,0:0:0:0:
192,160,211876,1,8,0:0:0:0:
192,160,212103,5,0,0:0:0:0:
192,160,212330,5,8,0:0:0:0:
192,160,212785,5,0,0:0:0:0:
192,160,213012,1,0,0:0:0:0:
192,160,213239,5,8,0:0:0:0:
192,160,213467,1,8,0:0:0:0:
192,160,213580,1,8,0:0:0:0:
192,160,213694,1,8,0:0:0:0:
192,160,213921,5,0,0:0:0:0:
192,160,214148,5,8,0:0:0:0:
192,160,214603,5,0,0:0:0:0:
192,160,214830,5,8,0:0:0:0:
192,160,215057,1,8,0:0:0:0:
192,160,215285,5,0,0:0:0:0:
192,160,215398,1,0,0:0:0:0:
192,160,215512,1,0,0:0:0:0:
192,160,215739,5,8,0:0:0:0:
192,160,215967,1,8,0:0:0:0:
192,160,216421,5,0,0:0:0:0:
192,160,216876,5,8,0:0:0:0:
192,160,217330,5,0,0:0:0:0:
192,160,217785,5,8,0:0:0:0:
192,160,218012,1,8,0:0:0:0:
192,160,218239,5,4,0:0:0:0:
192,160,218467,1,0,0:0:0:0:
192,160,218694,5,8,0:0:0:0:
192,160,218921,5,0,0:0:0:0:
192,160,219035,1,0,0:0:0:0:
192,160,219148,1,0,0:0:0:0:
192,160,219376,5,8,0:0:0:0:
192,160,219489,1,8,0:0:0:0:
192,160,219603,1,8,0:0:0:0:
192,160,220057,5,0,0:0:0:0:
192,160,220285,1,0,0:0:0:0:
192,160,220512,5,8,0:0:0:0:
192,160,220626,1,8,0:0:0:0:
192,160,220739,1,8,0:0:0:0:
192,160,220967,5,0,0:0:0:0:
192,160,221194,1,0,0:0:0:0:
192,160,221421,5,8,0:0:0:0:
192,160,221876,5,0,0:0:0:0:
192,160,221989,1,0,0:0:0:0:
192,160,222103,1,0,0:0:0:0:
192,160,222330,5,8,0:0:0:0:
192,160,222557,5,0,0:0:0:0:
192,160,222671,1,0,0:0:0:0:
192,160,222785,5,8,0:0:0:0:
192,160,223012,5,0,0:0:0:0:
192,160,223126,1,0,0:0:0:0:
192,160,223239,5,8,0:0:0:0:
192,160,223580,5,0,0:0:0:0:
192,160,223694,1,0,0:0:0:0:
192,160,223921,1,0,0:0:0:0:
192,160,224148,5,8,0:0:0:0:
192,160,224603,5,0,0:0:0:0:
192,160,224830,1,0,0:0:0:0:
192,160,225057,5,8,0:0:0:0:
192,160,225285,1,8,0:0:0:0:
192,160,225398,1,8,0:0:0:0:
192,160,225512,1,8,0:0:0:0:
160,160,226194,5,0,0:0:0:0:
128,160,226876,1,0,0:0:0:0:
128,160,227330,1,0,0:0:0:0:
128,160,228012,1,0,0:0:0:0:
160,128,229148,1,0,0:0:0:0:
192,128,229830,1,0,0:0:0:0:
192,128,230512,1,0,0:0:0:0:
192,128,230967,1,0,0:0:0:0:
224,128,231648,1,0,0:0:0:0:
256,128,232330,1,0,0:0:0:0:
256,128,232785,1,4,0:0:0:0:
256,192,233012,12,0,234603,0:0:0:0:
