osu file format v12

[General]
AudioFilename: Anjuu2000.mp3
AudioLeadIn: 0
PreviewTime: 14603
Countdown: 0
SampleSet: Normal
StackLeniency: 0.7
Mode: 1
LetterboxInBreaks: 0

[Editor]
Bookmarks: 14555,181820
DistanceSpacing: 0.1
BeatDivisor: 4
GridSize: 4

[Metadata]
Title:Anjuu
TitleUnicode:Anjuu
Artist:Melyceria&Disease
ArtistUnicode:Melyceria&Disease
Creator:_Gezo_
Version:Muzukashii
Source:
Tags:Taiko Vangel Gezoda Original Psychedelic Beats
BeatmapID:169315
BeatmapSetID:54121

[Difficulty]
HPDrainRate:4
CircleSize:5
OverallDifficulty:4
ApproachRate:5
SliderMultiplier:1.4
SliderTickRate:1

[Events]
//Background and Video events
0,0,"BG.jpg",0,0
//Break Periods
//Storyboard Layer 0 (Background)
//Storyboard Layer 1 (Fail)
//Storyboard Layer 2 (Pass)
//Storyboard Layer 3 (Foreground)
//Storyboard Sound Samples
//Background Colour Transformations
3,100,163,162,255

[TimingPoints]
58,454.545454545455,4,1,0,80,1,0
14603,-100,4,1,0,80,0,1
29148,-100,4,1,0,80,0,0
87330,-100,4,1,0,80,0,1
145512,-100,4,1,0,80,0,0
174603,-100,4,1,0,80,0,1
203694,-100,4,1,0,80,0,0

[Colours]
Combo1 : 0,0,255
Combo2 : 255,0,0

[HitObjects]
224,176,7330,1,0,0:0:0:0:
224,176,7558,1,0,0:0:0:0:
224,176,7785,5,8,0:0:0:0:
224,176,8239,5,0,0:0:0:0:
224,176,8694,5,8,0:0:0:0:
224,176,9148,5,0,0:0:0:0:
224,176,9376,5,8,0:0:0:0:
224,176,9603,5,0,0:0:0:0:
224,176,10058,1,0,0:0:0:0:
224,176,10512,5,8,0:0:0:0:
224,176,10967,5,0,0:0:0:0:
224,176,11194,1,0,0:0:0:0:
224,176,11421,5,8,0:0:0:0:
224,176,11876,5,0,0:0:0:0:
224,176,12103,5,8,0:0:0:0:
224,176,12558,5,0,0:0:0:0:
224,176,12785,5,8,0:0:0:0:
224,176,13239,5,0,0:0:0:0:
224,176,13467,5,8,0:0:0:0:
224,176,13694,5,0,0:0:0:0:
224,176,14148,5,8,0:0:0:0:
224,176,14603,1,12,0:0:0:0:
224,176,14944,1,12,0:0:0:0:
224,176,15285,1,12,0:0:0:0:
224,176,15626,1,12,0:0:0:0:
224,176,15967,1,12,0:0:0:0:
224,176,16421,5,0,0:0:0:0:
224,176,16876,1,0,0:0:0:0:
224,176,17330,1,0,0:0:0:0:
224,176,17785,1,0,0:0:0:0:
224,176,18239,5,12,0:0:0:0:
224,176,18580,5,4,0:0:0:0:
224,176,18921,1,4,0:0:0:0:
224,176,19262,1,4,0:0:0:0:
224,176,19603,5,12,0:0:0:0:
224,176,20058,5,0,0:0:0:0:
224,176,20512,1,0,0:0:0:0:
224,176,20967,1,0,0:0:0:0:
224,176,21421,1,0,0:0:0:0:
224,176,21876,5,12,0:0:0:0:
224,176,22217,5,4,0:0:0:0:
224,176,22558,1,4,0:0:0:0:
224,176,22898,5,12,0:0:0:0:
224,176,23239,5,4,0:0:0:0:
224,176,23694,1,0,0:0:0:0:
224,176,24148,5,8,0:0:0:0:
224,176,24603,5,0,0:0:0:0:
224,176,25058,5,8,0:0:0:0:
224,176,25512,1,12,0:0:0:0:
224,176,25853,5,4,0:0:0:0:
224,176,26194,1,4,0:0:0:0:
224,176,26535,5,12,0:0:0:0:
224,176,26876,1,12,0:0:0:0:
224,176,27330,5,0,0:0:0:0:
224,176,27785,5,8,0:0:0:0:
224,176,28239,5,0,0:0:0:0:
224,176,28694,5,8,0:0:0:0:
224,176,28921,1,8,0:0:0:0:
224,176,29148,5,4,0:0:0:0:
224,176,29603,1,0,0:0:0:0:
224,176,29830,1,0,0:0:0:0:
224,176,30058,1,0,0:0:0:0:
224,176,30512,5,8,0:0:0:0:
224,176,30967,5,0,0:0:0:0:
224,176,31421,1,0,0:0:0:0:
132,164,31648,1,0,0:0:0:0:
224,176,31876,1,0,0:0:0:0:
224,176,32330,5,8,0:0:0:0:
224,176,32785,5,0,0:0:0:0:
224,176,33012,1,0,0:0:0:0:
224,176,33126,1,0,0:0:0:0:
224,176,33239,1,0,0:0:0:0:
224,176,33694,1,0,0:0:0:0:
224,176,34148,5,8,0:0:0:0:
224,176,34603,5,0,0:0:0:0:
224,176,35058,5,8,0:0:0:0:
224,176,35512,5,0,0:0:0:0:
92,164,35739,1,0,0:0:0:0:
224,176,35967,5,8,0:0:0:0:
224,176,36421,5,0,0:0:0:0:
224,176,36648,1,0,0:0:0:0:
224,176,36876,5,8,0:0:0:0:
224,176,37103,5,0,0:0:0:0:
224,176,37330,1,0,0:0:0:0:
224,176,37785,5,8,0:0:0:0:
224,176,38239,5,0,0:0:0:0:
224,176,38467,1,0,0:0:0:0:
224,176,38580,1,0,0:0:0:0:
224,176,38694,5,8,0:0:0:0:
224,176,39148,5,0,0:0:0:0:
224,176,39603,5,8,0:0:0:0:
224,176,40057,5,0,0:0:0:0:
224,176,40285,1,0,0:0:0:0:
224,176,40512,1,0,0:0:0:0:
224,176,40967,1,0,0:0:0:0:
224,176,41421,5,8,0:0:0:0:
224,176,41876,5,0,0:0:0:0:
224,176,42785,1,0,0:0:0:0:
224,176,43694,1,4,0:0:0:0:
224,176,43921,1,0,0:0:0:0:
224,176,44148,5,8,0:0:0:0:
224,176,44603,5,0,0:0:0:0:
224,176,45057,1,0,0:0:0:0:
224,176,45512,1,0,0:0:0:0:
224,176,45739,1,0,0:0:0:0:
224,176,45967,5,8,0:0:0:0:
224,176,46421,5,0,0:0:0:0:
224,176,46876,1,0,0:0:0:0:
224,176,47330,1,0,0:0:0:0:
224,176,47557,5,8,0:0:0:0:
224,176,47785,5,0,0:0:0:0:
224,176,48239,1,0,0:0:0:0:
224,176,48467,1,0,0:0:0:0:
224,176,48694,5,8,0:0:0:0:
224,176,49148,5,0,0:0:0:0:
224,176,49376,5,8,0:0:0:0:
224,176,49603,5,0,0:0:0:0:
224,176,50057,1,0,0:0:0:0:
224,176,50285,1,0,0:0:0:0:
224,176,50512,5,8,0:0:0:0:
224,176,50967,5,0,0:0:0:0:
224,176,51421,5,8,0:0:0:0:
224,176,51876,5,0,0:0:0:0:
224,176,52785,1,0,0:0:0:0:
224,176,53239,5,8,0:0:0:0:
224,176,53694,5,0,0:0:0:0:
224,176,54148,1,0,0:0:0:0:
224,176,54603,1,0,0:0:0:0:
224,176,55057,5,8,0:0:0:0:
224,176,55285,5,0,0:0:0:0:
224,176,55512,1,0,0:0:0:0:
224,176,55967,5,8,0:0:0:0:
224,176,56421,5,0,0:0:0:0:
224,176,56648,5,8,0:0:0:0:
224,176,56876,5,0,0:0:0:0:
224,176,57103,5,8,0:0:0:0:
224,176,57330,5,0,0:0:0:0:
224,176,57785,5,8,0:0:0:0:
224,176,58239,5,4,0:0:0:0:
224,176,58694,1,0,0:0:0:0:
224,176,59148,1,0,0:0:0:0:
224,176,59262,1,0,0:0:0:0:
224,176,59376,1,0,0:0:0:0:
224,176,59603,1,0,0:0:0:0:
224,176,60057,1,0,0:0:0:0:
224,176,60512,1,0,0:0:0:0:
224,176,60967,1,0,0:0:0:0:
224,176,61080,1,0,0:0:0:0:
224,176,61194,1,0,0:0:0:0:
224,176,61421,1,0,0:0:0:0:
224,176,61876,1,0,0:0:0:0:
224,176,62103,1,0,0:0:0:0:
224,176,62330,5,8,0:0:0:0:
224,176,62785,5,0,0:0:0:0:
224,176,63694,1,0,0:0:0:0:
224,176,64148,5,8,0:0:0:0:
224,176,64603,5,0,0:0:0:0:
224,176,65057,5,8,0:0:0:0:
224,176,65285,1,8,0:0:0:0:
224,176,65512,5,0,0:0:0:0:
224,176,65967,5,8,0:0:0:0:
224,176,66421,5,0,0:0:0:0:
224,176,66648,1,0,0:0:0:0:
224,176,66876,5,8,0:0:0:0:
224,176,67330,5,0,0:0:0:0:
224,176,67557,1,0,0:0:0:0:
224,176,67785,5,8,0:0:0:0:
224,176,68467,5,0,0:0:0:0:
224,176,68694,5,8,0:0:0:0:
224,176,69148,5,0,0:0:0:0:
224,176,69376,1,0,0:0:0:0:
224,176,69603,5,8,0:0:0:0:
224,176,69830,1,8,0:0:0:0:
224,176,70057,5,0,0:0:0:0:
224,176,70512,5,8,0:0:0:0:
224,176,70967,5,0,0:0:0:0:
224,176,71194,1,0,0:0:0:0:
224,176,71307,1,0,0:0:0:0:
224,176,71421,1,0,0:0:0:0:
224,176,71876,1,0,0:0:0:0:
224,176,72330,5,8,0:0:0:0:
224,176,72557,1,8,0:0:0:0:
224,176,72785,5,4,0:0:0:0:
224,176,73239,5,8,0:0:0:0:
224,176,73694,5,0,0:0:0:0:
224,176,74148,1,0,0:0:0:0:
224,176,74603,1,0,0:0:0:0:
224,176,75057,5,8,0:0:0:0:
224,176,75285,1,8,0:0:0:0:
224,176,75512,5,0,0:0:0:0:
224,176,75967,1,0,0:0:0:0:
224,176,76421,1,0,0:0:0:0:
224,176,76648,1,0,0:0:0:0:
224,176,76762,1,0,0:0:0:0:
224,176,76876,1,0,0:0:0:0:
224,176,77103,1,0,0:0:0:0:
224,176,77330,1,0,0:0:0:0:
224,176,77785,5,8,0:0:0:0:
224,176,78239,5,0,0:0:0:0:
224,176,78467,1,0,0:0:0:0:
224,176,78694,1,0,0:0:0:0:
224,176,79148,1,0,0:0:0:0:
224,176,79603,5,8,0:0:0:0:
224,176,80057,5,0,0:0:0:0:
224,176,80285,1,0,0:0:0:0:
224,176,80512,5,8,0:0:0:0:
224,176,80739,5,0,0:0:0:0:
224,176,80967,1,0,0:0:0:0:
224,176,81421,5,8,0:0:0:0:
224,176,81876,5,0,0:0:0:0:
224,176,82103,1,0,0:0:0:0:
224,176,82330,5,8,0:0:0:0:
224,176,82557,5,0,0:0:0:0:
224,176,82785,1,0,0:0:0:0:
224,176,83239,5,8,0:0:0:0:
224,176,83694,5,0,0:0:0:0:
224,176,84148,5,8,0:0:0:0:
224,176,84603,5,0,0:0:0:0:
224,176,85512,1,0,0:0:0:0:
224,176,85739,5,8,0:0:0:0:
224,176,85967,5,0,0:0:0:0:
224,176,86194,5,8,0:0:0:0:
224,176,86421,5,0,0:0:0:0:
224,176,86648,1,0,0:0:0:0:
224,176,86876,5,8,0:0:0:0:
224,176,87330,5,4,0:0:0:0:
224,176,87671,5,12,0:0:0:0:
224,176,88012,5,4,0:0:0:0:
224,176,88353,1,4,0:0:0:0:
224,176,88694,5,12,0:0:0:0:
224,176,89148,5,0,0:0:0:0:
224,176,89376,1,0,0:0:0:0:
224,176,89603,1,0,0:0:0:0:
224,176,90057,1,0,0:0:0:0:
224,176,90512,5,8,0:0:0:0:
224,176,90967,1,12,0:0:0:0:
224,176,91308,1,12,0:0:0:0:
224,176,91648,5,4,0:0:0:0:
224,176,91989,1,4,0:0:0:0:
224,176,92330,1,4,0:0:0:0:
224,176,92785,1,0,0:0:0:0:
224,176,93012,1,0,0:0:0:0:
224,176,93239,5,8,0:0:0:0:
224,176,93694,5,0,0:0:0:0:
224,176,94148,1,0,0:0:0:0:
224,176,94603,1,4,0:0:0:0:
224,176,94944,5,12,0:0:0:0:
224,176,95285,1,12,0:0:0:0:
224,176,95626,1,12,0:0:0:0:
224,176,95967,5,4,0:0:0:0:
224,176,96421,1,0,0:0:0:0:
224,176,96648,1,0,0:0:0:0:
224,176,96876,5,8,0:0:0:0:
224,176,97330,5,0,0:0:0:0:
224,176,97785,5,8,0:0:0:0:
224,176,98239,5,4,0:0:0:0:
224,176,98580,5,12,0:0:0:0:
224,176,98921,5,4,0:0:0:0:
224,176,99262,1,4,0:0:0:0:
224,176,99603,5,12,0:0:0:0:
224,176,100058,5,0,0:0:0:0:
224,176,100285,1,0,0:0:0:0:
224,176,100512,1,0,0:0:0:0:
224,176,100967,1,0,0:0:0:0:
224,176,101194,5,8,0:0:0:0:
224,176,101421,5,0,0:0:0:0:
224,176,101876,1,4,0:0:0:0:
224,176,102217,5,8,0:0:0:0:
224,176,102558,5,0,0:0:0:0:
160,196,102785,1,0,0:0:0:0:
72,148,103239,5,8,0:0:0:0:
224,176,103694,5,0,0:0:0:0:
224,176,104148,5,8,0:0:0:0:
224,176,104376,5,0,0:0:0:0:
224,176,104603,1,0,0:0:0:0:
224,176,104830,1,0,0:0:0:0:
224,176,105058,5,8,0:0:0:0:
224,176,105512,5,0,0:0:0:0:
224,176,105739,1,0,0:0:0:0:
224,176,105967,5,8,0:0:0:0:
224,176,106421,5,0,0:0:0:0:
224,176,106876,5,8,0:0:0:0:
224,176,107330,5,0,0:0:0:0:
224,176,107558,1,0,0:0:0:0:
224,176,107785,5,8,0:0:0:0:
224,176,108012,5,0,0:0:0:0:
224,176,108239,1,0,0:0:0:0:
224,176,108694,5,8,0:0:0:0:
224,176,109148,5,0,0:0:0:0:
224,176,109376,5,8,0:0:0:0:
224,176,109603,5,0,0:0:0:0:
224,176,110058,1,0,0:0:0:0:
224,176,110512,5,8,0:0:0:0:
224,176,110967,5,0,0:0:0:0:
224,176,111194,5,8,0:0:0:0:
224,176,111421,5,0,0:0:0:0:
224,176,111876,1,0,0:0:0:0:
224,176,112330,5,8,0:0:0:0:
224,176,112785,5,0,0:0:0:0:
224,176,112898,1,0,0:0:0:0:
224,176,113012,1,0,0:0:0:0:
224,176,113239,1,0,0:0:0:0:
224,176,113694,1,0,0:0:0:0:
224,176,114148,5,8,0:0:0:0:
224,176,114603,5,0,0:0:0:0:
224,176,114717,1,0,0:0:0:0:
224,176,114830,1,0,0:0:0:0:
224,176,115058,1,0,0:0:0:0:
224,176,115512,1,0,0:0:0:0:
224,176,116421,1,4,0:0:0:0:
224,176,116876,5,8,0:0:0:0:
224,176,117330,5,0,0:0:0:0:
224,176,117558,1,0,0:0:0:0:
224,176,117785,5,8,0:0:0:0:
224,176,118239,5,0,0:0:0:0:
224,176,118467,5,8,0:0:0:0:
224,176,118694,5,0,0:0:0:0:
104,112,119148,1,0,0:0:0:0:
84,248,119603,5,8,0:0:0:0:
224,176,120058,5,0,0:0:0:0:
224,176,120285,1,0,0:0:0:0:
224,176,120512,5,8,0:0:0:0:
224,176,120739,5,0,0:0:0:0:
224,176,120967,1,0,0:0:0:0:
224,176,121421,5,8,0:0:0:0:
224,176,121876,5,0,0:0:0:0:
224,176,122103,5,8,0:0:0:0:
224,176,122330,5,0,0:0:0:0:
224,176,122558,5,8,0:0:0:0:
224,176,122785,5,0,0:0:0:0:
224,176,123239,5,8,0:0:0:0:
224,176,123694,1,8,0:0:0:0:
224,176,124148,1,8,0:0:0:0:
224,176,124603,5,0,0:0:0:0:
224,176,125058,5,8,0:0:0:0:
224,176,125512,5,0,0:0:0:0:
224,176,125739,1,0,0:0:0:0:
224,176,125967,5,8,0:0:0:0:
224,176,126421,5,0,0:0:0:0:
224,176,126876,5,8,0:0:0:0:
224,176,127330,5,0,0:0:0:0:
224,176,127558,1,0,0:0:0:0:
224,176,127785,5,8,0:0:0:0:
224,176,128239,5,0,0:0:0:0:
224,176,128694,5,8,0:0:0:0:
224,176,129148,5,0,0:0:0:0:
224,176,129376,5,8,0:0:0:0:
224,176,129603,5,0,0:0:0:0:
224,176,129830,5,8,0:0:0:0:
224,176,130058,5,0,0:0:0:0:
224,176,130512,5,8,0:0:0:0:
224,176,130967,5,4,0:0:0:0:
224,176,131194,1,0,0:0:0:0:
224,176,131421,5,8,0:0:0:0:
224,176,131876,5,0,0:0:0:0:
224,176,132330,5,8,0:0:0:0:
224,176,132785,5,0,0:0:0:0:
224,176,133239,5,8,0:0:0:0:
224,176,133694,5,0,0:0:0:0:
224,176,134603,5,8,0:0:0:0:
224,176,134830,1,8,0:0:0:0:
224,176,135058,5,0,0:0:0:0:
224,176,135512,5,8,0:0:0:0:
224,176,135967,5,0,0:0:0:0:
224,176,136194,1,0,0:0:0:0:
224,176,136421,5,8,0:0:0:0:
224,176,136876,5,0,0:0:0:0:
224,176,137330,5,8,0:0:0:0:
224,176,138239,5,0,0:0:0:0:
224,176,138694,5,8,0:0:0:0:
224,176,139148,5,0,0:0:0:0:
224,176,139376,1,0,0:0:0:0:
224,176,139603,5,8,0:0:0:0:
224,176,140058,5,0,0:0:0:0:
224,176,140285,1,0,0:0:0:0:
224,176,140512,5,8,0:0:0:0:
224,176,140739,5,0,0:0:0:0:
224,176,140967,1,0,0:0:0:0:
224,176,141421,5,8,0:0:0:0:
224,176,141876,5,0,0:0:0:0:
224,176,142330,5,8,0:0:0:0:
224,176,142558,5,0,0:0:0:0:
224,176,142785,1,0,0:0:0:0:
224,176,143239,5,8,0:0:0:0:
224,176,143694,5,0,0:0:0:0:
224,176,143921,1,0,0:0:0:0:
224,176,144148,5,8,0:0:0:0:
224,176,144376,5,0,0:0:0:0:
224,176,144603,1,0,0:0:0:0:
224,176,145058,5,8,0:0:0:0:
224,176,145512,5,4,0:0:0:0:
224,176,145967,1,0,0:0:0:0:
224,176,146421,1,0,0:0:0:0:
224,176,146876,5,8,0:0:0:0:
224,176,147330,5,0,0:0:0:0:
224,176,147785,1,0,0:0:0:0:
224,176,148239,1,0,0:0:0:0:
224,176,148694,5,8,0:0:0:0:
224,176,149148,5,0,0:0:0:0:
224,176,149376,1,0,0:0:0:0:
224,176,149603,5,8,0:0:0:0:
224,176,150057,5,0,0:0:0:0:
224,176,150512,5,8,0:0:0:0:
224,176,150967,5,0,0:0:0:0:
224,176,151421,5,8,0:0:0:0:
224,176,151648,5,0,0:0:0:0:
224,176,151876,1,0,0:0:0:0:
224,176,152103,5,8,0:0:0:0:
224,176,152330,1,8,0:0:0:0:
224,176,152785,5,0,0:0:0:0:
224,176,153012,1,0,0:0:0:0:
224,176,153239,5,8,0:0:0:0:
224,176,153467,5,0,0:0:0:0:
224,176,153694,1,0,0:0:0:0:
224,176,154148,5,8,0:0:0:0:
224,176,154603,5,0,0:0:0:0:
224,176,155057,1,0,0:0:0:0:
224,176,155171,1,0,0:0:0:0:
224,176,155285,1,0,0:0:0:0:
224,176,155512,1,0,0:0:0:0:
224,176,155967,5,8,0:0:0:0:
224,176,156421,5,0,0:0:0:0:
224,176,157330,1,0,0:0:0:0:
224,176,157785,5,8,0:0:0:0:
224,176,158239,5,0,0:0:0:0:
224,176,158694,5,8,0:0:0:0:
224,176,159148,5,0,0:0:0:0:
224,176,159376,1,0,0:0:0:0:
224,176,159603,5,8,0:0:0:0:
224,176,159830,1,8,0:0:0:0:
224,176,160057,5,4,0:0:0:0:
224,176,160512,5,8,0:0:0:0:
224,176,160967,1,8,0:0:0:0:
224,176,161421,1,8,0:0:0:0:
224,176,161876,5,0,0:0:0:0:
224,176,162103,1,0,0:0:0:0:
224,176,162330,5,8,0:0:0:0:
224,176,162557,5,0,0:0:0:0:
224,176,163012,1,0,0:0:0:0:
224,176,163239,5,8,0:0:0:0:
224,176,163694,5,0,0:0:0:0:
224,176,163921,1,0,0:0:0:0:
224,176,164148,5,8,0:0:0:0:
224,176,164603,5,0,0:0:0:0:
224,176,165057,5,8,0:0:0:0:
224,176,165512,5,0,0:0:0:0:
224,176,166421,1,0,0:0:0:0:
224,176,166648,1,0,0:0:0:0:
224,176,166876,1,0,0:0:0:0:
224,176,167330,1,0,0:0:0:0:
224,176,167557,1,0,0:0:0:0:
224,176,167785,5,8,0:0:0:0:
224,176,168239,5,0,0:0:0:0:
224,176,168694,5,8,0:0:0:0:
224,176,169148,5,0,0:0:0:0:
224,176,169376,1,0,0:0:0:0:
224,176,169603,5,8,0:0:0:0:
224,176,170057,5,0,0:0:0:0:
224,176,170512,5,8,0:0:0:0:
224,176,170967,5,0,0:0:0:0:
224,176,171194,1,0,0:0:0:0:
224,176,171421,5,8,0:0:0:0:
224,176,171876,5,0,0:0:0:0:
224,176,172330,5,8,0:0:0:0:
224,176,172785,1,8,0:0:0:0:
224,176,173012,1,8,0:0:0:0:
224,176,173239,5,0,0:0:0:0:
224,176,173694,1,0,0:0:0:0:
224,176,174148,5,8,0:0:0:0:
224,176,174603,1,12,0:0:0:0:
224,176,174944,1,12,0:0:0:0:
224,176,175285,5,4,0:0:0:0:
224,176,175626,1,4,0:0:0:0:
224,176,175967,5,12,0:0:0:0:
224,176,176421,5,0,0:0:0:0:
224,176,176876,5,8,0:0:0:0:
224,176,177330,5,0,0:0:0:0:
224,176,178239,1,4,0:0:0:0:
224,176,178580,1,4,0:0:0:0:
224,176,178921,5,12,0:0:0:0:
224,176,179262,1,12,0:0:0:0:
224,176,179603,1,12,0:0:0:0:
224,176,180057,1,8,0:0:0:0:
224,176,180285,1,8,0:0:0:0:
224,176,180512,5,0,0:0:0:0:
224,176,180967,1,0,0:0:0:0:
224,176,181421,5,8,0:0:0:0:
224,176,181876,5,4,0:0:0:0:
224,176,182217,5,12,0:0:0:0:
224,176,182557,1,12,0:0:0:0:
224,176,182898,5,4,0:0:0:0:
224,176,183239,1,4,0:0:0:0:
224,176,183694,1,0,0:0:0:0:
224,176,183921,1,0,0:0:0:0:
224,176,184148,1,0,0:0:0:0:
224,176,184603,1,0,0:0:0:0:
224,176,185057,5,8,0:0:0:0:
224,176,185512,5,4,0:0:0:0:
224,176,185853,5,12,0:0:0:0:
224,176,186194,1,12,0:0:0:0:
224,176,186535,1,12,0:0:0:0:
224,176,186876,1,12,0:0:0:0:
224,176,187330,5,0,0:0:0:0:
224,176,187785,5,8,0:0:0:0:
224,176,188239,5,0,0:0:0:0:
224,176,188694,5,8,0:0:0:0:
224,176,188921,1,8,0:0:0:0:
224,176,189148,5,4,0:0:0:0:
224,176,189603,5,8,0:0:0:0:
224,176,190057,5,0,0:0:0:0:
224,176,190512,5,8,0:0:0:0:
224,176,190739,5,0,0:0:0:0:
224,176,190967,1,0,0:0:0:0:
224,176,191421,5,8,0:0:0:0:
224,176,191876,5,0,0:0:0:0:
224,176,192103,1,0,0:0:0:0:
224,176,192330,5,8,0:0:0:0:
224,176,192785,5,4,0:0:0:0:
224,176,193126,1,4,0:0:0:0:
224,176,193467,5,12,0:0:0:0:
224,176,193807,1,12,0:0:0:0:
224,176,194148,1,12,0:0:0:0:
224,176,194603,5,4,0:0:0:0:
224,176,194944,1,4,0:0:0:0:
224,176,195285,5,12,0:0:0:0:
224,176,195626,1,12,0:0:0:0:
224,176,195967,1,12,0:0:0:0:
224,176,196421,5,0,0:0:0:0:
224,176,196648,1,0,0:0:0:0:
224,176,196876,5,8,0:0:0:0:
224,176,197330,5,0,0:0:0:0:
224,176,197785,5,8,0:0:0:0:
224,176,198239,5,4,0:0:0:0:
224,176,198580,5,12,0:0:0:0:
224,176,198921,1,12,0:0:0:0:
224,176,199262,1,12,0:0:0:0:
224,176,199603,1,12,0:0:0:0:
224,176,200057,5,0,0:0:0:0:
224,176,200512,1,0,0:0:0:0:
224,176,200967,1,0,0:0:0:0:
224,176,201080,1,0,0:0:0:0:
224,176,201194,1,0,0:0:0:0:
224,176,201421,1,0,0:0:0:0:
224,176,201876,1,0,0:0:0:0:
224,176,202330,1,0,0:0:0:0:
224,176,202785,1,0,0:0:0:0:
224,176,203012,1,0,0:0:0:0:
224,176,203239,5,8,0:0:0:0:
104,144,203467,1,8,0:0:0:0:
224,176,203694,5,4,0:0:0:0:
224,176,204603,1,0,0:0:0:0:
224,176,205057,5,8,0:0:0:0:
224,176,205512,5,0,0:0:0:0:
224,176,205739,1,0,0:0:0:0:
224,176,205967,5,8,0:0:0:0:
224,176,206194,1,8,0:0:0:0:
224,176,206421,5,0,0:0:0:0:
224,176,206876,5,8,0:0:0:0:
224,176,207330,5,0,0:0:0:0:
224,176,207785,5,8,0:0:0:0:
224,176,208239,5,0,0:0:0:0:
224,176,208467,1,0,0:0:0:0:
224,176,208694,5,8,0:0:0:0:
224,176,209148,5,0,0:0:0:0:
224,176,209603,5,8,0:0:0:0:
224,176,209830,5,0,0:0:0:0:
224,176,210057,1,0,0:0:0:0:
224,176,210285,1,0,0:0:0:0:
224,176,210512,5,8,0:0:0:0:
224,176,210967,5,0,0:0:0:0:
224,176,211421,5,8,0:0:0:0:
224,176,211648,5,0,0:0:0:0:
224,176,211876,1,0,0:0:0:0:
224,176,212785,1,0,0:0:0:0:
224,176,213012,1,0,0:0:0:0:
224,176,213239,5,8,0:0:0:0:
224,176,213694,5,0,0:0:0:0:
224,176,213921,1,0,0:0:0:0:
224,176,214148,5,8,0:0:0:0:
224,176,214603,5,0,0:0:0:0:
224,176,215057,5,8,0:0:0:0:
224,176,215512,5,0,0:0:0:0:
224,176,215967,5,8,0:0:0:0:
224,176,216421,5,0,0:0:0:0:
224,176,216648,1,0,0:0:0:0:
224,176,216876,5,8,0:0:0:0:
224,176,217103,1,8,0:0:0:0:
224,176,217330,5,0,0:0:0:0:
224,176,217785,5,8,0:0:0:0:
224,176,218239,5,4,0:0:0:0:
224,176,218694,5,8,0:0:0:0:
224,176,219376,5,0,0:0:0:0:
224,176,219603,5,8,0:0:0:0:
224,176,220057,5,0,0:0:0:0:
224,176,220512,5,8,0:0:0:0:
224,176,221194,5,0,0:0:0:0:
224,176,221421,5,8,0:0:0:0:
224,176,221876,5,0,0:0:0:0:
224,176,222103,1,0,0:0:0:0:
224,176,222330,5,8,0:0:0:0:
224,176,222557,1,8,0:0:0:0:
224,176,222785,5,0,0:0:0:0:
224,176,223239,5,8,0:0:0:0:
224,176,223694,5,0,0:0:0:0:
224,176,224148,5,8,0:0:0:0:
224,176,224603,5,0,0:0:0:0:
224,176,224830,1,0,0:0:0:0:
224,176,225057,5,8,0:0:0:0:
224,176,225285,5,0,0:0:0:0:
224,176,225512,5,8,0:0:0:0:
224,176,226194,5,0,0:0:0:0:
224,176,226421,1,0,0:0:0:0:
224,176,226876,5,8,0:0:0:0:
224,176,227330,5,0,0:0:0:0:
224,176,228012,5,8,0:0:0:0:
224,176,228239,5,0,0:0:0:0:
224,176,228694,5,8,0:0:0:0:
224,176,229148,1,8,0:0:0:0:
224,176,229376,5,0,0:0:0:0:
224,176,229603,1,0,0:0:0:0:
224,176,229830,5,8,0:0:0:0:
224,176,230285,5,0,0:0:0:0:
224,176,230512,5,8,0:0:0:0:
224,176,230967,5,0,0:0:0:0:
224,176,231421,5,8,0:0:0:0:
224,176,231876,5,0,0:0:0:0:
224,176,232330,5,8,0:0:0:0:
224,176,232785,5,4,0:0:0:0:
256,192,233239,12,0,234603,0:0:0:0:
