osu file format v12

[General]
AudioFilename: Anjuu2000.mp3
AudioLeadIn: 0
PreviewTime: 14603
Countdown: 0
SampleSet: Normal
StackLeniency: 0.7
Mode: 1
LetterboxInBreaks: 0

[Editor]
Bookmarks: 14555,181820
DistanceSpacing: 0.1
BeatDivisor: 1
GridSize: 4

[Metadata]
Title:Anjuu
TitleUnicode:Anjuu
Artist:Melyceria&Disease
ArtistUnicode:Melyceria&Disease
Creator:_Gezo_
Version:Kantan
Source:
Tags:Taiko Vangel Gezoda Original Psychedelic Beats
BeatmapID:169307
BeatmapSetID:54121

[Difficulty]
HPDrainRate:2
CircleSize:5
OverallDifficulty:2
ApproachRate:5
SliderMultiplier:1.4
SliderTickRate:1

[Events]
//Background and Video events
0,0,"BG.jpg",0,0
//Break Periods
//Storyboard Layer 0 (Background)
//Storyboard Layer 1 (Fail)
//Storyboard Layer 2 (Pass)
//Storyboard Layer 3 (Foreground)
//Storyboard Sound Samples
//Background Colour Transformations
3,100,163,162,255

[TimingPoints]
58,454.545454545455,4,1,0,80,1,0
14603,-100,4,1,0,80,0,1
29148,-100,4,1,0,80,0,0
87330,-100,4,1,0,80,0,1
145512,-100,4,1,0,80,0,0
174603,-100,4,1,0,80,0,1
203694,-100,4,1,0,80,0,0

[Colours]
Combo1 : 0,0,255
Combo2 : 255,0,0

[HitObjects]
83,67,7330,1,0,0:0:0:0:
83,67,8239,1,0,0:0:0:0:
83,67,9148,1,0,0:0:0:0:
83,67,10058,1,0,0:0:0:0:
83,67,10967,1,0,0:0:0:0:
83,67,11421,1,0,0:0:0:0:
83,67,11876,1,0,0:0:0:0:
83,67,12785,1,0,0:0:0:0:
83,67,13694,1,0,0:0:0:0:
83,67,14603,1,4,0:0:0:0:
83,67,15058,1,0,0:0:0:0:
83,67,15512,5,8,0:0:0:0:
83,67,16421,5,0,0:0:0:0:
83,67,16876,1,0,0:0:0:0:
83,67,17330,1,0,0:0:0:0:
83,67,18239,1,0,0:0:0:0:
83,67,18694,1,0,0:0:0:0:
83,67,19148,5,8,0:0:0:0:
83,67,20058,5,0,0:0:0:0:
83,67,20512,1,0,0:0:0:0:
83,67,20967,1,0,0:0:0:0:
83,67,21876,1,0,0:0:0:0:
83,67,22785,5,8,0:0:0:0:
83,67,23694,5,0,0:0:0:0:
83,67,24148,1,0,0:0:0:0:
83,67,24603,1,0,0:0:0:0:
83,67,25512,1,0,0:0:0:0:
83,67,26421,5,8,0:0:0:0:
83,67,27330,5,0,0:0:0:0:
83,67,27785,1,0,0:0:0:0:
83,67,28239,1,0,0:0:0:0:
83,67,29148,5,12,0:0:0:0:
83,67,30058,5,0,0:0:0:0:
83,67,30967,1,0,0:0:0:0:
83,67,31876,1,0,0:0:0:0:
83,67,32785,5,8,0:0:0:0:
83,67,33694,5,0,0:0:0:0:
83,67,34603,1,0,0:0:0:0:
83,67,35058,1,0,0:0:0:0:
83,67,35512,1,0,0:0:0:0:
83,67,36421,5,8,0:0:0:0:
83,67,37330,5,0,0:0:0:0:
83,67,38239,1,0,0:0:0:0:
83,67,39148,1,0,0:0:0:0:
83,67,40057,5,8,0:0:0:0:
83,67,40967,5,0,0:0:0:0:
83,67,41876,1,0,0:0:0:0:
83,67,42330,1,0,0:0:0:0:
83,67,42785,1,0,0:0:0:0:
83,67,43694,5,12,0:0:0:0:
83,67,44603,5,0,0:0:0:0:
83,67,45512,1,0,0:0:0:0:
83,67,46421,1,0,0:0:0:0:
83,67,47330,5,8,0:0:0:0:
83,67,48239,5,0,0:0:0:0:
83,67,49148,1,0,0:0:0:0:
83,67,50057,1,0,0:0:0:0:
83,67,50512,1,0,0:0:0:0:
83,67,50967,5,8,0:0:0:0:
83,67,51876,5,0,0:0:0:0:
83,67,52785,1,0,0:0:0:0:
83,67,53694,1,0,0:0:0:0:
83,67,54603,5,8,0:0:0:0:
83,67,55057,5,0,0:0:0:0:
83,67,55512,1,0,0:0:0:0:
83,67,56421,1,0,0:0:0:0:
83,67,57330,1,0,0:0:0:0:
83,67,57785,1,0,0:0:0:0:
83,67,58239,5,12,0:0:0:0:
83,67,59148,5,0,0:0:0:0:
83,67,60057,1,0,0:0:0:0:
83,67,60967,1,0,0:0:0:0:
83,67,61876,5,8,0:0:0:0:
83,67,62330,5,0,0:0:0:0:
83,67,62785,1,0,0:0:0:0:
83,67,63694,1,0,0:0:0:0:
83,67,64603,1,0,0:0:0:0:
83,67,65512,5,8,0:0:0:0:
83,67,65967,5,0,0:0:0:0:
83,67,66421,1,0,0:0:0:0:
83,67,67330,1,0,0:0:0:0:
83,67,67785,1,0,0:0:0:0:
83,67,68239,1,0,0:0:0:0:
83,67,69148,5,8,0:0:0:0:
83,67,70057,5,0,0:0:0:0:
83,67,70967,1,0,0:0:0:0:
83,67,71876,1,0,0:0:0:0:
83,67,72785,5,12,0:0:0:0:
83,67,73694,5,0,0:0:0:0:
83,67,74603,1,0,0:0:0:0:
83,67,75057,1,0,0:0:0:0:
83,67,75512,1,0,0:0:0:0:
83,67,76421,5,8,0:0:0:0:
83,67,76876,5,0,0:0:0:0:
83,67,77330,1,0,0:0:0:0:
83,67,78239,1,0,0:0:0:0:
83,67,79148,1,0,0:0:0:0:
83,67,80057,5,8,0:0:0:0:
83,67,80512,5,0,0:0:0:0:
83,67,80967,1,0,0:0:0:0:
83,67,81876,1,0,0:0:0:0:
83,67,82330,1,0,0:0:0:0:
83,67,82785,1,0,0:0:0:0:
83,67,83694,5,8,0:0:0:0:
83,67,84148,5,0,0:0:0:0:
83,67,84603,1,0,0:0:0:0:
83,67,85512,1,0,0:0:0:0:
83,67,86421,1,0,0:0:0:0:
83,67,87330,5,12,0:0:0:0:
83,67,88239,5,0,0:0:0:0:
83,67,89148,1,0,0:0:0:0:
83,67,90057,1,0,0:0:0:0:
83,67,90967,5,8,0:0:0:0:
83,67,91876,5,0,0:0:0:0:
83,67,92785,1,0,0:0:0:0:
83,67,93239,1,0,0:0:0:0:
83,67,93694,1,0,0:0:0:0:
83,67,94603,5,8,0:0:0:0:
83,67,95512,5,0,0:0:0:0:
83,67,96421,1,0,0:0:0:0:
83,67,96876,1,0,0:0:0:0:
83,67,97330,1,0,0:0:0:0:
83,67,98239,5,8,0:0:0:0:
83,67,99148,5,0,0:0:0:0:
83,67,100058,1,0,0:0:0:0:
83,67,100512,1,0,0:0:0:0:
83,67,100967,1,0,0:0:0:0:
83,67,101876,5,12,0:0:0:0:
83,67,102785,5,0,0:0:0:0:
83,67,103694,1,0,0:0:0:0:
83,67,104148,1,0,0:0:0:0:
83,67,104603,1,0,0:0:0:0:
83,67,105512,5,8,0:0:0:0:
83,67,106421,5,0,0:0:0:0:
83,67,107330,1,0,0:0:0:0:
83,67,107785,1,0,0:0:0:0:
83,67,108239,1,0,0:0:0:0:
83,67,109148,5,8,0:0:0:0:
83,67,110058,5,0,0:0:0:0:
83,67,110967,1,0,0:0:0:0:
83,67,111421,1,0,0:0:0:0:
83,67,111876,1,0,0:0:0:0:
83,67,112785,5,8,0:0:0:0:
83,67,113694,5,0,0:0:0:0:
83,67,114603,1,0,0:0:0:0:
83,67,115058,1,0,0:0:0:0:
83,67,115512,1,0,0:0:0:0:
83,67,116421,5,12,0:0:0:0:
83,67,117330,5,0,0:0:0:0:
83,67,118239,1,0,0:0:0:0:
83,67,119148,1,0,0:0:0:0:
83,67,120058,5,8,0:0:0:0:
83,67,120512,5,0,0:0:0:0:
83,67,120967,1,0,0:0:0:0:
83,67,121876,1,0,0:0:0:0:
83,67,122785,1,0,0:0:0:0:
83,67,123694,5,8,0:0:0:0:
83,67,124148,5,0,0:0:0:0:
83,67,124603,1,0,0:0:0:0:
83,67,125512,1,0,0:0:0:0:
83,67,126421,1,0,0:0:0:0:
83,67,127330,5,8,0:0:0:0:
83,67,127785,5,0,0:0:0:0:
83,67,128239,1,0,0:0:0:0:
83,67,129148,1,0,0:0:0:0:
83,67,129603,1,0,0:0:0:0:
83,67,130058,1,0,0:0:0:0:
83,67,130967,5,12,0:0:0:0:
83,67,131876,5,0,0:0:0:0:
83,67,132785,1,0,0:0:0:0:
83,67,133694,1,0,0:0:0:0:
83,67,134603,5,8,0:0:0:0:
83,67,135512,5,0,0:0:0:0:
83,67,136421,1,0,0:0:0:0:
83,67,137330,1,0,0:0:0:0:
83,67,138239,5,8,0:0:0:0:
83,67,138694,5,0,0:0:0:0:
83,67,139148,1,0,0:0:0:0:
83,67,140058,1,0,0:0:0:0:
83,67,140967,1,0,0:0:0:0:
83,67,141876,5,8,0:0:0:0:
83,67,142330,5,0,0:0:0:0:
83,67,142785,1,0,0:0:0:0:
83,67,143694,1,0,0:0:0:0:
83,67,144603,1,0,0:0:0:0:
83,67,145512,5,12,0:0:0:0:
83,67,145967,5,0,0:0:0:0:
83,67,146421,1,0,0:0:0:0:
83,67,147330,1,0,0:0:0:0:
83,67,147785,1,0,0:0:0:0:
83,67,148239,1,0,0:0:0:0:
83,67,149148,5,8,0:0:0:0:
83,67,150057,5,0,0:0:0:0:
83,67,150512,1,0,0:0:0:0:
83,67,150967,1,0,0:0:0:0:
83,67,151876,1,0,0:0:0:0:
83,67,152785,5,8,0:0:0:0:
83,67,153694,5,0,0:0:0:0:
83,67,154603,1,0,0:0:0:0:
83,67,155512,1,0,0:0:0:0:
83,67,156421,5,8,0:0:0:0:
83,67,156876,5,0,0:0:0:0:
83,67,157330,1,0,0:0:0:0:
83,67,158239,1,0,0:0:0:0:
83,67,159148,1,0,0:0:0:0:
83,67,160057,5,12,0:0:0:0:
83,67,160967,5,0,0:0:0:0:
83,67,161876,1,0,0:0:0:0:
83,67,162785,1,0,0:0:0:0:
83,67,163694,5,8,0:0:0:0:
83,67,164603,5,0,0:0:0:0:
83,67,165057,1,0,0:0:0:0:
83,67,165512,1,0,0:0:0:0:
83,67,166421,1,0,0:0:0:0:
83,67,167330,5,8,0:0:0:0:
83,67,168239,5,0,0:0:0:0:
83,67,169148,1,0,0:0:0:0:
83,67,170057,1,0,0:0:0:0:
83,67,170967,5,8,0:0:0:0:
83,67,171876,5,0,0:0:0:0:
83,67,172330,1,0,0:0:0:0:
83,67,172785,1,0,0:0:0:0:
83,67,173694,1,0,0:0:0:0:
83,67,174603,5,12,0:0:0:0:
83,67,175512,5,0,0:0:0:0:
83,67,176421,1,0,0:0:0:0:
83,67,176876,1,0,0:0:0:0:
83,67,177330,1,0,0:0:0:0:
83,67,178239,5,8,0:0:0:0:
83,67,179148,5,0,0:0:0:0:
83,67,180057,1,0,0:0:0:0:
83,67,180967,1,0,0:0:0:0:
83,67,181876,5,8,0:0:0:0:
83,67,182330,5,0,0:0:0:0:
83,67,182785,1,0,0:0:0:0:
83,67,183694,1,0,0:0:0:0:
83,67,184148,1,0,0:0:0:0:
83,67,184603,1,0,0:0:0:0:
83,67,185512,5,8,0:0:0:0:
83,67,185967,5,0,0:0:0:0:
83,67,186421,1,0,0:0:0:0:
83,67,187330,1,0,0:0:0:0:
83,67,188239,1,0,0:0:0:0:
83,67,189148,5,12,0:0:0:0:
83,67,190057,5,0,0:0:0:0:
83,67,190967,1,0,0:0:0:0:
83,67,191876,1,0,0:0:0:0:
83,67,192785,5,8,0:0:0:0:
83,67,193239,5,0,0:0:0:0:
83,67,193694,1,0,0:0:0:0:
83,67,194603,1,0,0:0:0:0:
83,67,195512,1,0,0:0:0:0:
83,67,196421,5,8,0:0:0:0:
83,67,196876,5,0,0:0:0:0:
83,67,197330,1,0,0:0:0:0:
83,67,198239,1,0,0:0:0:0:
83,67,199148,1,0,0:0:0:0:
83,67,200057,5,8,0:0:0:0:
83,67,200512,5,0,0:0:0:0:
83,67,200967,1,0,0:0:0:0:
83,67,201876,1,0,0:0:0:0:
83,67,202785,1,0,0:0:0:0:
83,67,203694,5,12,0:0:0:0:
83,67,204603,5,0,0:0:0:0:
83,67,205512,1,0,0:0:0:0:
83,67,206421,1,0,0:0:0:0:
83,67,207330,5,8,0:0:0:0:
83,67,207785,5,0,0:0:0:0:
83,67,208239,1,0,0:0:0:0:
83,67,209148,1,0,0:0:0:0:
83,67,210057,1,0,0:0:0:0:
83,67,210967,5,8,0:0:0:0:
83,67,211421,5,0,0:0:0:0:
83,67,211876,1,0,0:0:0:0:
83,67,212785,1,0,0:0:0:0:
83,67,213694,1,0,0:0:0:0:
83,67,214603,5,8,0:0:0:0:
83,67,215057,5,0,0:0:0:0:
83,67,215512,1,0,0:0:0:0:
83,67,216421,1,0,0:0:0:0:
83,67,217330,1,0,0:0:0:0:
83,67,218239,5,12,0:0:0:0:
83,67,219148,5,0,0:0:0:0:
83,67,220057,1,0,0:0:0:0:
83,67,220967,1,0,0:0:0:0:
83,67,221876,5,8,0:0:0:0:
83,67,222785,5,0,0:0:0:0:
83,67,223239,1,0,0:0:0:0:
83,67,223694,1,0,0:0:0:0:
83,67,224603,1,0,0:0:0:0:
83,67,225512,5,8,0:0:0:0:
83,67,226421,5,0,0:0:0:0:
83,67,227330,1,0,0:0:0:0:
83,67,228239,1,0,0:0:0:0:
83,67,229148,5,8,0:0:0:0:
83,67,230057,5,0,0:0:0:0:
83,67,230967,1,0,0:0:0:0:
83,67,231876,1,0,0:0:0:0:
83,67,232785,5,12,0:0:0:0:
256,192,233239,8,0,234603,0:0:0:0:
