osu file format v12

[General]
AudioFilename: Anjuu2000.mp3
AudioLeadIn: 0
PreviewTime: 14603
Countdown: 0
SampleSet: Normal
StackLeniency: 0.7
Mode: 1
LetterboxInBreaks: 0

[Editor]
Bookmarks: 14555
DistanceSpacing: 0.1
BeatDivisor: 4
GridSize: 4

[Metadata]
Title:Anjuu
TitleUnicode:Anjuu
Artist:Melyceria&Disease
ArtistUnicode:Melyceria&Disease
Creator:_Gezo_
Version:Futsuu
Source:
Tags:Taiko Vangel Gezoda Original Psychedelic Beats
BeatmapID:179413
BeatmapSetID:54121

[Difficulty]
HPDrainRate:3
CircleSize:5
OverallDifficulty:3
ApproachRate:5
SliderMultiplier:1.4
SliderTickRate:1

[Events]
//Background and Video events
0,0,"BG.jpg",0,0
//Break Periods
//Storyboard Layer 0 (Background)
//Storyboard Layer 1 (Fail)
//Storyboard Layer 2 (Pass)
//Storyboard Layer 3 (Foreground)
//Storyboard Sound Samples
//Background Colour Transformations
3,100,163,162,255

[TimingPoints]
58,454.545454545455,4,1,0,80,1,0
14603,-100,4,1,0,80,0,1
29148,-100,4,1,0,80,0,0
87330,-100,4,1,0,80,0,1
145512,-100,4,1,0,80,0,0
174603,-100,4,1,0,80,0,1
203694,-100,4,1,0,80,0,0

[Colours]
Combo1 : 0,0,255
Combo2 : 255,0,0

[HitObjects]
160,132,7330,5,0,0:0:0:0:
160,132,7785,1,0,0:0:0:0:
160,132,8239,5,8,0:0:0:0:
160,132,8694,5,0,0:0:0:0:
160,132,8921,1,0,0:0:0:0:
160,132,9148,1,0,0:0:0:0:
160,132,9603,1,0,0:0:0:0:
160,132,10058,5,8,0:0:0:0:
160,132,10967,5,0,0:0:0:0:
160,132,11876,5,8,0:0:0:0:
160,132,12330,5,0,0:0:0:0:
160,132,12558,1,0,0:0:0:0:
160,132,12785,1,0,0:0:0:0:
160,132,13239,1,0,0:0:0:0:
160,132,13694,5,8,0:0:0:0:
160,132,14603,5,4,0:0:0:0:
160,132,15058,5,8,0:0:0:0:
160,132,15285,5,0,0:0:0:0:
160,132,15512,1,0,0:0:0:0:
160,132,16421,1,0,0:0:0:0:
160,132,16876,5,8,0:0:0:0:
160,132,17330,5,0,0:0:0:0:
160,132,18239,1,0,0:0:0:0:
144,132,18694,1,0,0:0:0:0:
160,132,19148,5,8,0:0:0:0:
160,132,20058,5,0,0:0:0:0:
160,132,20512,1,0,0:0:0:0:
160,132,20739,1,0,0:0:0:0:
160,132,20967,1,0,0:0:0:0:
160,132,21421,5,8,0:0:0:0:
160,132,21876,5,0,0:0:0:0:
148,132,22330,5,8,0:0:0:0:
160,132,22785,5,0,0:0:0:0:
160,132,23239,1,0,0:0:0:0:
160,132,23694,1,0,0:0:0:0:
160,132,24148,5,8,0:0:0:0:
160,132,24603,5,0,0:0:0:0:
160,132,25512,5,8,0:0:0:0:
160,132,25739,5,0,0:0:0:0:
160,132,25967,1,0,0:0:0:0:
160,132,26421,5,8,0:0:0:0:
160,132,27330,5,0,0:0:0:0:
160,132,27785,1,0,0:0:0:0:
160,132,28239,5,8,0:0:0:0:
160,132,29148,5,4,0:0:0:0:
160,132,29603,5,8,0:0:0:0:
160,132,30058,5,0,0:0:0:0:
160,132,30967,1,0,0:0:0:0:
160,132,31421,5,8,0:0:0:0:
160,132,31876,5,0,0:0:0:0:
160,132,32785,1,0,0:0:0:0:
160,132,33239,1,0,0:0:0:0:
160,132,33694,1,0,0:0:0:0:
160,132,34603,1,0,0:0:0:0:
160,132,34830,1,0,0:0:0:0:
160,132,35058,5,8,0:0:0:0:
160,132,35512,5,0,0:0:0:0:
160,132,36421,1,0,0:0:0:0:
64,140,36876,1,0,0:0:0:0:
160,132,37330,1,0,0:0:0:0:
160,132,38239,1,0,0:0:0:0:
160,132,38694,1,0,0:0:0:0:
160,132,38921,1,0,0:0:0:0:
160,132,39148,1,0,0:0:0:0:
160,132,40057,1,0,0:0:0:0:
160,132,40512,5,8,0:0:0:0:
160,132,41194,5,0,0:0:0:0:
160,132,41421,5,8,0:0:0:0:
160,132,41876,5,0,0:0:0:0:
160,132,42330,5,8,0:0:0:0:
160,132,43012,5,0,0:0:0:0:
160,132,43239,5,8,0:0:0:0:
160,132,43694,5,4,0:0:0:0:
160,132,44148,5,8,0:0:0:0:
160,132,44603,5,0,0:0:0:0:
160,132,45512,1,0,0:0:0:0:
160,132,45967,5,8,0:0:0:0:
160,132,46421,5,0,0:0:0:0:
160,132,46876,1,0,0:0:0:0:
160,132,47330,1,0,0:0:0:0:
160,132,47785,5,8,0:0:0:0:
160,132,48239,5,0,0:0:0:0:
160,132,49148,1,0,0:0:0:0:
160,132,49603,1,0,0:0:0:0:
160,132,50057,5,8,0:0:0:0:
160,132,50967,5,0,0:0:0:0:
160,132,51421,5,8,0:0:0:0:
160,132,51876,5,0,0:0:0:0:
160,132,52785,1,0,0:0:0:0:
160,132,53239,5,8,0:0:0:0:
160,132,53694,5,0,0:0:0:0:
160,132,54603,1,0,0:0:0:0:
160,132,55057,1,0,0:0:0:0:
160,132,55512,5,8,0:0:0:0:
160,132,56421,5,0,0:0:0:0:
160,132,56876,1,0,0:0:0:0:
160,132,57330,1,0,0:0:0:0:
160,132,57557,1,0,0:0:0:0:
160,132,57785,1,0,0:0:0:0:
160,132,58239,1,4,0:0:0:0:
160,132,58694,1,0,0:0:0:0:
160,132,59148,5,8,0:0:0:0:
160,132,60057,5,0,0:0:0:0:
160,132,60512,5,8,0:0:0:0:
160,132,60967,5,0,0:0:0:0:
160,132,61876,1,0,0:0:0:0:
160,132,62330,5,8,0:0:0:0:
160,132,62785,5,0,0:0:0:0:
160,132,63694,1,0,0:0:0:0:
160,132,64148,1,0,0:0:0:0:
160,132,64376,1,0,0:0:0:0:
160,132,64603,5,8,0:0:0:0:
160,132,65512,5,0,0:0:0:0:
160,132,65967,5,8,0:0:0:0:
160,132,66421,5,0,0:0:0:0:
160,132,66876,5,8,0:0:0:0:
160,132,67330,5,0,0:0:0:0:
148,128,67785,5,8,0:0:0:0:
160,132,68239,5,0,0:0:0:0:
160,132,69148,1,0,0:0:0:0:
160,132,69603,5,8,0:0:0:0:
160,132,70057,5,0,0:0:0:0:
160,132,70285,1,0,0:0:0:0:
160,132,70512,5,8,0:0:0:0:
160,132,70967,5,0,0:0:0:0:
160,132,71421,5,8,0:0:0:0:
160,132,71876,5,0,0:0:0:0:
160,132,72785,1,4,0:0:0:0:
160,132,73239,5,8,0:0:0:0:
160,132,73921,5,0,0:0:0:0:
160,132,74148,5,8,0:0:0:0:
160,132,74603,5,0,0:0:0:0:
160,132,75057,5,8,0:0:0:0:
160,132,75739,5,0,0:0:0:0:
160,132,75967,5,8,0:0:0:0:
160,132,76421,5,0,0:0:0:0:
160,132,76876,5,8,0:0:0:0:
160,132,77557,5,0,0:0:0:0:
160,132,77785,5,8,0:0:0:0:
160,132,78239,5,0,0:0:0:0:
160,132,78694,5,8,0:0:0:0:
160,132,78921,5,0,0:0:0:0:
160,132,79376,1,0,0:0:0:0:
160,132,79603,5,8,0:0:0:0:
160,132,80057,5,0,0:0:0:0:
160,132,80512,5,8,0:0:0:0:
160,132,80967,5,0,0:0:0:0:
160,132,81421,5,8,0:0:0:0:
160,132,82330,1,8,0:0:0:0:
160,132,82785,5,0,0:0:0:0:
160,132,83239,5,8,0:0:0:0:
160,132,84148,1,8,0:0:0:0:
160,132,84603,5,0,0:0:0:0:
160,132,85057,5,8,0:0:0:0:
160,132,85967,1,8,0:0:0:0:
160,132,86421,5,0,0:0:0:0:
160,132,86876,5,8,0:0:0:0:
160,132,87330,5,4,0:0:0:0:
160,132,88012,5,8,0:0:0:0:
160,132,88239,5,0,0:0:0:0:
160,132,89148,1,0,0:0:0:0:
160,132,89830,5,8,0:0:0:0:
160,132,90057,5,0,0:0:0:0:
160,132,90285,1,0,0:0:0:0:
160,132,90967,1,0,0:0:0:0:
160,132,91648,5,8,0:0:0:0:
160,132,91876,5,0,0:0:0:0:
160,132,92330,5,8,0:0:0:0:
160,132,92785,5,0,0:0:0:0:
160,132,93467,5,8,0:0:0:0:
160,132,93694,5,0,0:0:0:0:
160,132,93921,1,0,0:0:0:0:
160,132,94603,1,0,0:0:0:0:
160,132,95058,5,8,0:0:0:0:
160,132,95512,5,0,0:0:0:0:
160,132,95739,1,0,0:0:0:0:
160,132,96421,1,0,0:0:0:0:
160,132,96876,5,8,0:0:0:0:
160,132,97103,5,0,0:0:0:0:
160,132,97330,1,0,0:0:0:0:
160,132,97785,5,8,0:0:0:0:
160,132,98239,5,0,0:0:0:0:
160,132,98694,5,8,0:0:0:0:
160,132,99376,5,0,0:0:0:0:
160,132,99603,5,8,0:0:0:0:
160,132,99830,5,0,0:0:0:0:
160,132,100512,5,8,0:0:0:0:
160,132,101194,5,0,0:0:0:0:
160,132,101421,5,8,0:0:0:0:
160,132,101876,5,4,0:0:0:0:
160,132,102330,5,8,0:0:0:0:
160,132,103012,5,0,0:0:0:0:
160,132,103239,5,8,0:0:0:0:
160,132,103694,5,0,0:0:0:0:
160,132,104148,5,8,0:0:0:0:
160,132,104830,5,0,0:0:0:0:
160,132,105058,5,8,0:0:0:0:
160,132,105967,1,8,0:0:0:0:
160,132,106876,1,8,0:0:0:0:
160,132,107785,1,8,0:0:0:0:
160,132,108694,1,8,0:0:0:0:
160,132,108921,5,0,0:0:0:0:
160,132,109148,1,0,0:0:0:0:
160,132,109603,5,8,0:0:0:0:
160,132,110285,5,0,0:0:0:0:
160,132,110512,5,8,0:0:0:0:
160,132,110967,5,0,0:0:0:0:
160,132,111421,5,8,0:0:0:0:
160,132,112103,5,0,0:0:0:0:
160,132,112330,5,8,0:0:0:0:
160,132,112785,5,0,0:0:0:0:
160,132,113239,5,8,0:0:0:0:
160,132,113694,5,0,0:0:0:0:
160,132,114148,5,8,0:0:0:0:
160,132,114603,5,0,0:0:0:0:
160,132,115058,5,8,0:0:0:0:
160,132,115285,5,0,0:0:0:0:
160,132,115967,5,8,0:0:0:0:
160,132,116421,5,4,0:0:0:0:
160,132,116876,5,8,0:0:0:0:
160,132,117558,5,0,0:0:0:0:
160,132,117785,5,8,0:0:0:0:
160,132,118239,5,0,0:0:0:0:
160,132,118694,5,8,0:0:0:0:
160,132,118921,5,0,0:0:0:0:
160,132,119603,5,8,0:0:0:0:
160,132,120058,5,0,0:0:0:0:
160,132,120512,5,8,0:0:0:0:
160,132,120967,5,0,0:0:0:0:
160,132,121421,5,8,0:0:0:0:
160,132,121876,5,0,0:0:0:0:
160,132,122785,1,0,0:0:0:0:
160,132,123694,1,0,0:0:0:0:
160,132,124148,5,8,0:0:0:0:
160,132,124603,5,0,0:0:0:0:
160,132,125058,5,8,0:0:0:0:
160,132,125512,5,0,0:0:0:0:
160,132,126421,1,0,0:0:0:0:
160,132,127330,1,0,0:0:0:0:
160,132,127785,5,8,0:0:0:0:
160,132,128239,5,0,0:0:0:0:
160,132,128467,1,0,0:0:0:0:
160,132,128694,5,8,0:0:0:0:
160,132,129148,5,0,0:0:0:0:
160,132,129603,5,8,0:0:0:0:
160,132,130058,5,0,0:0:0:0:
160,132,130967,1,4,0:0:0:0:
160,132,131421,5,8,0:0:0:0:
160,132,131876,5,0,0:0:0:0:
160,132,132103,1,0,0:0:0:0:
160,132,132330,5,8,0:0:0:0:
160,132,132785,5,0,0:0:0:0:
160,132,133239,5,8,0:0:0:0:
160,132,133694,5,0,0:0:0:0:
160,132,134603,1,0,0:0:0:0:
160,132,135058,5,8,0:0:0:0:
160,132,135739,5,0,0:0:0:0:
160,132,135967,5,8,0:0:0:0:
160,132,136421,5,0,0:0:0:0:
160,132,137330,1,0,0:0:0:0:
160,132,138239,1,0,0:0:0:0:
160,132,138694,5,8,0:0:0:0:
160,132,139148,5,0,0:0:0:0:
160,132,139603,5,8,0:0:0:0:
160,132,140058,5,0,0:0:0:0:
160,132,140512,5,8,0:0:0:0:
160,132,140739,1,8,0:0:0:0:
160,132,140967,5,0,0:0:0:0:
160,132,141421,5,8,0:0:0:0:
160,132,141876,5,0,0:0:0:0:
160,132,142785,1,0,0:0:0:0:
160,132,143239,5,8,0:0:0:0:
160,132,143694,5,0,0:0:0:0:
160,132,144148,5,8,0:0:0:0:
160,132,144603,5,0,0:0:0:0:
160,132,145512,1,4,0:0:0:0:
160,132,145967,5,8,0:0:0:0:
160,132,146421,5,0,0:0:0:0:
160,132,146648,1,0,0:0:0:0:
160,132,146876,1,0,0:0:0:0:
160,132,147330,1,0,0:0:0:0:
160,132,147785,5,8,0:0:0:0:
160,132,148239,5,0,0:0:0:0:
160,132,149148,1,0,0:0:0:0:
160,132,149603,5,8,0:0:0:0:
160,132,150285,5,0,0:0:0:0:
160,132,150512,5,8,0:0:0:0:
160,132,151421,1,8,0:0:0:0:
160,132,152330,1,8,0:0:0:0:
160,132,152557,1,8,0:0:0:0:
160,132,152785,5,0,0:0:0:0:
160,132,153239,5,8,0:0:0:0:
148,132,153694,5,0,0:0:0:0:
160,132,154148,5,8,0:0:0:0:
160,132,155057,1,8,0:0:0:0:
160,132,155967,1,8,0:0:0:0:
160,132,156421,5,0,0:0:0:0:
160,132,156876,5,8,0:0:0:0:
160,132,157330,5,0,0:0:0:0:
160,132,157557,1,0,0:0:0:0:
160,132,157785,5,8,0:0:0:0:
160,132,158239,5,0,0:0:0:0:
160,132,158694,5,8,0:0:0:0:
160,132,159148,5,0,0:0:0:0:
160,132,159376,1,0,0:0:0:0:
160,132,159603,5,8,0:0:0:0:
160,132,160057,5,4,0:0:0:0:
160,132,160967,1,0,0:0:0:0:
160,132,161194,1,0,0:0:0:0:
160,132,161421,5,8,0:0:0:0:
160,132,161876,5,0,0:0:0:0:
160,132,162330,5,8,0:0:0:0:
160,132,162785,5,0,0:0:0:0:
160,132,163012,1,0,0:0:0:0:
160,132,163239,5,8,0:0:0:0:
160,132,163694,5,0,0:0:0:0:
160,132,164603,5,8,0:0:0:0:
160,132,165057,1,8,0:0:0:0:
160,132,165512,5,0,0:0:0:0:
160,132,165967,5,8,0:0:0:0:
160,132,166194,5,0,0:0:0:0:
160,132,166421,5,8,0:0:0:0:
160,132,166876,1,8,0:0:0:0:
160,132,167330,5,0,0:0:0:0:
160,132,168239,1,0,0:0:0:0:
160,132,168467,1,0,0:0:0:0:
160,132,168694,5,8,0:0:0:0:
160,132,169148,5,0,0:0:0:0:
160,132,169603,5,8,0:0:0:0:
160,132,170057,5,0,0:0:0:0:
160,132,170285,1,0,0:0:0:0:
160,132,170512,5,8,0:0:0:0:
160,132,170967,5,0,0:0:0:0:
160,132,171876,1,0,0:0:0:0:
160,132,172103,1,0,0:0:0:0:
160,132,172330,5,8,0:0:0:0:
160,132,172785,5,0,0:0:0:0:
160,132,173239,5,8,0:0:0:0:
160,132,173694,5,0,0:0:0:0:
160,132,173921,1,0,0:0:0:0:
160,132,174148,5,8,0:0:0:0:
160,132,174603,5,4,0:0:0:0:
160,132,175057,5,8,0:0:0:0:
160,132,175512,5,0,0:0:0:0:
160,132,176421,1,0,0:0:0:0:
160,132,176876,1,0,0:0:0:0:
160,132,177103,1,0,0:0:0:0:
160,132,177330,1,0,0:0:0:0:
160,132,177785,1,0,0:0:0:0:
160,132,178239,1,0,0:0:0:0:
160,132,178694,5,8,0:0:0:0:
160,132,179148,5,0,0:0:0:0:
160,132,179376,1,0,0:0:0:0:
160,132,179603,5,8,0:0:0:0:
160,132,180057,5,0,0:0:0:0:
160,132,180512,5,8,0:0:0:0:
160,132,180967,5,0,0:0:0:0:
160,132,181194,1,0,0:0:0:0:
160,132,181421,5,8,0:0:0:0:
160,132,181876,5,0,0:0:0:0:
160,132,182785,1,0,0:0:0:0:
160,132,183239,5,8,0:0:0:0:
160,132,183694,5,0,0:0:0:0:
160,132,184148,5,8,0:0:0:0:
160,132,184376,5,0,0:0:0:0:
160,132,184603,1,0,0:0:0:0:
160,132,185512,1,0,0:0:0:0:
160,132,185967,5,8,0:0:0:0:
160,132,186421,5,0,0:0:0:0:
160,132,186876,5,8,0:0:0:0:
160,132,187330,5,0,0:0:0:0:
160,132,187785,5,8,0:0:0:0:
160,132,188694,1,8,0:0:0:0:
160,132,189148,5,4,0:0:0:0:
160,132,189603,5,8,0:0:0:0:
160,132,189830,5,0,0:0:0:0:
160,132,190057,5,8,0:0:0:0:
160,132,190512,1,8,0:0:0:0:
160,132,190967,5,0,0:0:0:0:
160,132,191421,5,8,0:0:0:0:
160,132,191648,5,0,0:0:0:0:
160,132,191876,5,8,0:0:0:0:
160,132,192785,5,0,0:0:0:0:
160,132,193239,5,8,0:0:0:0:
160,132,193467,5,0,0:0:0:0:
160,132,193694,5,8,0:0:0:0:
160,132,194148,1,8,0:0:0:0:
160,132,194603,5,0,0:0:0:0:
160,132,195057,5,8,0:0:0:0:
160,132,195512,5,0,0:0:0:0:
160,132,196421,1,0,0:0:0:0:
160,132,196876,5,8,0:0:0:0:
160,132,197330,5,0,0:0:0:0:
160,132,198012,1,0,0:0:0:0:
160,132,198239,1,0,0:0:0:0:
160,132,198694,5,8,0:0:0:0:
160,132,199148,5,0,0:0:0:0:
160,132,200057,1,0,0:0:0:0:
160,132,200512,5,8,0:0:0:0:
160,132,200967,5,0,0:0:0:0:
160,132,201648,1,0,0:0:0:0:
160,132,201876,1,0,0:0:0:0:
160,132,202330,5,8,0:0:0:0:
160,132,202785,5,0,0:0:0:0:
160,132,203012,1,0,0:0:0:0:
160,132,203239,5,8,0:0:0:0:
160,132,203694,5,4,0:0:0:0:
160,132,204148,5,8,0:0:0:0:
160,132,204603,5,0,0:0:0:0:
160,132,205057,5,8,0:0:0:0:
160,132,205512,5,0,0:0:0:0:
160,132,206421,1,0,0:0:0:0:
160,132,206648,1,0,0:0:0:0:
160,132,206876,5,8,0:0:0:0:
160,132,207330,5,0,0:0:0:0:
160,132,207785,5,8,0:0:0:0:
160,132,208239,5,0,0:0:0:0:
160,132,208694,5,8,0:0:0:0:
160,132,209148,5,0,0:0:0:0:
160,132,209603,5,8,0:0:0:0:
160,132,209830,1,8,0:0:0:0:
160,132,210057,5,0,0:0:0:0:
160,132,210967,1,0,0:0:0:0:
160,132,211421,5,8,0:0:0:0:
160,132,211876,5,0,0:0:0:0:
160,132,212330,5,8,0:0:0:0:
160,132,212785,5,0,0:0:0:0:
160,132,213694,5,8,0:0:0:0:
160,132,214603,5,0,0:0:0:0:
160,132,215057,5,8,0:0:0:0:
160,132,215512,5,0,0:0:0:0:
160,132,215967,5,8,0:0:0:0:
160,132,216421,5,0,0:0:0:0:
160,132,217330,5,8,0:0:0:0:
160,132,218239,5,4,0:0:0:0:
160,132,218694,5,8,0:0:0:0:
160,132,219148,5,0,0:0:0:0:
160,132,219603,5,8,0:0:0:0:
160,132,220057,5,0,0:0:0:0:
160,132,220967,5,8,0:0:0:0:
160,132,221876,5,0,0:0:0:0:
160,132,222785,1,0,0:0:0:0:
160,132,223694,1,0,0:0:0:0:
160,132,224603,1,0,0:0:0:0:
160,132,225512,1,0,0:0:0:0:
160,132,226194,5,8,0:0:0:0:
160,132,226876,5,0,0:0:0:0:
160,132,227330,1,0,0:0:0:0:
160,132,228012,5,8,0:0:0:0:
160,132,228694,1,8,0:0:0:0:
160,132,229148,5,0,0:0:0:0:
160,132,229830,5,8,0:0:0:0:
160,132,230512,5,0,0:0:0:0:
160,132,230967,1,0,0:0:0:0:
160,132,231648,5,8,0:0:0:0:
160,132,232330,1,8,0:0:0:0:
160,132,232785,5,4,0:0:0:0:
256,192,233239,12,0,234603,0:0:0:0:
