osu file format v5

[General]
AudioFilename: Realize_Realizemp3_ - Melody.mp3
AudioLeadIn: 0
PreviewTime: -1
Countdown: 1
SampleSet: Soft
StackLeniency: 0.7
Mode: 0
LetterboxInBreaks: 1
EditorDistanceSpacing: 1

[Metadata]
Title:Realize
Artist:Melody
Creator:Nagato_Yuki
Version:Normal
Source:
Tags:

[Difficulty]
HPDrainRate:7
CircleSize:5
OverallDifficulty:5
SliderMultiplier:1.4
SliderTickRate:1

[Events]
//Background and Video events
0,0,"57667513a8af948c159117a1ea2efba4_l.jpg"
Video,0,"movie.avi"
//Break Periods
//Storyboard Layer 0 (Background)
//Storyboard Layer 1 (Fail)
//Storyboard Layer 2 (Pass)
//Storyboard Layer 3 (Foreground)
//Storyboard Sound Samples
//Background Colour Transformations
3,100,163,162,255

[TimingPoints]
257,504.201680672269,3,2,0,100,1,0

[HitObjects]
48,192,8319,1,0
160,192,8823,1,0
272,192,9327,1,0
352,192,9705,1,0
432,192,10084,1,0
488,192,10336,1,0
256,80,12857,6,0,B|96:80,1,140
256,296,13865,6,0,B|400:296,1,140
256,192,14689,12,0,17399
48,80,19411,5,0
48,280,19915,1,0
48,184,20420,1,0
392,304,20924,1,0
280,304,21176,1,0
176,304,21428,1,0
176,240,21680,1,8
176,240,21932,6,4,B|176:152,1,70
256,192,22441,5,8
328,152,22705,6,4,B|328:240,1,70
48,192,23445,5,2
128,80,23949,1,8
208,192,24453,1,2
464,296,24957,2,0,B|368:296,2,70
464,296,25714,1,0
392,296,25971,1,8
320,296,26218,1,0
248,224,26470,2,0,B|248:312,2,70
64,88,27478,6,2,B|208:88,2,140
200,88,28991,1,12
272,88,29243,1,12
344,88,29495,1,12
416,88,29747,1,2
416,160,30000,2,8,B|520:160,1,70
368,160,30504,1,4
328,160,30756,2,8,B|240:160,1,70
256,304,31512,5,2
360,256,32016,1,2
424,152,32521,1,8
296,72,32773,2,2,B|224:72,2,70
368,72,33554,1,8
368,136,33781,1,4
296,136,34033,1,8
296,208,34285,1,8
224,208,34537,1,4
224,280,34789,1,4
144,280,35066,1,4
296,280,35546,1,8
64,80,36302,5,8
96,80,36428,1,8
128,80,36554,1,8
232,80,36932,1,8
336,80,37310,1,8
464,80,37563,2,0,B|464:296,1,210
392,288,38571,1,0
320,288,38823,1,0
248,288,39075,1,0
48,96,39579,6,2,B|160:96,2,105
216,96,40588,2,0,B|335:96,1,105,0|0
424,96,41344,1,0
424,168,41596,1,0
464,288,42352,6,4,B|368:288,3,70
64,192,43613,1,14
144,192,43949,1,14
224,192,44285,1,14
304,192,44621,1,14
384,192,44957,1,14
464,192,45294,1,14
256,192,45882,12,0,49411
256,192,49915,5,4
256,192,50420,5,6
328,192,50672,5,0
464,192,51176,1,0
384,304,51680,1,2
280,304,52058,1,2
176,304,52436,2,8,B|80:304,1,70
32,176,53193,1,0
32,64,53697,2,0,B|32:192,1,105
32,304,54453,2,0,B|32:208,1,70
432,64,55214,5,8
360,64,55462,1,0
288,64,55714,1,0
288,136,55966,2,0,B|288:288,1,140
216,272,56727,1,8
216,192,56979,1,8
128,192,57231,1,8
64,96,57672,1,4
184,96,58114,1,4
288,96,58492,1,4
360,96,58744,1,4
432,304,59243,5,8
304,304,59495,1,8
176,304,59747,1,8
48,304,60000,1,10
48,304,60252,2,10,B|48:208,2,70
48,80,61260,2,10,B|192:80,3,140
448,80,63277,6,2,B|448:224,1,140
448,288,64033,1,8
368,288,64285,1,8
288,288,64537,1,8
192,288,64789,2,8,B|48:288,1,140
48,208,65546,1,0
48,128,65798,1,0
48,128,66176,1,0
48,48,66554,2,0,B|128:48,1,70
432,64,67310,5,4
432,160,67815,1,4
432,272,68193,1,0
432,272,68445,2,4,B|304:272,1,105
48,256,69327,5,2
48,160,69831,1,2
48,160,70336,1,2
48,64,70840,1,2
256,32,71344,6,8,B|256:176,1,140
256,304,72352,6,8,B|256:160,1,140
256,192,73361,12,8,75882
120,184,77904,5,4
232,184,78324,1,4
328,184,78660,1,4
400,184,78912,1,4
120,304,79920,5,8
256,304,80425,1,8
392,304,80929,1,8
256,304,81433,1,0
184,304,81685,1,8
112,304,81937,1,0
112,232,82189,2,8,L|112:152,1,70
112,88,82693,1,0
184,88,82946,2,8,L|272:88,1,70
320,88,83450,1,8
440,280,83954,6,0,L|288:280,2,140
300,280,85214,1,14
256,192,85467,12,0,87735
256,192,87988,5,8
352,96,88492,1,0
256,192,88996,1,8
392,192,89500,2,8,L|392:264,1,70
392,328,90004,1,8
56,72,90509,6,8,L|128:72,1,70
192,72,91013,1,0
272,72,91265,2,8,L|352:72,1,70
472,328,92021,5,0
40,328,92525,1,0
256,64,93030,1,0
256,192,93282,12,0,95214
224,192,95551,5,4
296,192,95803,5,4
440,312,96811,5,8
440,240,97063,1,0
368,240,97315,2,8,L|224:240,1,140
160,240,98072,1,8
72,240,98324,2,8,L|72:88,1,140
