osu file format v12

[General]
AudioFilename: 05 05 1.mp3
AudioLeadIn: 0
PreviewTime: -1
Countdown: 0
SampleSet: Normal
StackLeniency: 0.7
Mode: 1
LetterboxInBreaks: 0

[Editor]
DistanceSpacing: 0.8
BeatDivisor: 4
GridSize: 8

[Metadata]
Title:Snow Goose -Ultimate Rock Style-
TitleUnicode:Snow Goose -Ultimate Rock Style-
Artist:Melo
ArtistUnicode:Melo
Creator:wmfchris
Version:Futsuu
Source:jubeat
Tags:Haloweak Mutsuhiko Izumi remix
BeatmapID:217818
BeatmapSetID:51539

[Difficulty]
HPDrainRate:5
CircleSize:5
OverallDifficulty:5
ApproachRate:5
SliderMultiplier:1.4
SliderTickRate:1

[Events]
//Background and Video events
0,0,"snow_goose2.jpg",0,0
//Break Periods
//Storyboard Layer 0 (Background)
//Storyboard Layer 1 (Fail)
//Storyboard Layer 2 (Pass)
//Storyboard Layer 3 (Foreground)
//Storyboard Sound Samples
//Background Colour Transformations
3,100,163,162,255

[TimingPoints]
3399,333.333333333333,4,1,0,60,1,0
27369,333.333333333333,4,1,0,60,1,0
52708,333.333333333333,4,1,0,60,1,0

[Colours]
Combo1 : 45,88,228
Combo2 : 6,147,215

[HitObjects]
480,88,3398,1,4,0:0:0:0:
480,88,4065,1,2,0:0:0:0:
480,88,4398,1,0,0:0:0:0:
480,88,4732,1,2,0:0:0:0:
480,88,5065,1,0,0:0:0:0:
480,88,5398,1,2,0:0:0:0:
480,88,5732,1,0,0:0:0:0:
480,88,6065,1,2,0:0:0:0:
480,88,6565,1,0,0:0:0:0:
480,88,7065,1,0,0:0:0:0:
480,88,7398,1,2,0:0:0:0:
480,88,7732,1,0,0:0:0:0:
480,88,8065,1,2,0:0:0:0:
480,88,8398,1,0,0:0:0:0:
480,88,8732,1,0,0:0:0:0:
480,88,9232,1,0,0:0:0:0:
480,88,9732,1,2,0:0:0:0:
480,88,10065,1,0,0:0:0:0:
480,88,10565,1,2,0:0:0:0:
480,88,11065,1,2,0:0:0:0:
480,88,11398,1,0,0:0:0:0:
480,88,11732,1,2,0:0:0:0:
480,88,12065,1,2,0:0:0:0:
480,88,12398,1,0,0:0:0:0:
480,88,12732,1,2,0:0:0:0:
480,88,13065,1,0,0:0:0:0:
480,88,13398,1,2,0:0:0:0:
480,88,13732,1,0,0:0:0:0:
480,88,14065,1,0,0:0:0:0:
480,88,14732,1,2,0:0:0:0:
480,88,15065,1,2,0:0:0:0:
480,88,15398,1,2,0:0:0:0:
480,88,15732,1,0,0:0:0:0:
480,88,16065,1,2,0:0:0:0:
480,88,16398,1,0,0:0:0:0:
480,88,16732,1,2,0:0:0:0:
480,88,17232,1,2,0:0:0:0:
480,88,17732,1,2,0:0:0:0:
480,88,18065,1,2,0:0:0:0:
480,88,18398,1,0,0:0:0:0:
480,88,18732,1,2,0:0:0:0:
480,88,19065,1,0,0:0:0:0:
480,88,19398,1,2,0:0:0:0:
480,88,19898,1,2,0:0:0:0:
480,88,20732,1,0,0:0:0:0:
480,88,21232,1,2,0:0:0:0:
480,88,22065,1,0,0:0:0:0:
480,88,22398,1,0,0:0:0:0:
480,88,22732,1,2,0:0:0:0:
480,88,23065,1,0,0:0:0:0:
480,88,23398,1,2,0:0:0:0:
480,88,23732,1,0,0:0:0:0:
480,88,24065,1,2,0:0:0:0:
480,88,24398,1,0,0:0:0:0:
480,88,24732,1,0,0:0:0:0:
480,88,25065,1,2,0:0:0:0:
480,88,25398,1,2,0:0:0:0:
480,88,25732,1,0,0:0:0:0:
480,88,26065,1,0,0:0:0:0:
480,88,27369,1,0,0:0:0:0:
480,88,28035,1,0,0:0:0:0:
480,88,28369,1,2,0:0:0:0:
480,88,28535,1,0,0:0:0:0:
480,88,28702,1,0,0:0:0:0:
480,88,29368,1,0,0:0:0:0:
480,88,29702,1,2,0:0:0:0:
480,88,29868,1,0,0:0:0:0:
480,88,30035,1,0,0:0:0:0:
480,88,30368,1,2,0:0:0:0:
480,88,30702,1,0,0:0:0:0:
480,88,31035,1,0,0:0:0:0:
480,88,31368,1,2,0:0:0:0:
480,88,31702,1,0,0:0:0:0:
480,88,32035,1,2,0:0:0:0:
480,88,32368,1,0,0:0:0:0:
480,88,32702,1,2,0:0:0:0:
480,88,33035,1,2,0:0:0:0:
480,88,33368,1,2,0:0:0:0:
480,88,33702,1,0,0:0:0:0:
480,88,34035,1,0,0:0:0:0:
480,88,34702,1,0,0:0:0:0:
480,88,35035,1,2,0:0:0:0:
480,88,35202,1,0,0:0:0:0:
480,88,35368,1,0,0:0:0:0:
480,88,36035,1,0,0:0:0:0:
480,88,36368,1,0,0:0:0:0:
480,88,36535,1,0,0:0:0:0:
480,88,36702,1,0,0:0:0:0:
480,88,37035,1,2,0:0:0:0:
480,88,37368,1,2,0:0:0:0:
480,88,37702,1,0,0:0:0:0:
480,88,38035,1,2,0:0:0:0:
480,88,38368,1,0,0:0:0:0:
480,88,38702,1,2,0:0:0:0:
480,88,39035,1,0,0:0:0:0:
480,88,39368,1,2,0:0:0:0:
480,88,39702,1,2,0:0:0:0:
480,88,40035,1,2,0:0:0:0:
480,88,40368,1,0,0:0:0:0:
480,88,40702,1,0,0:0:0:0:
480,88,41035,1,0,0:0:0:0:
480,88,41201,1,2,0:0:0:0:
480,88,41702,1,2,0:0:0:0:
480,88,42035,1,0,0:0:0:0:
480,88,42368,1,0,0:0:0:0:
480,88,42535,1,2,0:0:0:0:
480,88,43035,1,0,0:0:0:0:
480,88,43368,1,0,0:0:0:0:
480,88,43702,1,0,0:0:0:0:
480,88,43868,1,2,0:0:0:0:
480,88,44368,1,2,0:0:0:0:
480,88,44702,1,0,0:0:0:0:
480,88,45035,1,0,0:0:0:0:
480,88,45202,1,2,0:0:0:0:
480,88,45702,1,0,0:0:0:0:
480,88,46035,1,4,0:0:0:0:
480,88,46369,1,0,0:0:0:0:
480,88,46535,1,2,0:0:0:0:
480,88,47035,1,2,0:0:0:0:
480,88,47369,1,0,0:0:0:0:
480,88,47702,1,0,0:0:0:0:
480,88,47869,1,2,0:0:0:0:
480,88,48368,1,0,0:0:0:0:
480,88,48701,1,0,0:0:0:0:
480,88,49035,1,0,0:0:0:0:
480,88,49201,1,2,0:0:0:0:
480,88,49701,1,2,0:0:0:0:
480,88,50035,1,0,0:0:0:0:
480,88,50368,1,2,0:0:0:0:
480,88,50702,1,0,0:0:0:0:
480,88,51035,1,2,0:0:0:0:
480,88,51368,1,2,0:0:0:0:
480,88,51702,1,2,0:0:0:0:
480,88,52035,1,0,0:0:0:0:
480,88,52368,1,2,0:0:0:0:
480,88,52708,1,4,0:0:0:0:
480,88,53208,1,2,0:0:0:0:
480,88,53708,1,2,0:0:0:0:
480,88,54041,1,2,0:0:0:0:
480,88,54374,1,0,0:0:0:0:
480,88,54708,1,2,0:0:0:0:
480,88,55041,1,0,0:0:0:0:
480,88,55208,1,0,0:0:0:0:
480,88,55374,1,2,0:0:0:0:
480,88,55874,1,2,0:0:0:0:
480,88,56374,1,0,0:0:0:0:
480,88,56707,1,2,0:0:0:0:
480,88,57041,1,0,0:0:0:0:
480,88,57374,1,2,0:0:0:0:
480,88,57707,1,2,0:0:0:0:
480,88,58041,1,0,0:0:0:0:
480,88,58541,1,2,0:0:0:0:
480,88,59041,1,2,0:0:0:0:
480,88,59374,1,0,0:0:0:0:
480,88,59874,1,0,0:0:0:0:
480,88,60374,1,2,0:0:0:0:
480,88,60707,1,0,0:0:0:0:
480,88,61041,1,0,0:0:0:0:
480,88,61374,1,2,0:0:0:0:
480,88,61707,1,0,0:0:0:0:
480,88,62041,1,2,0:0:0:0:
480,88,62374,1,0,0:0:0:0:
480,88,62707,1,2,0:0:0:0:
480,88,63041,1,0,0:0:0:0:
480,88,63374,1,0,0:0:0:0:
480,88,63874,1,2,0:0:0:0:
480,88,64374,1,2,0:0:0:0:
480,88,64707,1,2,0:0:0:0:
480,88,65041,1,0,0:0:0:0:
480,88,65374,1,2,0:0:0:0:
480,88,65707,1,2,0:0:0:0:
480,88,66041,1,2,0:0:0:0:
480,88,66541,1,2,0:0:0:0:
480,88,67041,1,2,0:0:0:0:
480,88,67374,1,2,0:0:0:0:
480,88,68041,1,0,0:0:0:0:
480,88,68374,1,0,0:0:0:0:
480,88,68707,1,2,0:0:0:0:
480,88,69207,1,2,0:0:0:0:
480,88,70041,1,0,0:0:0:0:
480,88,70541,1,2,0:0:0:0:
480,88,71374,1,0,0:0:0:0:
480,88,72041,1,0,0:0:0:0:
480,88,72707,1,2,0:0:0:0:
480,88,73374,1,2,0:0:0:0:
480,88,73707,1,0,0:0:0:0:
480,88,74041,1,2,0:0:0:0:
480,88,74207,1,0,0:0:0:0:
480,88,74541,1,0,0:0:0:0:
480,88,74874,1,0,0:0:0:0:
480,88,75207,1,0,0:0:0:0:
480,88,75374,1,2,0:0:0:0:
480,88,76041,1,0,0:0:0:0:
480,88,76707,1,2,0:0:0:0:
480,88,76874,1,0,0:0:0:0:
480,88,77207,1,0,0:0:0:0:
480,88,77541,1,0,0:0:0:0:
480,88,77874,1,2,0:0:0:0:
480,88,78041,1,2,0:0:0:0:
480,88,78707,1,0,0:0:0:0:
480,88,79374,1,2,0:0:0:0:
480,88,79541,1,0,0:0:0:0:
480,88,79874,1,0,0:0:0:0:
480,88,80207,1,0,0:0:0:0:
480,88,80541,1,0,0:0:0:0:
480,88,80707,1,2,0:0:0:0:
480,88,81374,1,0,0:0:0:0:
480,88,82041,1,0,0:0:0:0:
480,88,82374,1,2,0:0:0:0:
480,88,82707,1,0,0:0:0:0:
480,88,83041,1,2,0:0:0:0:
480,88,83374,1,2,0:0:0:0:
480,88,83707,1,2,0:0:0:0:
480,88,84041,1,0,0:0:0:0:
480,88,84374,1,2,0:0:0:0:
480,88,84707,1,2,0:0:0:0:
480,88,85041,1,2,0:0:0:0:
480,88,85374,1,0,0:0:0:0:
480,88,85707,1,0,0:0:0:0:
480,88,85874,1,0,0:0:0:0:
480,88,86041,1,2,0:0:0:0:
480,88,86374,1,0,0:0:0:0:
480,88,86707,1,0,0:0:0:0:
480,88,87041,1,0,0:0:0:0:
480,88,87207,1,2,0:0:0:0:
480,88,87374,1,0,0:0:0:0:
480,88,87707,1,2,0:0:0:0:
480,88,88041,1,0,0:0:0:0:
480,88,88374,1,2,0:0:0:0:
480,88,88707,1,2,0:0:0:0:
480,88,89041,1,2,0:0:0:0:
480,88,89374,1,0,0:0:0:0:
480,88,89707,1,0,0:0:0:0:
480,88,90041,1,0,0:0:0:0:
480,88,90374,1,2,0:0:0:0:
480,88,90707,1,0,0:0:0:0:
480,88,91041,1,2,0:0:0:0:
480,88,91207,1,2,0:0:0:0:
480,88,91374,1,0,0:0:0:0:
480,88,91707,1,0,0:0:0:0:
480,88,92041,1,2,0:0:0:0:
480,88,92374,1,2,0:0:0:0:
480,88,92541,1,2,0:0:0:0:
480,88,92707,1,0,0:0:0:0:
480,88,93374,1,0,0:0:0:0:
480,88,94041,1,0,0:0:0:0:
480,88,94374,1,0,0:0:0:0:
480,88,94707,1,2,0:0:0:0:
480,88,95041,1,2,0:0:0:0:
480,88,95374,1,2,0:0:0:0:
480,88,95707,1,2,0:0:0:0:
480,88,96041,1,0,0:0:0:0:
480,88,96374,1,0,0:0:0:0:
480,88,96541,1,0,0:0:0:0:
480,88,96707,1,2,0:0:0:0:
480,88,97041,1,0,0:0:0:0:
480,88,97374,1,0,0:0:0:0:
480,88,97707,1,0,0:0:0:0:
480,88,97874,1,2,0:0:0:0:
480,88,98041,1,0,0:0:0:0:
480,88,98374,1,0,0:0:0:0:
480,88,98707,1,0,0:0:0:0:
480,88,99041,1,2,0:0:0:0:
480,88,99374,1,2,0:0:0:0:
480,88,99707,1,2,0:0:0:0:
480,88,100041,1,0,0:0:0:0:
480,88,100374,1,0,0:0:0:0:
480,88,100707,1,0,0:0:0:0:
480,88,101041,1,0,0:0:0:0:
480,88,101374,1,2,0:0:0:0:
480,88,101707,1,2,0:0:0:0:
480,88,101874,1,2,0:0:0:0:
480,88,102041,1,0,0:0:0:0:
480,88,102374,1,2,0:0:0:0:
480,88,102707,1,0,0:0:0:0:
480,88,103041,1,0,0:0:0:0:
480,88,103207,1,2,0:0:0:0:
480,88,103374,1,0,0:0:0:0:
480,88,104041,1,0,0:0:0:0:
480,88,104707,1,0,0:0:0:0:
480,88,105041,1,0,0:0:0:0:
480,88,105374,1,2,0:0:0:0:
480,88,105707,1,2,0:0:0:0:
480,88,106041,1,6,0:0:0:0:
480,88,106707,1,4,0:0:0:0:
480,88,107207,1,4,0:0:0:0:
480,88,107374,1,6,0:0:0:0:
480,88,108707,1,6,0:0:0:0:
480,88,109374,1,4,0:0:0:0:
480,88,109874,1,6,0:0:0:0:
480,88,110041,1,6,0:0:0:0:
480,88,111374,1,6,0:0:0:0:
480,88,112041,1,4,0:0:0:0:
480,88,112541,1,4,0:0:0:0:
480,88,112707,1,6,0:0:0:0:
480,88,114041,1,0,0:0:0:0:
480,88,114374,1,0,0:0:0:0:
480,88,114707,1,2,0:0:0:0:
480,88,115041,1,2,0:0:0:0:
480,88,115374,1,0,0:0:0:0:
480,88,115707,1,2,0:0:0:0:
480,88,116041,1,2,0:0:0:0:
480,88,116374,1,2,0:0:0:0:
480,88,119374,1,0,0:0:0:0:
480,88,120041,1,2,0:0:0:0:
480,88,120707,1,0,0:0:0:0:
480,88,121374,1,2,0:0:0:0:
480,88,122041,1,0,0:0:0:0:
480,88,122374,1,0,0:0:0:0:
480,88,122707,1,2,0:0:0:0:
480,88,123041,1,2,0:0:0:0:
480,88,123374,1,0,0:0:0:0:
480,88,123707,1,0,0:0:0:0:
480,88,124040,1,2,0:0:0:0:
480,88,124374,1,2,0:0:0:0:
480,88,124707,1,2,0:0:0:0:
480,88,125041,1,0,0:0:0:0:
480,88,125207,1,0,0:0:0:0:
480,88,125374,1,2,0:0:0:0:
480,88,125707,1,0,0:0:0:0:
480,88,126041,1,0,0:0:0:0:
480,88,126707,1,2,0:0:0:0:
480,88,127041,1,0,0:0:0:0:
480,88,127374,1,0,0:0:0:0:
480,88,128041,1,2,0:0:0:0:
480,88,128374,1,0,0:0:0:0:
480,88,128707,1,0,0:0:0:0:
480,88,129374,1,2,0:0:0:0:
480,88,129707,1,2,0:0:0:0:
480,88,130041,1,0,0:0:0:0:
256,192,130374,12,0,132624,0:0:0:0:
480,88,133374,5,0,0:0:0:0:
480,88,133874,1,2,0:0:0:0:
480,88,134374,1,6,0:0:0:0:
