osu file format v6

[General]
AudioFilename: catchyoutube_com.mp3
AudioLeadIn: 0
PreviewTime: -1
Countdown: 1
SampleSet: Soft
StackLeniency: 1
Mode: 0
LetterboxInBreaks: 1

[Editor]
Bookmarks: 14586,27863,34715,45422,67981,73679,75578,78186,80756
DistanceSpacing: 0.800000011920929
BeatDivisor: 4
GridSize: 32

[Metadata]
Title:Red Fraction
Artist:Mell
Creator:Yozora
Version:Normal
Source:
Tags:

[Difficulty]
HPDrainRate:4
CircleSize:5
OverallDifficulty:2
SliderMultiplier:1.4
SliderTickRate:0.5

[Events]
//Background and Video events
Video,0,"catchyoutube_com.mpg"
0,0,"blacklagoon.jpg"
//Break Periods
2,27849,33729
2,73879,78923
//Storyboard Layer 0 (Background)
//Storyboard Layer 1 (Fail)
//Storyboard Layer 2 (Pass)
//Storyboard Layer 3 (Foreground)
//Storyboard Sound Samples
//Background Colour Transformations
3,100,163,162,255

[TimingPoints]
24.965,214.341168996642,4,2,0,67,1,0
48251.999377288,422.029964127453,4,2,0,67,1,0

[HitObjects]
128,96,14600,5,8
320,96,15028,1,8
224,192,15457,1,12
128,288,15886,5,4
320,288,16314,1,4
192,96,16957,6,2,B|352:96,1,140
416,160,17386,6,2,B|480:288,1,140
256,192,17815,12,0,18886
256,224,19315,5,0
256,320,19744,6,4,B|416:288|448:256|480:224|480:192|480:160,1,280
416,96,20601,5,0
384,192,20816,1,0
288,192,21244,5,4
320,128,21459,1,4
288,64,21887,5,4
256,128,22316,1,4
128,160,22745,1,4
64,64,23173,5,0
96,96,23388,1,0
64,128,23602,1,0
96,160,23816,1,0
64,192,24031,1,0
256,192,24459,12,0,27028
256,192,27460,5,0
256,192,27674,1,0
224,160,34748,5,6
288,192,35176,1,10
256,256,35605,1,10
320,256,36034,1,10
384,256,36462,1,10
426,68,37105,5,8
404,52,37320,1,12
85,104,37909,5,12
128,192,38392,1,12
463,329,38820,1,12
404,195,39249,1,12
177,188,39892,5,4
177,188,40106,1,4
177,188,40321,1,4
177,188,40535,1,4
177,188,40749,1,4
177,188,40964,1,4
460,56,41821,6,12,B|499:168|476:270|368:330|207:354|56:276|24:136|12:47|17:81,1,700
208,208,43321,5,12
397,61,43750,1,12
450,44,43964,1,12
477,84,44179,1,12
459,139,44393,1,12
256,192,45250,12,4,48034
256,192,48990,5,0
256,192,49096,1,0
256,192,49201,1,0
96,96,49729,5,8
192,96,49940,1,0
288,96,50151,1,0
448,320,50784,6,4,C|288:256,1,315
64,320,52366,5,8
160,256,52577,1,8
256,192,52788,1,12
256,192,53632,12,8,54476
288,320,55004,6,8,C|64:288|96:32|352:96|384:160|320:256|320:320,1,1015
256,192,58380,12,8,59435
256,192,59857,12,8,61756
384,288,62495,5,8
288,224,62917,1,8
192,288,63128,1,8
288,32,63445,5,8
192,96,63761,1,8
352,96,64078,1,8
260,164,64289,1,0
256,192,65027,12,0,67559
256,192,68403,5,0
256,192,68614,1,0
256,192,68825,1,0
256,192,69036,1,0
256,192,69247,1,0
256,192,69459,1,0
416,64,69986,5,0
416,64,70197,5,0
416,64,70408,5,0
416,64,70619,5,0
416,64,70830,5,0
128,96,71780,2,0,C|128:192,9,70
256,192,80483,12,4,83909
