osu file format v6

[General]
AudioFilename: catchyoutube_com.mp3
AudioLeadIn: 0
PreviewTime: -1
Countdown: 1
SampleSet: Soft
StackLeniency: 0.7
Mode: 0
LetterboxInBreaks: 1

[Editor]
Bookmarks: 14586,27863,34715,47992,58391,61779,71941,75329,80410,82103
DistanceSpacing: 0.800000011920929
BeatDivisor: 3
GridSize: 32

[Metadata]
Title:Red Fraction
Artist:Mell
Creator:Yozora
Version:Hard
Source:
Tags:

[Difficulty]
HPDrainRate:6
CircleSize:6
OverallDifficulty:3
SliderMultiplier:1.4
SliderTickRate:1

[Events]
//Background and Video events
Video,0,"catchyoutube_com.mpg"
0,0,"blacklagoon.jpg"
//Break Periods
2,27849,33729
2,42838,46432
//Storyboard Layer 0 (Background)
//Storyboard Layer 1 (Fail)
//Storyboard Layer 2 (Pass)
//Storyboard Layer 3 (Foreground)
//Storyboard Sound Samples
//Background Colour Transformations
3,100,163,162,255

[TimingPoints]
24.965,214.141168996642,4,2,0,67,1,0
48229.5054456031,423.429781227946,4,2,0,67,1,0

[HitObjects]
128,96,14586,5,8
256,96,14854,1,8
384,96,15068,1,8
384,192,15282,5,12
256,192,15496,1,12
128,192,15710,1,12
128,288,15924,5,4
256,288,16139,1,4
384,288,16353,1,4
192,288,16781,6,2,C|192:160|320:160|320:288,1,385
256,192,17798,12,0,18869
256,224,19297,5,0
256,256,19511,1,0
256,320,19940,6,4,C|160:128|192:160,1,140
64,128,20796,5,0
96,192,21010,1,0
64,256,21224,1,0
96,320,21439,1,0
256,192,21653,12,0,24651
128,256,25079,5,0
160,192,25293,5,0
96,128,25507,1,0
160,128,25721,1,0
448,128,26150,1,0
320,128,26364,1,0
160,192,26685,6,8,C|352:192,1,175
256,192,27488,5,0
256,192,27595,1,0
256,192,27702,1,0
256,192,27809,1,0
448,64,34876,6,0,C|416:96,6,35
256,192,35465,5,8
64,320,35733,6,0,C|96:288,6,35
256,192,36321,1,8
256,192,36428,12,8,37874
96,288,38195,5,12
224,288,38356,1,12
128,224,38891,1,12
192,224,39052,1,12
160,160,39426,1,12
256,192,40069,12,0,41247
224,224,41568,6,0,C|160:288,4,70
288,224,42210,6,0,C|352:288,4,70
256,192,48229,5,8
448,96,48652,1,8
320,32,49076,1,8
192,96,49499,1,8
96,192,49923,1,8
96,320,50346,1,8
192,224,50770,1,8
256,320,51193,1,8
352,224,51616,1,8
416,320,52040,1,8
480,224,52463,1,8
160,192,52887,5,8
256,192,53310,1,8
160,192,53734,1,8
256,192,54157,1,8
416,96,54580,1,8
416,224,55004,5,8
288,288,55427,5,8
160,224,55851,5,8
288,96,56274,5,8
96,128,56698,5,8
352,256,57121,5,8
32,320,57544,5,8
352,64,57968,5,8
256,192,58391,12,8,61779
384,256,62202,6,8,C|256:160,3,140
64,256,63896,6,8,C|96:192|160:224,2,140
352,288,65166,5,8
256,160,65590,1,8
224,288,66013,6,8,C|352:192,1,140
96,64,66860,2,8,C|64:128|128:160,1,140
128,160,67707,1,8
320,256,68271,1,0
320,256,68554,1,0
320,256,68836,1,0
160,32,69118,5,0
128,96,69400,1,0
160,64,69683,1,0
96,320,69965,5,0
192,352,70247,1,0
256,288,70530,1,0
448,96,70812,5,0
320,64,71094,1,0
352,160,71377,1,0
256,192,71941,12,0,75329
96,192,75752,6,0,C|64:96|160:64|256:96,4,280
320,256,80410,6,0,C|224:160,6,93.3333333333333
256,192,83797,1,12
