osu file format v9

[General]
AudioFilename: Melanie Flash - One In A Million (Nightcore Mix).mp3
AudioLeadIn: 0
PreviewTime: 34561
Countdown: 0
SampleSet: Soft
StackLeniency: 0.4
Mode: 0
LetterboxInBreaks: 0

[Editor]
DistanceSpacing: 1.4
BeatDivisor: 4
GridSize: 4

[Metadata]
Title:One in a Million (Nightcore Mix)
Artist:Melanie Flash
Creator:osuplayer111
Version:Relaxing
Source:
Tags:Ballad Version Bosson

[Difficulty]
HPDrainRate:6
CircleSize:4
OverallDifficulty:6
ApproachRate:7
SliderMultiplier:1.4
SliderTickRate:1

[Events]
//Background and Video events
0,0,"Sky.jpg"
//Break Periods
//Storyboard Layer 0 (Background)
//Storyboard Layer 1 (Fail)
//Storyboard Layer 2 (Pass)
//Storyboard Layer 3 (Foreground)
//Storyboard Sound Samples
//Background Colour Transformations
3,100,0,0,160

[TimingPoints]
75,446.428571428571,4,2,1,50,1,0
6771,-133.333333333333,4,2,2,50,0,0
21503,-100,4,2,2,65,0,0
21726,-100,4,2,1,65,0,0
35789,-80,4,2,2,80,0,1
36235,-80,4,2,1,80,0,1
50074,-80,4,2,1,80,0,0
50298,-80,4,2,1,50,0,0
50521,-80,4,2,2,65,0,0
53646,-100,4,2,2,65,0,0
53869,-100,4,2,1,65,0,0
67932,-100,4,2,2,65,0,0
68378,-100,4,2,1,65,0,0
81324,-80,4,2,2,65,0,0
82217,-80,4,2,2,80,0,1
82664,-80,4,2,1,80,0,1
94717,-80,4,2,1,80,0,0
96503,-80,4,2,2,80,0,1
96949,-80,4,2,1,80,0,1
110789,-100,4,2,2,65,0,0
113467,-100,4,2,2,5,0,0
114137,-100,4,2,2,65,0,0
122842,-100,4,2,2,5,0,0
123289,-100,4,2,2,65,0,0

[Colours]
Combo1 : 255,60,60
Combo2 : 53,53,255
Combo3 : 150,45,255
Combo4 : 0,159,80
SliderBorder : 200,200,200

[HitObjects]
208,72,6771,2,0,B|256:50|256:50|304:72,1,104.999996870756,0|2
256,192,7887,1,0
303,312,8557,2,0,B|256:334|256:334|208:312,1,104.999996870756,0|2
256,192,9673,1,0
128,192,10342,6,0,B|72:184|48:128,1,104.999996870756,0|2
256,48,11458,1,0
462,130,12128,2,0,B|440:184|384:192,1,104.999996870756,0|2
320,152,12798,1,0
256,108,13021,1,0
192,152,13244,1,0
256,192,13467,2,0,B|256:256,1,52.4999984353781,2|0
192,280,13914,6,0,B|152:248|152:248|96:248,1,104.999996870756,0|2
256,48,15030,1,0
320,280,15699,2,0,B|360:248|360:248|416:248,1,104.999996870756,0|2
256,336,16816,1,0
256,152,17485,6,0,B|256:48,1,104.999996870756,0|2
192,32,18155,2,0,B|144:72,1,52.4999984353781
320,32,18601,2,0,B|368:72,1,52.4999984353781,0|2
160,136,19048,2,0,B|112:176,1,52.4999984353781
352,136,19494,2,0,B|400:176,1,52.4999984353781,0|2
376,232,19941,1,0
320,256,20164,2,0,B|280:304,1,52.4999984353781
225,296,20610,2,0,B|192:256,1,52.4999984353781,2|0
136,232,21057,1,0
256,40,21503,6,0,B|256:112,1,70,2|2
256,192,21949,1,0
192,248,22173,2,0,B|256:277|256:277|320:248,1,140,2|0
336,168,22842,1,0
256,192,23066,1,0
176,168,23289,5,2
176,88,23512,1,2
256,56,23735,1,0
336,88,23958,2,0,B|408:88|456:152,1,140,2|0
456,232,24628,2,0,B|400:288,1,70
344,336,25074,5,2
296,264,25298,1,2
216,264,25521,1,0
168,336,25744,2,0,B|104:336|104:336|80:304|32:304,1,140,2|0
40,216,26414,1,0
112,168,26637,2,0,B|152:168|176:136,1,70,0|2
256,136,27083,1,2
338,139,27307,2,0,B|360:168|400:168,1,70,0|2
472,216,27753,1,0
304,328,28199,6,0,B|280:288|254:279|254:279|232:288|208:328,1,140,0|2
176,248,28869,1,2
256,208,29092,1,0
336,248,29316,1,2
424,104,29762,6,0,B|392:88|392:88|352:88,1,70
328,168,30208,1,0
256,128,30432,1,2
184,168,30655,1,2
88,104,30878,2,0,B|120:88|120:88|160:88,1,70,0|2
256,208,31548,1,0
256,208,31771,2,0,B|256:352,1,140,0|2
168,344,32441,6,0,B|128:344|128:344|104:320,1,70,2|0
160,256,32887,1,2
184,176,33110,1,0
256,128,33333,1,0
328,176,33557,1,0
352,256,33780,1,0
405,322,34003,2,0,B|384:344|384:344|344:344,1,70,2|2
256,224,34449,6,0,B|256:296,2,70,0|2|0
184,176,35119,1,0
256,128,35342,1,0
328,176,35566,1,0
328,72,35789,6,0,B|255:22|255:22|184:72,1,174.999997392297,6|0
184,176,36458,1,0
256,256,36682,2,0,B|344:256|408:336,1,174.999997392297,8|0
488,264,37351,1,0
408,192,37574,1,4
488,120,37798,2,0,B|440:120|416:80,1,87.4999986961484
336,8,38244,1,0
256,80,38467,6,0,B|192:80|192:80|152:104|152:104|88:104,1,174.999997392297,8|0
24,192,39137,1,0
87,280,39360,2,0,B|152:280|152:280|192:304|192:304|256:304,1,174.999997392297,4|0
360,304,40030,2,0,B|440:344,1,87.4999986961484,0|8
400,192,40476,2,0,B|488:192,1,87.4999986961484
360,80,40923,2,0,B|440:40,2,87.4999986961484,0|4|0
152,80,41816,6,0,B|72:40,2,87.4999986961484,0|8|0
256,112,42485,1,0
204,204,42708,1,0
308,204,42932,2,0,B|285:249|285:249|258:228|258:228|231:251|231:251|203:203,1,174.999997392297,4|0
120,276,43601,2,0,B|72:272|48:316,2,87.4999986961484,0|8|0
204,344,44271,1,0
308,344,44494,1,0
392,276,44717,2,0,B|440:272|464:316,2,87.4999986961484,4|0|0
392,168,45387,6,0,B|456:96,1,87.4999986961484,0|8
344,80,45833,1,0
256,144,46057,2,0,B|256:232,2,87.4999986961484,0|0|4
168,80,46726,1,0
61,102,46949,6,0,B|120:168,1,87.4999986961484
184,248,47396,2,0,B|208:296|168:328,1,87.4999986961484,8|0
256,384,47842,1,0
342,326,48066,2,0,B|304:296|328:248,1,87.4999986961484,0|4
392,168,48512,5,0
352,72,48735,1,0
256,24,48958,1,0
160,72,49182,1,8
120,168,49405,1,0
256,148,49628,2,0,B|256:244,1,87.4999986961484
168,288,50074,6,0,B|120:288|88:328,2,87.4999986961484,4|2|0
256,344,50744,1,0
344,288,50967,2,0,B|392:288|424:328,2,87.4999986961484,2|0|0
256,236,51637,1,0
256,236,51860,1,2
256,104,53199,5,0
256,104,53646,2,0,B|256:32,2,70,2|2|0
256,192,54316,2,0,B|312:192|312:192|336:208|336:208|392:208,1,140,2|0
360,288,54985,2,0,B|304:288|304:288|280:272|280:272|224:272,1,140,2|2
144,272,55655,1,2
64,272,55878,1,0
16,204,56101,2,0,B|72:148|40:76,1,140,2|0
120,48,56771,1,0
288,48,57217,6,0,B|328:48|352:80,1,70,2|2
284,132,57664,1,0
352,184,57887,2,0,B|352:256|352:256|296:296,1,140,2|0
215,295,58557,2,0,B|160:256|160:256|160:184,1,140,2|2
160,104,59226,2,0,B|104:56,2,70,2|0|2
192,24,59896,1,0
256,80,60119,1,0
320,24,60342,1,0
352,104,60566,6,0,B|408:56,2,70,0|2|2
352,280,61458,2,0,B|408:328,1,70,2|0
480,192,62128,2,0,B|336:192,1,140,2|2
256,192,62798,1,2
184,144,63021,1,0
112,96,63244,2,0,B|64:160|112:224,1,140,2|0
184,272,63914,6,0,B|232:208|184:144,1,140,0|2
256,104,64583,1,2
328,144,64807,2,0,B|400:112,1,70,0|2
432,192,65253,1,0
391,268,65476,2,0,B|328:240,1,70,0|2
184,328,66146,2,0,B|112:328,1,70,2|2
32,328,66592,1,0
72,256,66816,2,0,B|104:192,1,70,2|0
144,120,67262,1,0
184,48,67485,6,0,B|328:48,1,140,0|6
448,160,68378,1,0
408,232,68601,1,0
368,304,68824,2,0,B|224:304,2,140,8|0|4
448,160,70164,1,0
368,160,70387,1,0
406,88,70610,2,0,B|350:48|350:48|278:48,1,140,8|0
112,72,71503,6,0,B|64:128,1,70,4|0
16,192,71949,1,0
67,258,72173,1,0
118,192,72396,2,0,B|192:192|232:264,1,140,8|0
384,328,73289,2,0,B|456:328,2,70,4|0|0
304,328,73958,1,0
344,256,74182,6,0,B|416:224|400:136,2,140,8|0|4
328,176,75298,1,0
256,136,75521,1,0
184,176,75744,1,0
111,140,75967,2,0,B|96:224|168:256,1,140,8|0
192,336,76637,1,0
256,280,76860,2,0,B|256:200,2,70,4|0|0
320,336,77530,1,0
400,336,77753,2,0,B|472:336|472:336|512:280,1,140,8|0
112,336,78646,6,0,B|40:336|40:336|0:280,1,140,4|0
80,264,79316,1,0
32,192,79539,1,8
80,120,79762,1,0
0,103,79985,2,0,B|40:48|40:48|112:48,1,140,0|4
320,192,81101,5,0
376,128,81324,1,2
456,152,81548,1,0
456,232,81771,1,0
376,256,81994,1,0
320,192,82217,6,0,B|256:192|256:192|224:224|224:224|160:224,1,174.999997392297,6|0
56,224,82887,1,0
104,128,83110,2,0,B|152:128|176:88,1,87.4999986961484,8|0
256,16,83557,1,0
335,87,83780,2,0,B|360:128|408:128,1,87.4999986961484,0|4
496,192,84226,6,0,B|400:336,1,174.999997392297
312,280,84896,2,0,B|368:200,2,87.4999986961484,8|0|0
256,192,85566,1,0
200,280,85789,2,0,B|144:200,2,87.4999986961484,4|0|0
256,368,86458,1,0
312,280,86682,1,8
416,280,86905,2,0,B|504:280,1,87.4999986961484
352,192,87351,2,0,B|440:192,1,87.4999986961484,0|4
403,101,87798,6,0,B|336:40|240:40,1,174.999997392297
136,40,88467,2,0,B|64:104,1,87.4999986961484,8|0
96,200,88914,2,0,B|168:136,2,87.4999986961484,0|0|4
16,272,89583,1,0
224,272,90030,6,0,B|272:272|272:272|304:296,1,87.4999986961484,0|8
328,192,90476,1,0
303,88,90699,2,0,B|272:112|272:112|224:112,1,87.4999986961484
120,140,91146,1,4
120,244,91369,1,0
328,192,91816,6,0,B|424:192,1,87.4999986961484,0|8
456,96,92262,1,0
504,192,92485,1,0
456,288,92708,2,0,B|384:336,1,87.4999986961484,0|4
456,96,93155,2,0,B|384:48,1,87.4999986961484
288,304,93601,2,0,B|216:248,1,87.4999986961484,0|8
288,80,94048,2,0,B|216:136,1,87.4999986961484
128,192,94494,2,0,B|32:192,1,87.4999986961484,0|4
384,192,95387,6,0,B|480:192,2,87.4999986961484
384,296,96057,1,0
280,296,96280,1,0
192,352,96503,6,0,B|100:344|56:256,1,174.999997392297,6|0
144,192,97173,1,0
57,125,97396,2,0,B|112:56,1,87.4999986961484,8|0
112,56,97842,1,0
200,112,98066,1,0
288,56,98289,1,4
288,56,98512,2,0,B|384:56|384:56|440:112,1,174.999997392297
376,200,99182,6,0,B|320:272,1,87.4999986961484,8|0
256,352,99628,1,0
189,269,99851,2,0,B|136:200,1,87.4999986961484,0|4
72,112,100298,1,0
144,40,100521,6,0,B|192:40|208:96,1,87.4999986961484
256,184,100967,1,8
305,91,101191,2,0,B|320:40|368:40,1,87.4999986961484
440,112,101637,1,0
512,192,101860,1,4
440,272,102083,6,0,B|376:256|352:320|352:320|288:320,1,174.999997392297
184,320,102753,2,0,B|136:320|112:280,1,87.4999986961484,8|0
56,192,103199,1,0
111,104,103423,2,0,B|136:64|184:64,2,87.4999986961484,0|4|0
304,192,104316,6,0,B|400:192,2,87.4999986961484,0|8|0
200,192,104985,1,0
256,280,105208,1,0
360,280,105432,1,4
464,280,105655,2,0,B|464:104,1,174.999997392297
360,104,106324,6,0,B|272:104,1,87.4999986961484,8|0
168,104,106771,2,0,B|120:104|120:104|80:136,1,87.4999986961484
168,192,107217,1,4
168,280,107441,2,0,B|120:280|120:280|80:248,2,87.4999986961484
272,280,108110,2,0,B|360:280,1,87.4999986961484,8|0
416,192,108557,2,0,B|512:192,2,87.4999986961484,0|0|4
328,136,109226,6,0,B|255:86|255:86|184:136,1,174.999997392297
112,72,109896,2,0,B|184:16,1,87.4999986961484,8|0
400,72,110342,2,0,B|328:16,1,87.4999986961484,0|0
256,91,110789,1,2
256,192,112128,12,0,113467
96,144,114137,6,0,B|45:192|45:192|96:240,1,140
256,192,115030,1,0
416,239,115476,2,0,B|467:192|467:192|416:144,1,140
128,192,116816,5,0
176,120,117039,1,2
256,88,117262,1,0
336,120,117485,1,0
384,192,117708,1,0
256,304,118155,1,2
136,336,119271,6,0,B|176:272,1,70
256,304,119717,1,2
376,336,119941,2,0,B|336:272,1,70
296,208,120387,1,0
216,208,120610,1,2
256,136,120833,1,0
256,136,121057,1,0
256,192,121280,12,0,122842
144,232,123289,5,2
96,296,123512,1,0
168,336,123735,1,0
216,272,123958,1,0
296,272,124182,5,2
344,336,124405,1,0
416,296,124628,1,0
368,232,124851,1,0
368,152,125075,5,2
416,88,125298,1,0
344,48,125521,1,0
296,112,125744,1,0
216,112,125968,5,2
168,48,126191,1,0
96,88,126414,1,0
144,152,126637,1,0
256,192,126860,5,2
