osu file format v9

[General]
AudioFilename: Melanie Flash - One In A Million (Nightcore Mix).mp3
AudioLeadIn: 0
PreviewTime: 34561
Countdown: 0
SampleSet: Soft
StackLeniency: 0.4
Mode: 0
LetterboxInBreaks: 0

[Editor]
DistanceSpacing: 1
BeatDivisor: 2
GridSize: 4

[Metadata]
Title:One in a Million (Nightcore Mix)
Artist:Melanie Flash
Creator:osuplayer111
Version:Calm
Source:
Tags:Ballad Version Bosson

[Difficulty]
HPDrainRate:3
CircleSize:4
OverallDifficulty:3
ApproachRate:4
SliderMultiplier:1
SliderTickRate:1

[Events]
//Background and Video events
0,0,"Sky.jpg"
//Break Periods
//Storyboard Layer 0 (Background)
//Storyboard Layer 1 (Fail)
//Storyboard Layer 2 (Pass)
//Storyboard Layer 3 (Foreground)
//Storyboard Sound Samples
//Background Colour Transformations
3,100,0,0,160

[TimingPoints]
75,446.428571428571,4,2,1,50,1,0
6771,-133.333333333333,4,2,2,50,0,0
21503,-100,4,2,2,65,0,0
21726,-100,4,2,1,65,0,0
35789,-100,4,2,2,80,0,1
36235,-100,4,2,1,80,0,1
50074,-100,4,2,1,80,0,0
50521,-100,4,2,2,65,0,0
53869,-100,4,2,1,65,0,0
67932,-100,4,2,2,65,0,0
68378,-100,4,2,1,65,0,0
82217,-100,4,2,2,80,0,1
82664,-100,4,2,1,80,0,1
94717,-100,4,2,1,80,0,0
96503,-100,4,2,2,80,0,1
96949,-100,4,2,1,80,0,1
110789,-100,4,2,2,65,0,0
122842,-100,4,2,2,5,0,0
123289,-100,4,2,2,65,0,0

[Colours]
Combo1 : 255,60,60
Combo2 : 53,53,255
Combo3 : 150,45,255
Combo4 : 0,159,80
SliderBorder : 200,200,200

[HitObjects]
48,192,6771,1,0
124,144,7217,2,0,B|188:144|220:96,2,112.499996647239,2|0|0
124,240,9003,2,0,B|188:240|220:288,2,112.499996647239,2|0|0
84,320,10789,1,2
48,192,11458,1,0
84,64,12128,2,0,B|160:64,1,74.9999977648259,0|2
464,192,13914,5,0
388,240,14360,2,0,B|324:240|292:288,2,112.499996647239,2|0|0
388,144,16146,2,0,B|324:144|292:96,1,112.499996647239,2|0
232,192,17485,2,0,B|80:192,1,149.999995529652,0|0
88,64,21057,5,0
208,64,21503,2,0,B|288:64|344:128,2,150,2|2|0
144,168,23289,2,0,B|64:168|8:232,2,150,2|2|0
120,288,25074,2,0,B|200:288|256:352,2,150,2|2|0
16,344,26860,1,2
304,128,28199,5,0
424,128,28646,2,0,B|424:208|496:256,2,150,2|2|0
304,128,30432,2,0,B|304:208|232:256,2,150,2|2|0
368,360,32664,1,0
168,144,34896,6,0,B|208:104|256:89|304:104|344:144,1,200,0|6
256,192,36235,1,0
344,239,36682,2,0,B|304:280|256:295|208:280|168:240,1,200,8|4
80,192,38021,1,0
168,144,38467,6,0,B|208:104|256:89|304:104|344:144,2,200,8|4|8
256,320,41146,2,0,B|256:208,2,100,4|0|8
336,136,42932,5,4
256,80,43378,1,0
176,136,43824,2,0,B|76:136|76:136|8:216,2,200,8|4|8
256,320,46503,6,0,B|312:320|348:280,1,100,4|0
268,216,47396,2,0,B|368:176|368:56,2,200,8|4|8
216,132,49628,1,0
268,48,50074,5,4
168,48,50521,2,0,B|112:48|80:92,2,100,0|2|0
268,48,51860,1,2
424,320,53199,5,0
304,320,53645,2,0,B|224:320|168:256,2,150,2|2|0
368,216,55431,2,0,B|448:216|504:152,2,150,2|2|0
392,96,57216,2,0,B|312:96|256:32,2,150,2|2|0
496,40,59002,1,2
208,256,60341,5,0
88,256,60788,2,0,B|88:176|16:128,2,150,2|2|0
208,256,62574,2,0,B|208:176|280:128,2,150,2|2|0
144,24,64806,1,0
84,76,67485,5,0
176,120,67932,2,0,B|256:120|256:120|288:144|288:144|368:144,2,200,6|8|4
84,76,70164,1,0
84,176,70611,2,0,B|84:256|84:256|60:288|60:288|60:368,1,200,8|4
160,368,71949,1,0
240,312,72396,2,0,B|352:312|400:208,1,200,8|4
272,56,74182,6,0,B|160:56|112:160,1,200,8|4
176,244,75521,1,0
240,328,75967,2,0,B|352:328|400:224,2,200,8|4|8
306,186,78646,6,0,B|202:186,1,100,4|0
176,92,79539,2,0,B|256:33|256:33|336:92,1,200,8|4
344,240,81324,6,0,B|304:280|256:295|208:280|168:240,1,200,0|6
256,192,82663,1,0
168,145,83110,2,0,B|208:104|256:89|304:104|344:144,1,200,8|4
432,192,84449,1,0
344,240,84895,6,0,B|304:280|256:295|208:280|168:240,2,200,8|4|8
256,64,87574,2,0,B|256:176,2,100,4|0|8
176,248,89360,5,4
256,304,89806,1,0
336,248,90252,2,0,B|436:248|436:248|504:168,2,200,8|4|8
256,64,92931,6,0,B|200:64|164:104,1,100,4|0
244,168,93824,2,0,B|144:208|144:328,2,200,8|4|0
432,96,96503,6,0,B|376:96|344:144,1,100,6|0
432,192,97396,2,0,B|432:296|336:360,1,200,8|4
174,358,99182,2,0,B|80:296|80:192,1,200,8|4
80,96,100521,2,0,B|136:96|168:144,1,100,0|8
256,320,101860,1,4
256,120,102753,6,0,B|256:16,2,100,8|0|4
336,304,104539,2,0,B|296:352|256:361|256:361|216:352|176:304,1,200,8|4
256,248,105878,1,0
176,192,106324,6,0,B|216:143|256:134|256:134|296:143|336:191,2,200,8|4|8
72,192,108557,2,0,B|72:136|32:104,1,100,0|4
168,256,109896,2,0,B|168:312|208:344,2,100,8|0|2
460,332,112128,6,0,B|380:332|336:260,1,150
208,192,113467,1,2
208,192,114137,6,0,B|160:96,1,100
256,56,115030,1,0
348,102,115476,2,0,B|304:192,1,100
192,352,117039,6,0,B|256:313|256:313|320:352,1,150,2|0
388,276,118155,1,2
400,80,119271,5,0
344,168,119717,1,2
256,224,120164,1,0
168,168,120610,1,2
112,80,121057,1,0
256,192,121280,12,0,122842
208,72,124182,6,0,B|160:168,1,100,2|0
256,192,125074,2,0,B|256:296,2,100,2|0|2
348,161,126414,2,0,B|304:72,1,100,0|2
