osu file format v12

[General]
AudioFilename: Meisa Kuroki - Hero Lives In You - Crow Zero OST.mp3
AudioLeadIn: 1500
PreviewTime: 158461
Countdown: 0
SampleSet: Soft
StackLeniency: 0.7
Mode: 0
LetterboxInBreaks: 0
EpilepsyWarning: 1

[Editor]
Bookmarks: 24365,76407,147965,191333
DistanceSpacing: 1.79999995231628
BeatDivisor: 4
GridSize: 4

[Metadata]
Title:Hero Lives in You
TitleUnicode:Hero Lives in You
Artist:Meisa Kuroki
ArtistUnicode:黒木メイサ
Creator:HeatKai
Version:Hard
Source:Crows Zero
Tags:soundtrack Kurōzu Zero クローズZERO Satsuki Shimabukuro
BeatmapID:244197
BeatmapSetID:89898

[Difficulty]
HPDrainRate:7
CircleSize:4
OverallDifficulty:7
ApproachRate:8
SliderMultiplier:1.7
SliderTickRate:2

[Events]
//Background and Video events
0,0,"BG.jpg",0,0
//Break Periods
2,12276,21446
2,70107,75663
2,138782,147229
2,188661,190603
//Storyboard Layer 0 (Background)
//Storyboard Layer 1 (Fail)
//Storyboard Layer 2 (Pass)
//Storyboard Layer 3 (Foreground)
//Storyboard Sound Samples
//Background Colour Transformations
3,100,163,162,255

[TimingPoints]
510,722.89156626506,4,2,1,50,1,0
510,-100,4,2,1,30,0,0
12076,-100,4,2,1,50,0,0
22196,-100,4,2,1,45,0,0
22377,-100,4,2,1,40,0,0
22558,-100,4,2,1,35,0,0
22738,-100,4,2,1,30,0,0
22919,-100,4,2,1,25,0,0
23100,-100,4,2,1,20,0,0
23281,-100,4,2,1,15,0,0
23461,-100,4,2,1,10,0,0
23642,-100,4,2,1,50,0,0
84003,-200,4,2,1,50,0,0
84365,-100,4,2,1,80,0,1
94847,-100,4,2,1,50,0,0
95931,-100,4,2,1,80,0,1
110389,-100,4,2,1,50,0,0
132437,-100,4,2,1,5,0,0
132799,-100,4,2,1,50,0,0
159184,-200,4,2,1,50,0,0
159546,-100,4,2,1,80,0,1
170028,-100,4,2,1,50,0,0
171112,-100,4,2,1,80,0,1
185570,-100,4,2,1,50,0,0
192799,-100,4,2,1,45,0,0
193522,-100,4,2,1,40,0,0
194244,-100,4,2,1,35,0,0
194967,-100,4,2,1,30,0,0
195690,-100,4,2,1,25,0,0
196413,-100,4,2,1,20,0,0
197136,-100,4,2,1,15,0,0

[Colours]
Combo1 : 79,81,181
Combo2 : 111,148,210
SliderBorder : 56,87,209

[HitObjects]
128,76,510,2,0,P|96:112|80:172,1,85,2|0,0:0|0:0,0:0:0:0:
168,156,1232,2,0,P|148:200|152:248,1,85
232,212,1955,2,0,P|292:256|300:184,1,170,2|0,0:0|0:0,0:0:0:0:
276,108,3040,1,0,0:0:0:0:
360,128,3401,2,0,P|396:248|312:336,1,255,2|0,0:0|0:0,0:0:0:0:
232,336,4847,1,2,0:0:0:0:
56,44,6293,5,2,0:0:0:0:
44,128,6654,1,0,0:0:0:0:
100,192,7016,1,0,0:0:0:0:
184,196,7377,1,0,0:0:0:0:
264,156,7738,2,0,L|384:304,1,170,2|0,0:0|0:0,0:0:0:0:
412,212,8823,1,0,0:0:0:0:
356,148,9184,2,0,B|324:108|324:108|292:68|232:68|208:108,2,170,2|0|2,0:0|0:0|0:0,0:0:0:0:
256,192,10811,12,4,12076,0:0:0:0:
72,88,22196,6,0,L|44:136,1,42.5
120,164,22558,2,0,L|112:212,1,42.5
192,212,22919,2,0,L|200:264,1,42.5
276,236,23281,2,0,L|300:280,1,42.5
368,244,23642,6,0,P|424:240|472:144,1,170,4|8,0:0|0:0,0:0:0:0:
460,72,24546,2,0,L|424:40,1,42.5
356,24,24907,1,0,0:0:0:0:
368,100,25088,2,0,P|320:96|284:44,1,85,0|0,0:0|0:0,0:0:0:0:
216,68,25630,1,0,0:0:0:0:
216,68,25811,2,0,P|228:148|212:240,1,170,8|4,0:0|0:0,0:0:0:0:
128,112,26895,2,0,L|128:176,1,42.5
128,231,27256,2,0,P|160:308|240:319,1,170,8|0,0:0|0:0,0:0:0:0:
268,168,28341,2,0,P|240:144|224:80,2,85,4|8|0,0:0|0:0|0:0,0:0:0:0:
372,276,29425,6,0,B|364:336|304:340|304:340|208:340,1,170,4|8,0:0|0:0,0:0:0:0:
164,316,30329,1,0,0:0:0:0:
92,340,30509,1,0,0:0:0:0:
20,316,30690,2,0,B|8:280|8:252|8:252|20:224|64:204,1,127.5
124,188,31413,2,0,P|152:184|172:172,1,42.5,0|8,0:0|0:0,0:0:0:0:
168,100,31775,2,0,P|152:84|132:72,2,42.5
232,148,32317,2,0,P|316:148|348:68,1,170,4|8,0:0|0:0,0:0:0:0:
376,228,33401,1,0,0:0:0:0:
508,304,33763,2,0,P|424:304|390:373,1,170,0|8,0:0|0:0,0:0:0:0:
256,300,34847,1,2,0:0:0:0:
184,328,35028,1,4,0:0:0:0:
112,304,35208,6,0,P|68:244|96:140,1,170,4|8,0:0|0:0,0:0:0:0:
124,88,36112,1,0,0:0:0:0:
196,60,36293,2,0,L|244:64,1,42.5
244,140,36654,2,0,P|288:132|312:84,1,85
308,24,37196,1,0,0:0:0:0:
376,60,37377,1,8,0:0:0:0:
392,136,37558,2,0,P|360:192|276:220,1,127.5,0|4,0:0|0:0,0:0:0:0:
32,80,38823,1,8,0:0:0:0:
32,80,39184,2,0,L|60:180,1,85
96,308,39907,1,4,0:0:0:0:
248,332,40269,6,0,P|244:284|264:244,1,85,8|0,0:0|0:0,0:0:0:0:
324,212,40811,1,4,0:0:0:0:
396,180,40991,2,0,P|412:136|412:92,1,85,4|0,0:0|0:0,0:0:0:0:
276,32,41714,1,8,0:0:0:0:
124,16,42076,1,0,0:0:0:0:
104,168,42437,1,0,0:0:0:0:
256,192,42799,2,0,L|256:284,2,85,0|8|0,0:0|0:0|0:0,0:0:0:0:
256,192,43702,12,6,45329,0:0:0:0:
184,84,46052,6,0,P|108:80|128:152,1,170,12|4,3:0|0:0,0:0:0:0:
256,236,47136,1,0,0:0:0:0:
320,96,47497,2,0,L|348:48,1,42.5,8|0,0:0|0:0,0:0:0:0:
404,104,47859,2,0,L|440:76,1,42.5
476,144,48220,2,0,P|504:176|508:224,1,85
460,280,48763,1,0,0:0:0:0:
432,208,48943,1,8,0:0:0:0:
384,268,49124,6,0,P|356:208|384:148,1,127.5,0|4,0:0|0:0,0:0:0:0:
448,20,50028,2,0,L|392:20,1,42.5
336,52,50389,2,0,P|256:84|172:48,1,170,8|0,0:0|0:0,0:0:0:0:
28,56,51473,1,4,0:0:0:0:
116,184,51835,2,0,P|144:264|108:348,1,170,8|4,0:0|0:0,0:0:0:0:
256,280,52919,5,0,0:0:0:0:
400,332,53281,2,0,L|448:312,1,42.5,8|0,0:0|0:0,0:0:0:0:
425,225,53642,2,0,L|392:252,1,42.5
364,176,54003,2,0,L|428:108,1,85
380,48,54546,2,0,L|340:88,1,42.5,0|8,0:0|0:0,0:0:0:0:
292,28,54907,2,0,P|272:72|280:108,1,85,0|0,0:0|0:0,0:0:0:0:
204,124,55449,2,0,P|224:176|168:272,1,170,4|8,0:0|0:0,0:0:0:0:
56,168,56534,1,0,0:0:0:0:
152,48,56895,2,0,P|244:44|304:128,1,170,0|12,0:0|0:0,0:0:0:0:
432,168,57979,1,0,0:0:0:0:
484,224,58160,1,4,0:0:0:0:
480,300,58341,6,0,P|432:336|324:308,1,170,4|8,0:0|0:0,0:0:0:0:
264,272,59244,1,0,0:0:0:0:
216,332,59425,2,0,L|156:348,1,42.5
160,268,59787,2,0,L|64:268,1,85
48,196,60329,2,0,L|100:196,1,42.5,0|8,0:0|0:0,0:0:0:0:
108,120,60690,2,0,B|159:130|170:184|170:184|216:184,1,127.5,0|4,0:0|0:0,0:0:0:0:
256,328,61594,1,0,0:0:0:0:
328,192,61955,2,0,B|372:168|388:132|388:132|368:88|312:72,1,170,8|0,0:0|0:0,0:0:0:0:
256,212,63040,1,4,0:0:0:0:
172,80,63401,6,0,B|130:94|110:134|110:134|128:172|170:194,1,170,8|4,0:0|0:0,0:0:0:0:
256,324,64485,1,0,0:0:0:0:
396,260,64847,1,8,0:0:0:0:
404,108,65208,1,0,0:0:0:0:
260,60,65570,1,0,0:0:0:0:
164,180,65931,1,4,0:0:0:0:
256,304,66293,1,8,0:0:0:0:
404,260,66654,1,0,0:0:0:0:
256,192,66835,12,4,69907,0:0:0:0:
44,60,76413,5,8,0:0:0:0:
196,80,76775,1,0,0:0:0:0:
256,220,77136,2,0,L|220:312,1,85,0|0,0:0|0:0,0:0:0:0:
296,324,77678,2,0,L|326:244,2,85,8|0|2,0:0|0:0|0:0,0:0:0:0:
232,368,78582,1,4,0:0:0:0:
344,84,79305,6,0,L|392:128,1,42.5,8|0,0:0|0:0,0:0:0:0:
312,156,79666,2,0,L|336:200,1,42.5
260,216,80028,2,0,P|224:264|176:272,1,85,8|2,0:0|0:0,0:0:0:0:
184,196,80570,2,0,P|144:216|124:256,2,85,0|8|2,0:0|0:0|0:0,0:0:0:0:
172,120,81473,6,0,P|88:164|60:212,1,127.5,4|0,0:0|0:0,0:0:0:0:
0,220,82196,2,0,P|-4:176|24:128,1,85,8|0,0:0|0:0,0:0:0:0:
68,84,82738,2,0,P|96:64|136:52,1,42.5,0|4,0:0|0:0,0:0:0:0:
236,140,83281,1,0,0:0:0:0:
292,192,83461,1,4,0:0:0:0:
368,192,83642,1,12,0:0:0:0:
256,288,84003,6,0,L|256:344,1,42.5,0|4,0:0|0:0,0:0:0:0:
108,296,84726,5,8,0:0:0:0:
60,356,84907,2,0,P|32:312|36:256,2,85,2|0|2,0:0|0:0|0:0,0:0:0:0:
108,296,85811,2,0,P|88:220|-8:204,1,170,12|8,0:0|0:0,0:0:0:0:
156,160,86895,1,2,0:0:0:0:
256,44,87256,2,0,P|276:88|320:100,1,85,4|8,0:0|0:0,0:0:0:0:
384,88,87799,2,0,P|424:120|436:160,2,85,2|0|2,0:0|0:0|0:0,0:0:0:0:
356,160,88702,2,0,P|384:208|420:224,1,85,12|0,0:0|0:0,0:0:0:0:
388,372,89425,5,8,0:0:0:0:
256,292,89787,1,2,0:0:0:0:
128,372,90148,2,0,L|60:300,1,85,4|8,0:0|0:0,0:0:0:0:
32,244,90690,2,0,P|24:196|36:160,2,85,2|0|2,0:0|0:0|0:0,0:0:0:0:
132,128,91775,1,0,0:0:0:0:
132,128,91955,2,0,L|224:128,1,85,4|8,0:0|0:0,0:0:0:0:
356,60,92678,5,2,0:0:0:0:
356,60,92859,1,0,0:0:0:0:
356,60,93040,2,0,P|396:92|416:144,1,85,4|8,0:0|0:0,0:0:0:0:
336,148,93582,2,0,P|356:196|348:248,1,85,2|0,0:0|0:0,0:0:0:0:
280,204,94124,1,0,0:0:0:0:
208,176,94305,2,0,P|208:228|240:272,1,85,6|2,0:0|0:0,0:0:0:0:
292,288,94847,2,0,P|312:336|300:376,1,85,4|8,0:0|0:0,0:0:0:0:
152,344,95570,5,2,0:0:0:0:
76,328,95750,1,2,0:0:0:0:
48,256,95931,2,0,P|44:180|60:164,1,85,6|8,0:0|0:0,0:0:0:0:
112,136,96473,2,0,P|128:180|112:224,1,85,0|2,0:0|0:0,0:0:0:0:
52,76,97196,2,0,P|104:92|184:88,1,127.5,2|8,0:0|0:0,0:0:0:0:
324,50,98100,1,0,0:0:0:0:
352,200,98461,1,2,0:0:0:0:
256,316,98823,6,0,L|256:228,1,85,4|8,0:0|0:0,0:0:0:0:
180,248,99365,2,0,P|188:192|228:156,2,85,2|0|2,0:0|0:0|0:0,0:0:0:0:
180,324,100269,2,0,P|144:372|96:372,1,85,12|0,0:0|0:0,0:0:0:0:
28,260,100991,2,0,P|56:224|116:216,1,85,10|0,0:0|0:0,0:0:0:0:
244,192,101714,6,4,L|328:192,1,85,4|10,0:0|0:0,0:0:0:0:
392,236,102256,1,2,0:0:0:0:
440,176,102437,2,0,L|472:144,1,42.5,0|2,0:0|0:0,0:0:0:0:
400,112,102799,2,0,L|408:64,1,42.5,10|0,0:0|0:0,0:0:0:0:
332,76,103160,2,0,P|296:44|256:36,1,85,4|2,0:0|0:0,0:0:0:0:
108,40,103883,2,0,B|180:40|180:40|188:96|244:112,1,170,2|4,0:0|0:0,0:0:0:0:
256,264,104967,6,0,L|244:304,1,42.5,10|0,0:0|0:0,0:0:0:0:
180,264,105329,2,0,L|152:304,1,42.5,2|0,0:0|0:0,0:0:0:0:
108,240,105690,2,0,L|64:264,1,42.5,10|0,0:0|0:0,0:0:0:0:
48,188,106052,2,0,P|0:176|-28:144,2,85,12|0|8,0:0|0:0|0:0,0:0:0:0:
116,52,107136,5,2,0:0:0:0:
68,112,107317,1,0,0:0:0:0:
48,188,107497,2,0,P|44:236|80:288,1,85,4|8,0:0|0:0,0:0:0:0:
116,220,108040,1,0,0:0:0:0:
164,164,108220,2,0,P|188:208|180:264,1,85,8|8,0:0|0:0,0:0:0:0:
256,380,108943,6,0,P|264:332|288:296,1,85,4|0,0:0|0:0,0:0:0:0:
336,248,109485,2,0,L|316:200,1,42.5,0|8,0:0|0:0,0:0:0:0:
376,136,109847,2,0,L|400:184,2,42.5,0|0|10,0:0|0:0|0:0,0:0:0:0:
256,192,110389,12,4,113281,0:0:0:0:
164,64,114003,6,0,P|76:104|72:200,1,170,6|12,0:0|0:0,0:0:0:0:
256,232,115088,1,0,0:0:0:0:
450,169,115449,2,0,P|436:104|348:64,1,170,6|4,0:0|0:0,0:0:0:0:
180,304,116895,6,0,P|256:336|332:304,1,170,6|12,0:0|0:0,0:0:0:0:
200,190,117979,1,0,0:0:0:0:
44,192,118341,2,0,P|124:160|195:194,1,170,6|0,0:0|0:0,0:0:0:0:
256,336,119425,5,0,0:0:0:0:
372,236,119787,2,0,B|372:176|416:144|416:144|416:64,1,170,6|12,0:0|0:0,0:0:0:0:
468,224,120871,1,0,0:0:0:0:
348,320,121232,2,0,P|308:292|292:256,1,85,6|0,0:0|0:0,0:0:0:0:
284,184,121775,1,0,0:0:0:0:
280,108,121955,6,0,P|232:40|140:32,1,170,4|2,0:0|0:0,0:0:0:0:
148,188,123040,1,0,0:0:0:0:
280,276,123401,2,0,P|232:344|150:355,1,170,4|4,0:0|0:0,0:0:0:0:
148,204,124485,1,0,0:0:0:0:
264,100,124847,6,0,B|344:100|344:100|368:48|424:44,1,170,6|12,0:0|0:0,0:0:0:0:
316,184,125931,1,0,0:0:0:0:
408,316,126293,2,0,B|364:313|340:261|340:261|260:261,1,170,6|12,0:0|0:0,0:0:0:0:
128,184,127377,1,8,0:0:0:0:
188,44,127738,6,0,P|264:76|344:40,1,170,6|12,0:0|0:0,0:0:0:0:
412,180,128823,1,0,0:0:0:0:
332,312,129184,2,0,P|255:279|179:311,1,170,6|12,0:0|0:0,0:0:0:0:
64,232,130269,1,2,0:0:0:0:
88,80,130630,6,0,P|164:32|268:72,1,170,4|12,0:0|0:0,0:0:0:0:
256,200,131714,1,0,0:0:0:0:
320,240,131895,2,0,P|412:244|468:144,1,212.5,0|12,0:0|0:0,0:0:0:0:
444,76,132979,2,0,L|476:48,2,42.5
372,52,133522,2,0,P|296:60|244:136,1,170,6|12,0:0|0:0,0:0:0:0:
108,192,134606,1,0,0:0:0:0:
252,245,134967,6,0,L|284:288,1,42.5,4|0,0:0|0:0,0:0:0:0:
340,232,135329,2,0,L|376:260,1,42.5,12|8,0:0|0:0,0:0:0:0:
420,196,135690,2,0,L|472:208,1,42.5,6|0,0:0|0:0,0:0:0:0:
468,128,136052,2,0,L|516:128,1,42.5
492,52,136413,1,4,0:0:0:0:
256,192,136594,12,2,138582,0:0:0:0:
40,168,147979,5,4,0:0:0:0:
152,64,148341,1,0,0:0:0:0:
188,212,148702,2,0,P|236:272|340:244,1,170,8|4,0:0|0:0,0:0:0:0:
243,128,149787,1,4,0:0:0:0:
95,177,150148,2,0,P|155:124|256:144,1,170,8|4,0:0|0:0,0:0:0:0:
280,200,151052,1,0,0:0:0:0:
312,268,151232,1,0,0:0:0:0:
240,132,151594,6,0,P|314:131|359:207,1,170,8|4,0:0|0:0,0:0:0:0:
360,351,152678,1,0,0:0:0:0:
207,351,153040,1,12,0:0:0:0:
98,242,153401,1,0,0:0:0:0:
98,89,153763,2,0,P|168:40|258:77,1,170,4|8,0:0|0:0,0:0:0:0:
392,100,154847,1,0,0:0:0:0:
400,176,155028,1,0,0:0:0:0:
324,220,155208,6,0,L|312:260,2,28.3333339691162
268,156,155570,2,0,L|260:120,2,28.3333339691162
200,216,155931,2,0,P|168:248|136:288,2,85,8|0|4,0:0|0:0|0:0,0:0:0:0:
256,72,157016,1,0,0:0:0:0:
332,56,157196,1,0,0:0:0:0:
408,84,157377,2,0,P|432:120|428:184,1,85,8|0,0:0|0:0,0:0:0:0:
500,200,157919,1,0,0:0:0:0:
440,248,158100,2,0,P|376:288|388:376,1,170,4|8,0:0|0:0,0:0:0:0:
504,348,159184,6,0,L|464:333,1,42.5,4|4,0:0|0:0,0:0:0:0:
256,192,159907,5,0,0:0:0:0:
216,256,160088,2,0,P|200:280|184:296,1,42.5,0|8,0:0|0:0,0:0:0:0:
148,224,160449,2,0,P|120:240|100:244,1,42.5,0|0,0:0|0:0,0:0:0:0:
96,168,160811,1,2,0:0:0:0:
24,140,160991,2,0,P|56:104|100:92,1,85,4|0,0:0|0:0,0:0:0:0:
240,68,161714,5,8,0:0:0:0:
328,192,162076,1,2,0:0:0:0:
240,316,162437,2,0,P|204:328|160:316,1,85,12|8,0:0|0:0,0:0:0:0:
200,252,162979,2,0,P|160:240|116:256,1,85,2|2,0:0|0:0,0:0:0:0:
76,316,163522,1,0,0:0:0:0:
16,268,163702,1,0,0:0:0:0:
16,268,163883,2,0,L|16:160,1,85,12|0,0:0|0:0,0:0:0:0:
164,148,164606,6,0,L|164:192,1,42.5,10|0,0:0|0:0,0:0:0:0:
316,96,164967,2,0,L|316:44,1,42.5,2|0,0:0|0:0,0:0:0:0:
240,72,165329,2,0,L|240:180,1,85,6|2,0:0|0:0,0:0:0:0:
284,220,165871,1,0,0:0:0:0:
332,280,166052,1,8,0:0:0:0:
344,356,166232,2,0,P|388:336|408:292,1,85,0|2,0:0|0:0,0:0:0:0:
476,336,166775,1,2,0:0:0:0:
472,260,166955,2,0,L|472:216,1,42.5,0|4,0:0|0:0,0:0:0:0:
396,84,167497,6,0,P|356:80|308:84,1,85,8|2,0:0|0:0,0:0:0:0:
272,152,168040,2,0,L|328:164,1,42.5,0|6,0:0|0:0,0:0:0:0:
312,84,168401,1,0,0:0:0:0:
188,72,168582,2,0,P|204:92|216:120,1,42.5,0|2,0:0|0:0,0:0:0:0:
88,187,168943,2,0,P|96:172|112:152,1,42.5,10|2,0:0|0:0,0:0:0:0:
192,216,169305,2,0,P|208:236|220:264,1,42.5,0|0,0:0|0:0,0:0:0:0:
76,323,169666,2,0,P|84:308|100:288,1,42.5,12|0,0:0|0:0,0:0:0:0:
196,360,170028,2,0,P|240:368|288:360,1,85,2|8,0:0|0:0,0:0:0:0:
424,312,170750,5,0,0:0:0:0:
464,248,170931,1,0,0:0:0:0:
504,184,171112,2,0,L|412:128,1,85,4|8,0:0|0:0,0:0:0:0:
452,68,171654,2,0,P|408:68|372:96,2,85,2|0|2,0:0|0:0|0:0,0:0:0:0:
432,140,172558,2,0,P|388:164|332:148,1,85,12|0,0:0|0:0,0:0:0:0:
308,220,173100,1,0,0:0:0:0:
272,152,173281,2,0,P|224:140|164:160,2,85,10|0|6,0:0|0:0|0:0,0:0:0:0:
220,296,174365,5,8,0:0:0:0:
184,228,174546,2,0,P|228:220|280:248,2,85,2|0|2,0:0|0:0|0:0,0:0:0:0:
136,288,175449,2,0,P|108:244|112:200,1,85,8|2,0:0|0:0,0:0:0:0:
32,220,175991,1,0,0:0:0:0:
64,152,176172,2,0,P|108:136|160:160,1,85,10|0,0:0|0:0,0:0:0:0:
256,248,176895,6,0,P|304:256|352:244,1,85,4|10,0:0|0:0,0:0:0:0:
468,208,177437,1,0,0:0:0:0:
392,316,177618,1,0,0:0:0:0:
388,180,177799,1,0,0:0:0:0:
476,292,177979,1,10,0:0:0:0:
340,248,178160,1,2,0:0:0:0:
308,180,178341,2,0,P|320:136|356:108,1,85,12|0,0:0|0:0,0:0:0:0:
216,184,179064,2,0,P|208:224|176:256,1,85,10|0,0:0|0:0,0:0:0:0:
140,188,179606,1,0,0:0:0:0:
64,196,179787,6,0,P|76:145|104:120,1,85,4|10,0:0|0:0,0:0:0:0:
180,80,180329,1,0,0:0:0:0:
236,152,180510,1,2,0:0:0:0:
296,28,180690,1,0,0:0:0:0:
344,104,180871,1,8,0:0:0:0:
504,16,181052,1,2,0:0:0:0:
428,60,181232,6,0,L|424:152,1,85,12|0,0:0|0:0,0:0:0:0:
456,296,181955,2,0,P|412:296|380:320,1,85,8|0,0:0|0:0,0:0:0:0:
320,372,182497,1,0,0:0:0:0:
256,332,182678,2,0,L|256:228,1,85,4|2,0:0|0:0,0:0:0:0:
256,172,183220,1,0,0:0:0:0:
216,108,183401,2,0,P|256:96|296:108,1,85,8|0,0:0|0:0,0:0:0:0:
444,144,184124,5,4,0:0:0:0:
460,296,184485,1,2,0:0:0:0:
396,336,184666,1,0,0:0:0:0:
320,332,184847,1,12,0:0:0:0:
256,192,185208,2,0,L|212:172,2,42.5,0|0|4,0:0|0:0|0:0,0:0:0:0:
256,192,185750,12,2,188461,0:0:0:0:
256,192,191353,5,2,0:0:0:0:
256,192,191534,12,0,197136,0:0:0:0:
