osu file format v5

[General]
AudioFilename: Futairo.mp3
AudioLeadIn: 3000
PreviewTime: -1
Countdown: 0
SampleSet: Soft
StackLeniency: 0.7
Mode: 0
LetterboxInBreaks: 0

[Editor]
Bookmarks: 10930,28630,84130
DistanceSpacing: 0.800000011920929
BeatDivisor: 4
GridSize: 8

[Metadata]
Title:Futairo
Artist:Meiko, Megurine Luka
Creator:Shinxyn
Version:Normal
Source:
Tags:

[Difficulty]
HPDrainRate:4
CircleSize:4
OverallDifficulty:4
SliderMultiplier:1.4
SliderTickRate:2

[Events]
//Background and Video events
0,0,"futa.png"
//Break Periods
2,7538,9618
2,84338,96018
2,113738,126318
2,156938,168018
//Storyboard Layer 0 (Background)
//Storyboard Layer 1 (Fail)
//Storyboard Layer 2 (Pass)
//Storyboard Layer 3 (Foreground)
//Storyboard Sound Samples
//Background Colour Transformations
3,100,163,162,255

[TimingPoints]
140,600,4,2,1,80,1,0
14230,-100,4,2,1,70,0,0
28630,-100,4,2,1,60,0,0
56680,-100,4,2,1,70,0,0
71080,-100,4,2,1,80,0,0
127330,-100,4,2,1,60,0,0
141280,-100,4,2,1,70,0,0
169030,-100,4,2,1,80,0,0
170680,-100,4,2,1,70,0,0
181780,-100,4,2,1,80,0,0
183280,-100,4,2,1,70,0,0
201130,-100,4,2,1,60,0,0
206680,-100,4,2,1,90,0,0

[Colours]
Combo1 : 129,248,191
Combo2 : 250,152,231
Combo3 : 255,0,0
Combo4 : 253,126,0
Combo5 : 245,54,245

[HitObjects]
256,104,140,1,0
256,280,1040,1,2
96,192,2840,5,0
136,160,3140,2,0,B|136:248,1,70,0|0
178,192,3740,2,0,L|274:192,1,70
294,160,4340,1,0
293,215,4640,1,2
472,192,5540,5,0
376,48,6440,1,0
328,72,6740,1,0
328,128,7040,1,0
376,160,7340,1,2
256,192,10940,12,0,13940
424,128,14240,5,0
384,88,14540,1,4
272,88,15140,1,0
216,88,15440,1,0
160,88,15740,1,0
104,88,16040,1,2
104,144,16340,6,0,B|88:184|112:224,2,70
144,176,17240,2,0,B|168:216|136:256,1,70,0|2
184,280,17840,6,0,B|216:296|280:272,1,70,0|4
360,280,18740,1,0
360,224,19040,1,0
360,168,19340,1,0
416,168,19640,1,2
416,224,19940,6,0,B|472:224|472:160,2,70,0|0|0
416,280,20840,1,0
416,336,21140,1,0
304,336,21740,5,4
192,336,22340,1,0
144,304,22640,1,0
144,248,22940,1,2
96,208,23240,1,0
96,152,23540,2,0,B|128:80|168:88|208:112|232:136|216:192|200:224|152:232|128:264,1,280,0|2
256,248,25340,5,4
328,160,25940,1,0
360,112,26240,2,0,B|312:88|272:128,2,70,0|2|0
408,144,27140,2,0,B|416:232|328:272|256:248|216:152|264:120,1,280
192,144,28640,5,0
184,200,28940,2,0,B|112:160|40:208,1,140,2|0
56,256,29840,1,0
152,320,30440,5,0
208,312,30740,1,2
264,304,31040,2,0,B|296:296|352:312,1,70
384,320,31640,1,0
448,224,32240,6,0,B|456:168|440:120,2,70,0|2|0
400,192,33140,1,0
344,192,33440,1,0
232,192,34040,6,0,B|136:192,1,70,0|2
104,192,34640,2,0,B|24:192,1,70
34,192,35240,1,0
72,88,35840,5,0
128,88,36140,2,0,B|152:160|256:160,1,140,2|0
296,160,37040,1,0
352,160,37340,2,0,B|360:208|424:216,3,70,2|0|0|0
416,160,38540,1,0
416,160,38840,1,2
416,272,39440,6,0,B|328:272,1,70,0|2
288,272,40040,2,0,B|200:272,1,70
160,272,40640,2,0,B|56:272,1,70,0|2
40,240,41240,1,0
40,240,41540,2,0,B|40:168|112:112|200:160,1,210,0|4
304,152,43040,6,0,B|392:184,1,70,0|0
296,256,43940,2,0,B|256:336,1,70,0|2
200,224,44840,1,0
200,224,45140,1,2
144,200,45440,1,0
144,200,45740,1,2
88,176,46040,1,0
88,64,46640,5,0
88,64,46940,1,2
144,96,47240,1,0
144,96,47540,2,0,B|216:136,1,70
296,184,48440,6,0,B|360:120,1,70,0|2
384,176,49040,2,0,B|328:232,1,70
296,264,49640,1,0
184,264,50240,6,0,B|112:264,1,70
40,176,51140,1,2
40,120,51440,2,0,B|120:120,1,70,0|2
168,120,52040,1,0
224,120,52340,2,0,B|264:144|256:208,1,70
256,232,52940,1,2
256,288,53240,2,0,B|271:324|304:344,1,70,0|0
392,280,54140,6,0,B|416:224|376:192,1,70,0|0
376,160,54740,2,0,B|328:88|264:80,1,140,0|2
264,192,55940,2,0,B|184:192|136:128,1,140,0|2
104,176,56840,2,4,B|112:248|184:288,1,140
232,288,57740,6,0,B|336:288,1,70,2|0
232,200,58640,2,0,B|232:80,2,70,0|0|0
232,200,59540,1,2
288,200,59840,5,0
288,144,60140,1,2
336,176,60440,1,0
384,200,60740,1,2
384,144,61040,1,2
416,96,61340,6,0,B|344:96,1,70
232,96,62240,2,0,B|144:96,1,70,0|0
160,208,63140,1,2
160,264,63440,1,0
200,224,63740,1,2
232,184,64040,1,0
336,152,64640,5,2
384,184,64940,1,4
408,296,65540,2,0,B|328:296,1,70
224,296,66440,2,0,B|104:296,1,70,0|2
40,296,67340,2,0,B|40:216,1,70
56,168,67940,1,0
72,112,68240,6,0,B|176:112,1,70,2|0
240,168,69140,2,0,B|320:168,4,70
392,232,71240,1,0
256,344,72140,6,0,B|216:344|176:328,1,70
136,312,72740,1,2
88,280,73040,2,0,B|40:224|48:192,1,70,0|2
48,168,73640,5,0
88,128,73940,1,2
144,128,74240,1,0
200,128,74540,1,2
240,168,74840,1,0
352,168,75440,5,0
408,168,75740,1,2
408,280,76340,1,2
408,336,76640,1,0
352,336,76940,1,2
272,256,77540,5,2
216,256,77840,1,4
160,256,78140,1,4
104,256,78440,1,0
104,144,79040,5,0
160,144,79340,2,0,B|168:104|216:88,1,70,2|0
216,144,79940,2,0,B|216:187|264:208,4,70,0|0|2|0|0
272,144,81440,2,0,B|376:144,1,70,0|2
400,144,82040,2,0,B|416:128|464:168|496:128,1,70
472,200,82640,5,0
472,256,82940,1,4
360,256,83540,1,0
304,256,83840,1,0
248,256,84140,1,4
256,192,97340,12,4,98240
256,192,98840,12,0,102740
80,192,103340,6,0,B|168:192,2,70,0|2|2
80,248,104240,2,0,B|176:248,1,70,0|2
264,248,105140,2,0,B|344:248,1,70,0|2
336,192,105740,2,0,B|232:192,1,70,2|2
264,136,106340,6,0,B|264:88|216:48|168:56,1,140,4|0
168,112,107240,1,2
72,248,108140,6,0,B|72:200|120:160|168:168,1,140,4|0
168,224,109040,1,0
336,224,109940,6,0,B|376:192|456:264|488:192,1,140,6|0
432,168,110840,2,0,B|376:112,2,70,2|0|0
256,192,111740,12,4,113540
152,120,127640,6,0,B|264:96|392:128,1,210
360,176,128840,1,2
360,288,129440,5,0
320,256,129740,1,0
360,224,130040,1,2
400,256,130340,1,0
360,288,130640,1,0
248,288,131240,5,0
192,304,131540,1,2
208,248,131840,1,0
248,288,132140,1,0
192,304,132440,1,0
96,248,133040,5,0
96,192,133340,1,2
96,248,133640,1,0
96,192,133940,1,0
96,248,134240,1,0
208,248,134840,5,0
208,248,135140,1,2
320,248,135740,1,2
320,248,136040,1,2
320,192,136340,6,0,B|320:120,1,70,2|0
264,104,136940,2,0,B|264:184,1,70
208,152,137540,2,0,B|208:64,1,70,2|0
120,152,138440,6,0,B|120:272,1,70
120,280,139040,1,2
176,280,139340,1,2
232,280,139640,2,0,B|304:280,1,70,2|0
416,280,140540,2,0,B|464:256|464:208|440:176|384:152,1,140
368,136,141440,1,4
200,136,142340,6,0,B|200:208,1,70,0|2
112,280,143240,2,0,B|112:192,1,70,0|2
112,72,144140,5,2
160,104,144440,1,0
216,112,144740,1,2
256,152,145040,1,0
304,176,145340,1,2
360,184,145640,1,0
400,224,145940,6,0,B|400:304,1,70
288,296,146840,5,0
288,296,147140,1,2
232,296,147440,6,0,B|136:296,1,70
104,296,148040,2,0,B|24:296,2,70
32,208,149240,5,0
88,200,149540,1,2
200,184,150140,1,0
256,176,150440,1,0
368,160,151040,1,0
424,152,151340,1,2
424,264,151940,5,0
368,264,152240,2,0,B|288:264,1,70,0|2
240,264,152840,1,0
184,264,153140,2,0,B|120:216|48:264,1,140
96,296,154040,2,0,B|128:336|168:280,2,70,2|0|0
256,192,154940,12,4,156740
472,192,169340,6,0,B|392:192,1,70,2|0
352,165,169940,1,0
352,224,170240,1,2
296,192,170540,1,2
248,224,170840,6,2,B|200:200|224:136,1,70,0|0
248,272,171740,2,0,B|288:248|336:288,1,70
280,320,172340,2,0,B|328:328|376:312,1,70
408,312,172940,2,0,B|448:328|488:304,3,70,2|0|0|0
440,200,174440,5,0
440,144,174740,2,0,B|384:120|296:144,1,140
256,168,175640,1,0
200,144,175940,1,2
144,120,176240,1,0
88,96,176540,2,0,B|88:248,1,140
88,288,177440,1,2
200,288,178040,5,0
256,288,178340,1,2
256,176,178940,2,0,B|336:256,2,70
256,120,179840,1,2
256,64,180140,1,2
256,120,180440,5,4
200,120,180740,1,4
144,120,181040,1,2
144,232,181640,6,0,B|144:320,3,70,0|0|2|0
200,304,182840,5,2
256,304,183140,1,0
256,192,183440,12,0,186440
256,328,187040,5,0
256,272,187340,1,0
179,189,187940,6,0,B|179:77,1,70,0|2
221,82,188540,2,0,B|309:82,1,70,0|2
334,117,189140,2,0,B|334:197,1,70,0|2
292,224,189740,2,0,B|212:224,1,70,0|2
112,224,190640,5,0
112,280,190940,1,4
224,280,191540,1,0
280,280,191840,1,2
392,280,192440,5,0
448,280,192740,1,0
448,224,193040,1,6
448,280,193340,1,4
448,336,193640,1,2
336,336,194240,6,0,B|192:336,1,140
136,336,195140,1,2
80,336,195440,2,0,B|80:224,2,70,2|0|4
256,192,196340,12,0,199940
72,192,200540,6,0,B|168:192,2,70,2|0|0
72,248,201440,1,0
128,248,201740,2,0,B|216:248,2,70,2|0|0
128,304,202640,1,0
184,304,202940,2,0,B|264:304,2,70,2|0|4
184,192,204140,5,0
184,136,204440,1,0
240,136,204740,1,2
296,136,205040,1,2
352,136,205340,1,4
448,88,205940,5,0
392,88,206240,1,0
336,88,206540,1,2
280,88,206840,1,0
224,88,207140,2,0,B|112:104|136:216|240:216,1,210,2|4
280,216,208340,1,4
