osu file format v9

[General]
AudioFilename: Dispel.mp3
AudioLeadIn: 0
PreviewTime: 124103
Countdown: 0
SampleSet: Soft
StackLeniency: 0.7
Mode: 0
LetterboxInBreaks: 1

[Editor]
Bookmarks: 20903,40103,49703,60503,73478,81803,103703,113303,124103,155303,167303,176903,188603
DistanceSpacing: 1.5
BeatDivisor: 2
GridSize: 4

[Metadata]
Title:Dispel
Artist:Meiko Nakamura
Creator:terametis
Version:Insane
Source:
Tags:S_h_i_o_n Shion adresse leviation

[Difficulty]
HPDrainRate:6
CircleSize:4
OverallDifficulty:7
ApproachRate:9
SliderMultiplier:2
SliderTickRate:2

[Events]
//Background and Video events
0,0,"d0db5cd1.jpg"
//Break Periods
2,82303,83903
2,145903,154703
2,164953,166103
//Storyboard Layer 0 (Background)
//Storyboard Layer 1 (Fail)
//Storyboard Layer 2 (Pass)
//Storyboard Layer 3 (Foreground)
//Storyboard Sound Samples
//Background Colour Transformations
3,100,163,162,255

[TimingPoints]
20903,300,4,2,1,80,1,0
40103,-133.333333333333,4,2,1,80,0,0
49703,-100,4,2,1,80,0,0
60503,-100,4,2,1,80,0,1
82103,-100,4,2,1,80,0,0
103703,-133.333333333333,4,2,1,80,0,0
113303,-100,4,2,1,80,0,0
124103,-100,4,2,1,80,0,1
145103,-100,4,2,1,80,0,0
155303,-200,4,2,1,80,0,0
167303,-133.333333333333,4,2,1,80,0,0
176903,-100,4,2,1,80,0,1
188903,-100,4,2,1,80,0,0

[HitObjects]
80,96,20903,5,4
176,120,21053,1,0
136,32,21203,2,0,B|128:80|112:160,1,100,8|0
184,208,21503,1,0
280,232,21653,1,0
208,304,21803,2,0,B|240:192,1,100,8|0
256,112,22103,6,0,B|280:80|316:80|340:112,1,100,2|0
360,208,22403,2,0,B|392:320,1,100,8|0
436,144,22703,2,0,B|476:96|436:48,2,100,0|0|8
340,112,23153,1,0
256,68,23303,6,0,B|208:36|160:68,1,100,4|0
212,144,23603,2,0,B|160:168|162:223,1,100,8|0
264,212,23903,2,0,B|260:269|312:292,1,100
356,204,24203,2,0,B|404:236|452:204,1,100,8|0
404,116,24503,5,2
348,32,24653,1,0
248,36,24803,1,8
204,128,24953,1,0
264,212,25103,1,0
264,212,25253,1,0
364,204,25403,2,0,B|396:248|364:296,1,100,8|0
256,320,25703,5,4
256,320,25853,1,0
256,320,26003,2,0,B|208:344|160:320,1,100,8|0
264,212,26303,2,0,B|312:196|320:136,1,100,0|0
164,184,26603,2,0,B|136:224|77:224,1,100,8|0
144,328,26903,5,2
24,336,27053,1,0
144,328,27203,2,0,B|188:304|204:252,1,100,8|0
224,104,27503,2,0,B|183:136|164:184,1,100,0|0
144,328,27803,2,0,B|168:368|232:360,1,100,8|0
360,344,28103,5,4
360,248,28253,1,0
296,168,28403,1,8
200,136,28553,1,0
160,232,28703,1,0
200,136,28853,1,0
280,72,29003,1,8
376,48,29153,1,0
376,184,29303,6,0,B|432:184|472:152,1,100,2|0
344,248,29603,2,0,B|344:304|384:336,1,100,8|0
304,192,29903,2,0,B|256:160|208:176,2,100,8|0|8
112,192,30503,5,4
176,120,30653,1,0
272,112,30803,2,0,B|328:104|352:56,1,100,8|0
264,16,31103,1,0
352,56,31253,1,0
416,128,31403,2,0,B|440:176|416:224,1,100,8|0
320,256,31703,6,0,B|320:152,1,100,2|0
240,256,32003,2,0,B|232:208|184:176,1,100,8|0
160,256,32303,2,0,B|56:256,1,100,0|0
112,168,32603,1,8
208,136,32753,1,0
304,168,32903,6,0,B|348:216|436:208,1,100,4|0
356,84,33203,2,0,B|312:36|224:44,1,100,8|0
168,128,33503,1,0
284,188,33653,1,0
168,248,33803,1,8
52,188,33953,1,0
168,248,34103,6,0,B|128:296|80:304,1,100,2|0
112,160,34403,2,0,B|56:144|32:104,1,100,8|0
176,64,34703,2,0,B|232:128|288:128|344:64,1,200,0|8
304,280,35303,6,0,B|256:312|208:280,1,100,4|0
208,120,35603,2,0,B|256:96|304:120,1,100,8|0
176,248,35903,2,0,B|152:200|176:152,1,100,0|0
336,152,36203,2,0,B|360:200|336:248,1,100,8|0
80,248,36503,6,0,B|56:208|56:152,1,100,2|0
432,152,36803,2,0,B|456:200|456:248,1,100,8|0
256,280,37103,1,0
112,192,37253,1,0
256,96,37403,1,8
400,192,37553,1,0
256,336,37703,6,0,B|176:336|176:336|152:328,1,100,4|0
256,48,38003,2,0,B|336:48|336:48|360:56,1,100,8|0
88,192,38303,2,0,B|88:112|88:112|96:88,1,100,8|0
432,192,38603,2,0,B|432:280|432:280|424:304,1,100,8|4
88,192,39203,6,0,B|152:192|152:192|160:184|160:184|168:192|168:192|192:192,1,100,2|0
264,136,39503,1,0
272,136,39578,1,0
280,136,39653,1,0
288,136,39728,1,0
296,136,39803,1,8
384,256,40103,6,0,B|392:248|392:248|384:240|384:240|392:232|392:232|384:224|384:224|392:216|392:216|384:208|384:208|392:200|392:200|384:192|384:192|384:160|408:136,1,149.999995529652,0|0
128,136,40703,2,0,B|120:144|120:144|128:152|128:152|120:160|120:160|128:168|128:168|120:176|120:176|128:184|128:184|120:192|120:192|128:200|128:200|127:234|104:256,1,149.999995529652,8|0
336,64,41303,2,0,B|240:64|240:64|192:40,1,149.999995529652,0|0
192,320,41903,2,0,B|288:320|288:320|336:344,1,149.999995529652,8|0
136,112,42503,6,0,B|200:40|236:104|268:104,1,149.999995529652,0|0
376,272,43103,2,0,B|312:344|276:280|244:280,1,149.999995529652,8|0
376,40,43703,2,0,B|368:64|368:64|384:168|384:168|376:192,1,149.999995529652
136,344,44303,2,0,B|128:320|128:320|144:216|144:216|136:192,1,149.999995529652,8|0
136,48,44903,5,0
285,74,45203,1,0
259,224,45503,1,8
109,197,45803,1,0
136,48,46103,5,0
401,24,46403,1,0
420,291,46703,1,8
153,314,47003,1,0
72,56,47303,6,0,B|128:56|128:56|144:64,1,74.9999977648259,0|0
256,120,47603,2,0,B|200:120|200:120|184:128,1,74.9999977648259,0|0
64,176,47903,2,0,B|120:176|120:176|136:184,1,74.9999977648259,8|0
256,232,48203,2,0,B|200:232|200:232|184:240,1,74.9999977648259,0|0
136,296,48503,2,0,B|88:296,2,37.4999988824129
208,312,48803,2,0,B|288:312,1,74.9999977648259,0|0
384,232,49103,2,0,B|304:232,1,74.9999977648259,8|0
232,232,49403,1,0
384,88,49703,6,0,B|328:32|264:32|208:88,1,200,4|8
268,192,50153,1,0
340,288,50303,2,0,B|284:344|220:344|164:288,1,200,0|8
124,176,50753,1,0
200,80,50903,6,0,B|256:48|256:0,1,100,2|0
256,152,51203,2,0,B|312:148|344:112,1,100,8|0
260,240,51503,2,0,B|312:256|360:244,1,100,0|0
200,312,51803,2,0,B|240:344|292:352,1,100,8|0
320,144,52103,6,0,B|344:192|320:240,1,100,4|0
192,240,52403,2,0,B|168:192|192:144,1,100,8|0
320,240,52703,2,0,B|296:288|240:288,1,100,0|0
192,144,53003,2,0,B|216:96|272:96,1,100,8|0
376,192,53303,5,2
256,280,53453,1,0
136,192,53603,1,8
256,104,53753,1,0
256,280,53903,2,0,B|184:280|184:280|160:296,1,100,0|0
256,104,54203,2,0,B|328:104|328:104|352:88,1,100,8|0
336,192,54503,6,0,B|448:192,1,100,4|0
376,280,54803,1,8
376,280,54953,2,0,B|264:280,1,100,0|0
176,280,55253,2,0,B|136:328|136:328|96:328,2,100,0|8|0
224,192,55703,6,0,B|120:192,1,100,2|0
64,112,56003,1,8
64,112,56153,2,0,B|168:112,1,100,0|0
264,112,56453,2,0,B|320:112|320:112|320:64,2,100,0|8|0
164,112,56903,5,4
200,256,57053,1,0
344,304,57203,1,8
304,160,57353,1,0
160,296,57503,2,0,B|88:224,1,100,4|0
344,120,57803,2,0,B|416:192,1,100,8|0
256,296,58103,5,8
96,192,58253,1,0
256,88,58403,1,8
416,192,58553,1,0
256,296,58703,1,0
256,272,58778,1,0
256,248,58853,1,0
256,224,58928,1,0
256,200,59003,1,8
256,176,59078,1,0
256,152,59153,1,0
256,128,59228,1,0
256,104,59303,1,4
256,56,59903,5,8
256,56,60203,1,8
352,56,60503,6,0,B|416:56|448:80,1,100,4|0
336,144,60803,2,10,B|384:168|408:216,1,100,8|0
288,216,61103,2,0,B|320:256|312:312,1,100,0|0
208,248,61403,2,0,B|200:296|140:312,1,100,8|0
120,216,61703,2,0,B|72:256|32:216,2,100,4|0|8
192,148,62153,1,0
260,76,62303,2,0,B|308:36|348:76,1,100
416,152,62603,2,0,B|476:152|488:96,1,100,8|0
416,152,62903,5,4
352,232,63053,2,0,B|352:288|400:312,1,100,0|8
448,224,63353,1,0
400,136,63503,2,0,B|400:80|360:48,1,100,4|0
304,136,63803,2,0,B|264:168|208:168,1,100,8|0
112,176,64103,2,0,B|60:176|28:224,1,100,4|8
120,256,64403,2,0,B|88:304|112:356,1,100,8|0
192,296,64703,2,0,B|224:336|280:344,1,100,4|0
264,256,65003,1,8
272,176,65153,6,2,B|320:176,2,50,2|2|6
192,176,65453,1,0
192,176,65603,2,0,B|144:176|104:136,1,100,8|0
232,112,65903,2,0,B|200:72|216:16,1,100
312,112,66203,2,0,B|320:56|376:40,1,100,8|0
352,176,66503,2,8,B|408:176|456:176,2,100,4|0|8
352,176,66953,1,0
288,240,67103,2,0,B|184:240,1,100
88,312,67403,2,0,B|192:312,1,100,8|0
288,312,67703,6,0,B|360:312|360:312|384:296,1,100,4|0
384,176,68003,2,8,B|384:104|384:104|368:80,1,100,8|0
248,80,68303,2,0,B|176:80|176:80|152:96,1,100,4|0
152,216,68603,2,0,B|152:288|152:288|168:312,1,100,8|0
288,312,68903,5,4
384,176,69053,1,8
248,80,69203,1,8
152,216,69353,1,0
384,296,69503,5,4
368,80,69653,1,0
152,96,69803,1,8
168,312,69953,1,0
368,80,70103,5,12
240,144,70253,1,0
96,144,70403,2,0,B|88:96|128:48,1,100,8|0
240,144,70703,2,0,B|268:96|316:76,1,100,8|0
360,216,71003,2,0,B|416:200|464:208,1,100,8|8
400,48,71303,2,10,B|448:72|472:120,1,100,12|0
352,120,71603,2,8,B|384:160|376:216,1,100,8|0
272,152,71903,2,0,B|264:200|200:216,1,100,8|0
192,112,72203,2,0,B|144:136|96:112,1,100,8|8
200,192,72503,6,0,B|120:264,1,100,12|0
144,336,72803,2,0,B|224:264,1,100,8|0
320,192,73103,2,0,B|400:264,1,100,12|0
376,336,73403,2,0,B|296:264,1,100,8|4
296,264,73628,1,0
288,256,73703,1,0
280,248,73778,1,0
272,240,73853,1,0
264,232,73928,1,0
256,224,74003,1,0
248,216,74078,1,0
240,208,74153,1,0
232,200,74228,1,0
224,192,74303,2,0,B|152:120,1,100,8|8
224,48,74603,1,0
288,120,74753,6,0,B|240:120,2,50,2|0|4
384,120,75053,2,0,B|432:120|480:152,1,100,0|8
352,208,75353,2,0,B|400:232|408:288,1,100
272,248,75653,2,0,B|280:296|232:336,1,100,0|8
112,344,75953,1,0
64,232,76103,6,0,B|40:184|64:136,1,100,4|0
216,112,76403,2,0,B|216:168|184:208,1,100,8|0
240,312,76703,2,0,B|296:304|320:256,1,100
472,136,77003,2,0,B|432:176|440:232,1,100,8|0
352,224,77303,5,4
319,130,77453,1,0
416,152,77603,1,4
256,204,77753,1,0
336,48,77903,5,4
320,304,78053,1,0
484,240,78203,1,4
184,128,78353,1,0
448,268,78503,6,0,B|360:200|264:268,1,200,4|8
84,176,79103,2,0,B|172:244|268:176,1,200,0|8
432,56,79703,6,0,B|384:56,5,50,12|0|0|0|0|0
368,88,80153,2,0,B|320:88,5,50,12|0|0|0|0|0
304,120,80603,2,0,B|256:120,5,50,12|0|0|0|0|0
240,152,81053,2,0,B|192:152,5,50,12|0|0|0|0|0
176,184,81503,2,0,B|128:184,4,50,12|0|0|0|12
316,184,82103,5,12
120,48,84503,6,0,B|168:48|216:72,1,100,4|0
304,120,84803,1,8
304,120,84953,1,0
216,168,85103,2,0,B|168:192|120:192,1,100,0|0
32,232,85403,1,8
32,232,85553,1,0
120,288,85703,2,0,B|176:288|216:312,1,100,0|0
304,356,86003,1,8
368,280,86153,1,0
320,192,86303,2,0,B|376:176|376:120,2,100,0|0|8
224,216,86753,1,0
176,128,86903,6,0,B|152:80|192:32,1,100,4|0
144,144,87203,2,0,B|96:120|88:64,1,100,8|0
120,184,87503,2,0,B|72:184|24:160,2,100,0|0|8
232,192,87953,1,0
344,184,88103,2,0,B|392:160|440:160,1,100,0|0
352,216,88403,2,0,B|400:232|424:280,1,100,8|0
320,248,88703,2,0,B|268:352|152:304,1,200,0|8
176,80,89303,6,0,B|120:80|80:48,1,100,4|0
152,120,89603,2,0,B|104:160|56:152,1,100,8|0
168,168,89903,2,0,B|144:216|96:240,1,100,0|0
208,184,90203,2,0,B|224:232|200:280,1,100,8|0
256,176,90503,5,4
336,232,90653,1,0
256,176,90803,1,8
336,120,90953,1,0
256,64,91103,2,0,B|344:72|376:104|408:176,1,200,0|8
408,280,91553,1,0
312,320,91703,6,0,B|230:319|230:319|216:304,1,100,4|0
104,208,92003,1,8
216,104,92153,1,0
328,208,92303,2,0,B|408:208|408:208|424:192,1,100,0|4
424,96,92603,1,8
336,144,92753,2,0,B|320:128|320:128|240:128,1,100,4|0
192,216,93053,5,0
288,216,93203,1,8
160,136,93353,1,0
160,288,93503,1,8
312,288,93653,1,0
312,136,93803,2,0,B|296:120|296:120|216:120,1,100,8|0
392,200,94103,5,4
328,272,94253,1,0
232,264,94403,2,0,B|168:280|152:320,1,100,8|0
248,344,94703,1,0
152,320,94853,1,0
96,240,95003,2,0,B|64:184|80:144,1,100,8|0
184,136,95303,6,0,B|184:240,1,100,2|0
264,136,95603,2,0,B|272:192|320:224,1,100,8|0
344,136,95903,2,0,B|448:136,1,100,0|0
384,216,96203,1,8
288,240,96353,1,0
192,240,96503,5,4
240,324,96653,1,0
288,240,96803,1,8
384,216,96953,1,0
288,144,97103,1,0
240,60,97253,1,0
192,144,97403,1,8
96,168,97553,1,0
268,112,97703,6,0,B|300:64|348:48,1,100,2|0
392,192,98003,2,0,B|448:208|472:248,1,100,8|0
328,312,98303,2,0,B|288:256|200:384|144:320,1,200,0|8
304,64,98903,6,0,B|384:64|384:64|400:48,1,100,4|0
208,64,99203,2,0,B|128:64|128:64|112:80,1,100,8|0
120,200,99503,1,0
312,296,99653,1,0
192,296,99803,1,8
384,200,99953,1,0
208,64,100103,6,0,B|288:64|288:64|304:48,1,100,2|0
288,280,100403,2,0,B|208:280|208:280|192:296,1,100,8|0
44,196,100703,1,0
344,256,100853,1,0
192,296,101003,1,8
424,96,101153,1,0
224,64,101303,6,0,B|152:64|152:64|128:80,1,100,4|0
288,320,101603,2,0,B|360:320|360:320|384:304,1,100,8|0
104,224,101903,2,0,B|104:296|104:296|120:320,1,100,8|0
416,168,102203,2,0,B|416:96|416:96|400:72,1,100,8|8
432,320,102803,6,0,B|424:320|424:320|416:312|416:312|408:320|408:320|336:320,1,100,2|0
248,272,103103,1,0
240,272,103178,1,0
232,272,103253,1,0
224,272,103328,1,0
216,272,103403,1,8
64,192,103703,6,0,B|136:168|168:88,1,149.999995529652
220,143,104303,1,8
273,89,104603,1,0
308,100,104753,2,0,B|376:128,3,74.9999977648259
472,171,105503,2,0,B|480:240|384:280,1,149.999995529652,8|0
312,280,106103,5,0
240,280,106403,1,0
200,344,106703,2,0,B|152:320|152:240|200:216,1,149.999995529652,8|0
224,192,107153,2,0,B|256:152|225:126,3,74.9999977648259
152,52,107903,2,0,B|104:12|56:12|16:52,1,149.999995529652,8|0
60,112,108503,5,0
16,172,108803,1,0
56,236,109103,2,0,B|120:292|192:236,1,149.999995529652,8|0
220,212,109553,2,0,B|257:185|292:212,3,74.9999977648259
376,268,110303,2,0,B|411:286|443:270|459:238|459:214|443:182,1,149.999995529652,8|0
336,72,110903,6,0,B|256:72,1,74.9999977648259
280,144,111203,2,0,B|200:144,1,74.9999977648259
96,296,111503,2,0,B|192:296,1,74.9999977648259,8|0
152,224,111803,2,0,B|240:224,1,74.9999977648259
216,152,112103,2,0,B|280:152,2,37.4999988824129
152,80,112403,2,0,B|240:80,1,74.9999977648259
324,80,112703,2,0,B|388:144|324:216,1,149.999995529652,8|0
64,272,113303,6,0,B|84:320|144:340|204:320|224:272,1,200,4|8
144,208,113753,1,0
64,144,113903,2,0,B|84:96|144:76|204:96|224:144,1,200,0|8
260,240,114353,1,0
352,276,114503,2,0,B|400:308|448:276,1,100,2|0
400,184,114803,2,0,B|400:80,1,100,8|0
224,184,115103,2,0,B|224:288,1,100,0|0
56,184,115403,2,0,B|56:80,1,100,8|0
176,80,115703,5,4
312,144,115853,1,0
248,280,116003,1,8
112,216,116153,1,0
200,92,116303,1,0
304,200,116453,1,0
204,312,116603,1,8
80,232,116753,1,0
116,88,116903,6,0,B|169:91|199:136,1,100,2|0
396,296,117203,2,0,B|342:292|312:248,1,100,8|0
312,136,117503,1,0
200,248,117653,1,0
312,136,117803,1,8
200,248,117953,1,0
432,192,118103,6,0,B|320:192,1,100,4|0
376,280,118403,1,8
376,104,118553,2,0,B|264:104,1,100,0|0
176,104,118853,2,0,B|136:56|136:56|96:56,2,100,0|8|0
224,192,119303,2,0,B|120:192,1,100,2|0
224,192,119603,1,8
64,272,119753,2,0,B|168:272,1,100,0|0
264,272,120053,2,0,B|320:272|320:272|352:304,2,100,0|8|0
168,272,120503,5,4
200,128,120653,1,0
344,80,120803,1,8
304,224,120953,1,0
160,88,121103,2,0,B|88:160,1,100,4|0
344,264,121403,2,0,B|416:192,1,100,8|0
256,136,121703,5,8
256,248,121853,1,0
256,80,122003,1,8
256,304,122153,1,0
384,192,122303,1,0
352,192,122378,1,0
320,192,122453,1,0
288,192,122528,1,0
256,192,122603,1,8
224,192,122678,1,0
192,192,122753,1,0
160,192,122828,1,0
128,192,122903,1,4
256,328,123503,5,8
256,328,123803,1,8
352,328,124103,6,0,B|416:328|448:304,1,100,4|0
336,240,124403,2,10,B|384:216|408:168,1,100,8|0
288,168,124703,2,0,B|320:128|312:72,1,100,0|0
208,136,125003,2,0,B|200:88|136:72,1,100,8|0
120,168,125303,2,0,B|76:128|32:168,2,100,4|0|8
192,240,125753,1,0
264,312,125903,2,0,B|308:352|352:312,1,100
416,232,126203,2,0,B|472:232|488:288,1,100,8|0
416,232,126503,5,4
352,152,126653,2,0,B|352:96|400:72,1,100,0|8
448,160,126953,1,0
400,248,127103,2,0,B|400:304|360:336,1,100,4|0
304,248,127403,2,0,B|264:216|208:216,1,100,8|0
112,208,127703,2,0,B|64:208|24:160,1,100,4|8
120,128,128003,2,0,B|92:84|112:32,1,100,8|0
192,88,128303,2,0,B|224:48|280:40,1,100,4|0
264,128,128603,1,8
272,208,128753,2,2,B|320:208,2,50,2|2|4
192,208,129053,5,0
192,208,129203,2,0,B|144:208|104:248,1,100,8|0
232,272,129503,2,0,B|200:312|216:368,1,100
312,272,129803,2,0,B|320:328|376:344,1,100,8|0
352,208,130103,2,8,B|408:208|456:208,2,100,4|0|8
352,208,130553,1,0
312,144,130703,2,0,B|208:144,1,100
88,72,131003,2,0,B|192:72,1,100,8|0
288,72,131303,6,0,B|360:72|360:72|384:88,1,100,4|0
384,208,131603,2,8,B|384:280|384:280|368:304,1,100,8|0
248,304,131903,2,0,B|176:304|176:304|152:288,1,100,4|0
152,168,132203,2,0,B|152:96|152:96|168:72,1,100,8|0
288,72,132503,5,4
384,208,132653,1,8
248,304,132803,1,8
152,168,132953,1,0
384,88,133103,5,4
368,304,133253,1,0
152,288,133403,1,8
168,72,133553,1,0
80,216,133703,6,0,B|40:248|40:304,1,100,12|0
152,264,134003,2,0,B|144:312|184:360,1,100,8|0
232,232,134303,2,0,B|264:280|312:296,1,100,8|0
288,168,134603,2,0,B|344:184|392:176,1,100,8|8
400,336,134903,2,10,B|448:312|472:264,1,100,12|0
352,264,135203,2,8,B|384:224|376:168,1,100,8|0
272,232,135503,2,0,B|264:184|200:168,1,100,8|0
192,272,135803,2,0,B|144:248|96:272,1,100,8|8
96,144,136103,6,0,B|176:72,1,100,12|0
96,240,136403,2,0,B|176:312,1,100,8|0
240,144,136703,2,0,B|336:112,1,100,12|0
240,240,137003,2,0,B|344:264,1,100,8|4
347,265,137228,1,0
356,267,137303,1,0
365,269,137378,1,0
374,271,137453,1,0
383,273,137528,1,0
392,275,137603,1,0
401,277,137678,1,0
410,279,137753,1,0
419,281,137828,1,0
428,283,137903,2,0,B|428:182,1,100,8|8
372,100,138203,1,0
316,184,138353,6,0,B|268:174,2,50,2|0|4
384,256,138653,2,0,B|432:256|480:224,1,100,0|8
408,160,138953,2,0,B|448:112|432:64,1,100
336,96,139253,2,0,B|312:48|256:48,1,100,0|8
128,40,139553,1,0
64,152,139703,2,0,B|40:200|64:248,1,100,4|0
152,200,140003,2,0,B|176:248|232:256,1,100,8|0
256,160,140303,2,0,B|312:152|336:104,1,100
232,64,140603,2,0,B|176:40|136:80,1,100,8|0
200,160,140903,5,4
233,254,141053,1,0
136,232,141203,1,4
304,188,141353,1,0
216,336,141503,5,4
232,80,141653,1,0
64,192,141803,1,4
368,248,141953,1,0
24,304,142103,6,0,B|136:308|192:216,1,200,4|8
288,40,142703,2,0,B|400:40|456:136,1,200,0|8
256,192,143303,12,0,145103
256,272,145403,5,8
256,112,145703,1,4
88,64,155303,6,0,B|304:64,1,200,0|8
368,120,156203,1,0
288,176,156503,2,0,B|88:176,1,200,0|8
8,232,157403,1,0
88,288,157703,6,0,B|296:288,1,200,0|8
368,232,158603,1,0
464,232,158903,2,0,B|488:280|464:328,2,100,0|0|8
464,136,159803,1,0
384,232,160103,6,0,B|384:152|384:152|368:136,1,100,0|0
280,216,160703,2,0,B|280:296|280:296|296:312,1,100,8|0
184,232,161303,2,0,B|184:152|184:152|168:136,1,100,0|0
80,216,161903,1,8
256,88,162503,6,0,B|360:88,1,100,0|0
256,168,163103,2,0,B|152:168,1,100,8|0
256,248,163703,2,0,B|360:248,1,100,0|0
256,328,164303,2,0,B|200:328,2,50,8|8|8
256,328,164753,1,2
96,256,166703,6,0,B|96:152,1,100
96,80,167303,6,0,B|160:80|160:80|168:88,1,74.9999977648259,2|0
224,136,167603,2,0,B|264:88|312:88|352:136,1,149.999995529652,0|2
288,176,168053,1,0
224,216,168203,2,0,B|264:264|312:264|352:216,1,149.999995529652,0|2
416,264,168653,1,0
352,312,168803,2,0,B|320:360|256:360|224:312,1,149.999995529652,0|2
288,272,169253,2,0,B|264:240|224:240,1,74.9999977648259,0|0
72,240,169703,6,0,B|24:208|24:144|72:112,1,149.999995529652,2|0
136,144,170153,1,0
200,112,170303,2,0,B|240:72|296:72|336:112,1,149.999995529652,2|0
304,176,170753,1,0
336,240,170903,2,0,B|304:280|272:240,1,74.9999977648259,2|0
198,242,171203,2,0,B|166:282|134:242,1,74.9999977648259,0|0
99,308,171503,2,0,B|147:348|187:348|235:308,1,149.999995529652,2|0
256,240,171953,5,0
256,240,172028,1,0
256,240,172103,2,0,B|224:208|224:168|248:136|280:128|280:112,1,149.999995529652,2|0
336,64,172553,1,0
392,112,172703,2,0,B|392:128|424:136|444:168|444:208|408:240,1,149.999995529652,2|0
348,288,173153,1,0
328,216,173303,2,0,B|328:104,2,112.499996647239,2|0|0
328,216,173903,1,2
177,122,174203,2,0,B|113:122|113:122|105:130,1,74.9999977648259
64,192,174503,6,0,B|104:208|144:192|144:192|144:264,1,149.999995529652,2|0
144,336,174953,1,0
208,296,175103,2,0,B|240:344|304:344|336:296,1,149.999995529652,2|0
272,256,175553,1,0
208,216,175703,2,0,B|128:216,1,74.9999977648259,4|0
272,168,176003,2,0,B|352:168,1,74.9999977648259,8|0
208,128,176303,1,4
208,120,176378,1,0
208,112,176453,1,0
208,104,176528,1,0
208,96,176603,1,4
208,88,176678,1,0
208,80,176753,1,0
208,72,176828,1,0
208,64,176903,6,0,B|248:24|296:64,1,100,4|0
288,152,177203,2,0,B|240:192|240:240,1,100,8|0
336,208,177503,2,0,B|336:256|384:296,1,100,8|0
408,200,177803,2,0,B|448:240|496:200,1,100,8|8
432,128,178103,2,0,B|464:80|432:32,2,100,4|0|8
344,80,178553,1,0
256,32,178703,2,0,B|232:80|256:128,1,100,8|0
88,200,179003,2,0,B|136:176|184:200,1,100,8|8
424,192,179303,6,0,B|336:192|336:192|328:200,1,100,4|0
256,352,179603,2,0,B|256:264|256:264|264:256,1,100,8|0
408,48,179903,2,0,B|328:96|328:96|328:104,1,100,4|0
88,312,180203,2,0,B|168:264|168:264|168:256,1,100,8|4
168,249,180428,1,0
168,240,180503,1,0
168,232,180578,1,0
168,224,180653,1,0
168,216,180728,1,0
168,208,180803,1,0
168,200,180878,1,0
168,192,180953,1,0
168,184,181028,1,0
168,176,181103,2,0,B|248:128|248:128|248:120,1,100,8|8
248,24,181403,1,0
160,72,181553,6,2,B|104:72,2,50,2|2|4
256,72,181853,1,0
256,72,182003,2,0,B|360:72,1,100,8|0
480,136,182303,2,0,B|480:240,1,100
352,296,182603,2,0,B|248:296,1,100,8|0
168,184,182903,5,4
168,184,183053,1,0
256,72,183203,2,0,B|144:72,1,100,8|0
32,136,183503,2,0,B|32:240,1,100
160,296,183803,2,0,B|264:296,1,100,8|0
392,240,184103,5,4
264,192,184253,1,0
344,80,184403,1,4
312,344,184553,1,0
472,160,184703,5,4
144,280,184853,1,0
464,336,185003,1,4
184,96,185153,1,0
328,112,185303,6,0,B|416:200|328:288,1,200,4|8
128,288,185903,2,0,B|40:200|128:112,1,200,0|8
304,292,186503,6,0,B|304:244,5,50,12|0|0|0|0|0
268,240,186953,2,0,B|268:188,5,50,12|0|0|0|0|0
232,192,187403,2,0,B|232:144,5,50,12|0|0|0|0|0
268,144,187853,2,0,B|268:96,5,50,12|0|0|0|0|0
304,92,188303,2,0,B|304:44,4,50,12|0|0|0|12
432,192,188903,5,12
432,292,189053,1,8
80,192,189353,1,12
80,92,189503,1,8
256,16,189803,1,12
356,16,189953,1,8
256,368,190253,1,12
156,368,190403,1,8
256,192,190703,1,12
256,192,190853,1,8
256,192,191303,5,12
