osu file format v9

[General]
AudioFilename: Dispel.mp3
AudioLeadIn: 0
PreviewTime: 124103
Countdown: 0
SampleSet: Soft
StackLeniency: 0.7
Mode: 0
LetterboxInBreaks: 1

[Editor]
Bookmarks: 20903,40103,49703,60503,81803,103703,113303,145103,155303,167303,176903,188603
DistanceSpacing: 1
BeatDivisor: 4
GridSize: 4

[Metadata]
Title:Dispel
Artist:Meiko Nakamura
Creator:terametis
Version:Hard
Source:
Tags:S_h_i_o_n Shion adresse leviation

[Difficulty]
HPDrainRate:5
CircleSize:4
OverallDifficulty:5
ApproachRate:8
SliderMultiplier:1.6
SliderTickRate:2

[Events]
//Background and Video events
0,0,"d0db5cd1.jpg"
//Break Periods
2,82303,83753
2,145903,154553
2,164953,166553
//Storyboard Layer 0 (Background)
//Storyboard Layer 1 (Fail)
//Storyboard Layer 2 (Pass)
//Storyboard Layer 3 (Foreground)
//Storyboard Sound Samples
//Background Colour Transformations
3,100,163,162,255

[TimingPoints]
20903,300,4,2,1,80,1,0
40103,-133.333333333333,4,2,1,80,0,0
49703,-100,4,2,1,80,0,0
60503,-100,4,2,1,80,0,1
82103,-100,4,2,1,80,0,0
103703,-133.333333333333,4,2,1,80,0,0
113303,-100,4,2,1,80,0,0
124103,-100,4,2,1,80,0,1
145103,-100,4,2,1,80,0,0
155303,-200,4,2,1,80,0,0
160103,-200,4,2,1,60,0,0
160178,-200,4,2,1,80,0,0
167303,-133.333333333333,4,2,1,80,0,0
176903,-100,4,2,1,80,0,1
188903,-100,4,2,1,80,0,0

[HitObjects]
72,96,20903,2,0,B|144:32|216:96,1,160,0|8
376,96,21503,2,0,B|456:96,2,80,0|0|8
216,96,22103,2,0,B|280:168|216:240,1,160,0|8
216,240,22553,1,0
96,344,22853,1,0
96,344,23003,2,0,B|264:344,1,160,8|0
368,232,23603,5,8
256,120,23903,2,0,B|288:96|288:96|328:96,2,80,0|0|8
144,232,24503,1,0
256,344,24803,1,8
256,344,24953,2,0,B|256:184,1,160
256,184,25403,1,8
176,48,25703,6,0,B|128:80|128:80|96:128|96:176,2,160,4|8|0
216,116,26453,1,0
296,116,26603,1,8
336,48,26753,2,0,B|384:80|384:80|416:128|416:176,1,160,0|0
416,176,27203,1,8
256,176,27503,1,0
256,176,27653,1,0
256,176,27803,1,8
416,176,28103,6,0,B|416:224|384:272|384:272|336:304,1,160,0|8
176,304,28703,2,0,B|96:304,2,80,0|0|8
336,304,29303,2,0,B|288:272|288:272|256:224|256:176,1,160,0|8
256,176,29753,1,0
256,16,30053,1,0
256,16,30203,1,8
120,96,30503,5,4
256,176,30803,1,8
392,96,31103,2,0,B|472:96,2,80,0|0|8
232,96,31703,2,0,B|168:168|232:240,1,160,0|8
232,240,32153,1,0
392,240,32453,1,0
392,240,32603,2,0,B|456:168|392:96,1,160,8|0
232,96,33203,5,8
88,168,33503,2,0,B|8:168,2,80,0|0|8
232,240,34103,2,0,B|304:304|376:240,1,160,0|8
376,240,34553,1,0
304,96,34853,2,0,B|304:16,2,80,0|8|0
304,96,35303,5,4
304,256,35603,1,8
432,176,35903,2,0,B|512:176,2,80,0|0|8
288,176,36503,2,0,B|216:112|144:176,1,160,0|8
144,175,36953,1,0
32,288,37253,1,0
32,288,37403,2,0,B|104:352|176:288,1,160,8|8
336,288,38003,5,8
256,152,38303,1,8
176,288,38603,2,0,B|256:288,1,80,8|8
496,288,39203,2,0,B|408:288,1,80,2|0
336,288,39503,2,0,B|336:376,2,80,0|0|8
336,128,40103,6,0,B|280:88|224:128,1,119.999996423721
280,232,40703,1,8
336,128,41003,1,0
224,128,41303,2,0,B|168:88|112:128,1,119.999996423721
168,232,41903,1,8
224,128,42203,1,0
104,128,42503,6,0,B|-16:128,2,119.999996423721,0|0|8
224,128,43403,1,0
344,128,43703,2,0,B|432:128|432:128|456:152,1,119.999996423721
448,272,44303,2,0,B|360:272|360:272|336:248,1,119.999996423721,8|0
252,164,44903,5,0
368,132,45203,1,0
336,248,45503,2,0,B|312:272|312:272|224:272,1,119.999996423721,8|0
104,272,46103,1,0
160,168,46403,1,0
224,272,46703,2,0,B|256:180|256:180|248:160,1,119.999996423721,8|0
331,76,47303,5,0
364,192,47603,1,0
248,160,47903,2,0,B|224:184|224:184|136:184,1,119.999996423721,8|0
16,184,48503,1,0
76,80,48803,1,0
136,184,49103,2,0,B|176:272|176:272|200:272,1,119.999996423721,8|0
320,272,49703,6,0,B|392:336|464:272,1,160,4|8
464,112,50303,2,0,B|464:32,2,80,0|0|8
464,272,50903,2,0,B|392:208|320:272,1,160,0|8
320,271,51353,1,0
160,272,51653,2,0,B|80:272,2,80,0|8|0
160,272,52103,5,0
304,192,52403,1,8
160,112,52703,2,0,B|160:32,2,80,0|0|8
160,272,53303,2,0,B|232:336|304:272,1,160,0|8
303,272,53753,1,0
304,112,54053,1,0
304,112,54203,1,8
168,192,54503,6,0,B|328:192,1,160,0|8
328,192,54953,1,0
488,192,55253,1,0
488,192,55403,2,0,B|440:192|440:192|416:216,1,80,8|0
360,271,55703,6,0,B|200:271,1,160,0|8
200,271,56153,1,0
40,272,56453,1,0
40,272,56603,2,0,B|88:272|88:272|112:248,1,80,8|0
167,192,56903,6,0,B|280:80,1,160,0|8
440,80,57503,2,0,B|528:80,2,80,0|0|8
440,80,57953,1,0
256,192,58103,12,4,59303
256,192,59903,5,8
144,308,60203,1,8
32,192,60503,6,0,B|88:136,1,80,4|0
168,136,60803,1,8
308,76,61103,2,0,B|388:76,2,80,0|0|8
168,136,61703,6,0,B|248:136,1,80,4|0
308,76,62003,1,8
384,224,62303,2,0,B|464:224,2,80,0|0|8
224,224,62903,6,0,B|152:288|80:224,1,160,4|8
224,152,63503,2,0,B|160:80|224:8,1,160,4|8
296,152,64103,2,0,B|368:88|440:152,1,160,4|8
296,224,64703,2,0,B|296:296|296:296|288:304,2,80,0|0|8
296,64,65303,5,4
224,208,65603,1,8
296,352,65903,2,0,B|368:316,1,80
448,316,66203,1,8
512,192,66503,5,4
472,36,66803,1,8
344,136,67103,2,0,B|264:136,1,80
224,208,67403,1,8
64,216,67703,6,0,B|136:208|136:208|144:160|184:136,1,160,4|8
344,136,68303,2,0,B|416:72|488:136,1,160,4|8
344,216,68903,2,0,B|408:288|344:360,1,160,4|8
264,216,69503,2,0,B|184:216,2,80,0|0|8
424,216,70103,5,4
304,320,70403,2,0,B|136:320,2,160,8|8|8
424,216,71303,1,4
304,104,71603,2,4,B|144:104,2,160,8|8|8
424,216,72503,6,0,B|352:280|280:216,1,160,4|8
280,136,72953,1,0
280,56,73103,2,0,B|208:-8|136:56,1,160,4|8
136,136,73553,1,0
136,216,73703,6,0,B|128:260|152:296,1,80,4|0
216,248,74003,2,0,B|232:296|264:312,1,80,8|0
304,248,74303,2,0,B|344:280|384:264,1,80,4|0
360,192,74603,2,0,B|404:184|424:144,1,80,8|0
352,112,74903,6,0,B|280:48|208:112,1,160,4|8
88,112,75503,2,0,B|56:80|16:112,2,80,0|0|8
88,272,76103,2,0,B|160:336|232:272,1,160,4|8
232,112,76703,2,0,B|272:80|304:112,2,80,0|0|8
160,256,77303,6,0,B|128:296|160:328,1,80,12|0
232,256,77603,2,0,B|272:288|304:256,1,80,8|0
232,184,77903,2,0,B|264:144|232:112,1,80,8|0
160,184,78203,2,0,B|120:152|88:184,1,80,8|0
160,256,78503,6,0,B|200:296|264:296|304:256,1,160,4|8
312,96,79103,1,0
152,96,79403,1,8
216,244,79703,6,0,B|136:244,1,80,4|8
296,244,80153,2,0,B|384:244,1,80,4|8
216,164,80603,2,0,B|136:164,1,80,4|8
296,164,81053,2,0,B|376:164,1,80,4|8
256,92,81503,2,0,B|256:12,2,80,8|8|4
256,92,82103,1,12
176,56,84503,6,0,B|96:56,2,80,4|0|8
256,192,85103,2,0,B|336:192,2,80,0|0|8
96,192,85703,2,0,B|32:264|96:336,1,160,0|8
96,335,86153,1,0
256,336,86453,2,0,B|336:336,1,80,0|8
496,336,86903,6,0,B|416:336,1,80,4|0
416,336,87203,1,8
336,192,87503,2,0,B|288:192|264:160,2,80,0|0|8
496,192,88103,2,0,B|456:272|368:272,1,160,0|8
368,272,88553,1,0
208,272,88853,2,0,B|288:272,1,80,0|8
128,272,89303,6,0,B|48:272,2,80,4|0|8
264,184,89903,2,0,B|344:184,2,80,0|0|8
104,184,90503,2,0,B|40:112|104:40,1,160,4|8
104,40,90953,1,0
264,40,91253,1,0
264,40,91403,2,0,B|328:112|264:184,1,160,8|4
104,184,92003,5,8
104,344,92303,2,0,B|24:344,2,80,0|0|8
264,344,92903,2,0,B|388:344|388:344|416:320,1,160,4|8
416,320,93353,1,0
416,160,93653,2,0,B|416:240,1,80,0|8
416,80,94103,6,0,B|344:16|272:80,1,160,4|8
112,80,94703,2,0,B|32:80,2,80,0|0|8
272,80,95303,2,0,B|208:152|272:224,1,160,0|8
272,223,95753,1,0
392,328,96053,1,0
392,328,96203,2,0,B|224:328,1,160,8|0
120,216,96803,5,8
232,104,97103,2,0,B|200:80|200:80|160:80,2,80,0|0|8
344,216,97703,1,0
232,328,98003,1,8
232,328,98153,2,0,B|232:268|232:268|256:232|256:232|256:176,1,160
256,176,98603,1,8
336,36,98903,6,0,B|348:104|348:104|400:120|416:164,2,160,0|8|0
268,80,99653,2,0,B|192:116,1,80,0|8
176,36,99953,2,0,B|128:68|128:68|96:116|96:164,1,160
95,163,100403,1,8
256,164,100703,1,0
256,164,100853,1,0
256,164,101003,1,8
336,304,101303,5,8
176,304,101603,1,8
256,164,101903,1,8
416,164,102203,2,0,B|336:164,1,80,8|8
96,164,102803,2,0,B|176:164,1,80,2|0
256,164,103103,2,0,B|256:76,2,80,0|0|8
256,284,103703,5,0
344,204,104003,1,0
256,120,104303,1,8
168,204,104603,2,0,B|104:204,2,59.9999982118607
224,204,105053,1,0
280,204,105203,1,0
380,256,105503,2,0,B|420:200|380:144,1,119.999996423721,8|0
256,144,106103,5,0
192,40,106403,1,0
312,40,106703,1,8
256,144,107003,2,0,B|320:144,2,59.9999982118607
200,144,107453,1,0
144,144,107603,1,0
192,40,107903,1,8
256,144,108203,1,0
192,248,108503,5,0
72,248,108803,1,0
16,144,109103,1,8
136,144,109403,2,0,B|168:88,2,59.9999982118607
104,200,109853,1,0
72,248,110003,1,0
136,352,110303,1,8
200,248,110603,1,0
264,144,110903,5,0
384,144,111203,1,0
328,248,111503,1,8
264,144,111803,2,0,B|224:208,2,59.9999982118607
296,96,112253,1,0
328,48,112403,1,0
384,144,112703,1,8
264,144,113003,1,0
200,48,113303,6,0,B|80:48|80:48|56:80,1,160,4|8
56,240,113903,2,0,B|-24:240,2,80,0|0|8
216,240,114503,2,0,B|288:304|360:240,1,160,0|8
359,240,114953,1,0
360,80,115253,2,0,B|408:80|424:40,2,80,0|8|0
280,80,115703,6,0,B|144:80|144:80|128:96,1,160,0|8
128,256,116303,1,0
128,256,116453,1,0
128,256,116603,2,0,B|144:272|144:272|280:272,1,160,8|0
440,272,117203,1,8
440,272,117353,2,8,B|456:256|456:256|456:120,1,160,0|0
456,118,117803,1,8
296,120,118103,6,0,B|280:104|280:104|144:104,1,160,0|8
64,104,118553,2,0,B|0:176|64:248,1,160,0|0
144,248,119003,1,8
144,248,119153,1,0
200,312,119303,6,0,B|360:312,1,160,0|8
408,248,119753,1,0
408,88,120053,2,0,B|408:48|456:32,2,80,0|8|0
408,168,120503,6,0,B|296:168|296:168|256:200,1,160,0|8
152,320,121103,2,0,B|72:320,2,80,0|0|8
232,320,121553,1,0
256,192,121703,12,4,122903
256,192,123503,5,8
368,308,123803,1,8
480,192,124103,6,0,B|432:128,1,80,4|0
352,128,124403,1,8
196,168,124703,2,0,B|132:168|132:168|108:168,2,80,0|0|8
288,304,125303,2,0,B|288:224,1,80,4|0
288,224,125603,1,8
128,224,125903,2,0,B|48:224,2,80,0|0|8
288,224,126503,6,0,B|360:288|432:224,1,160,4|8
432,64,127103,2,0,B|360:0|288:64,1,160,4|8
288,224,127703,2,0,B|352:296|288:368,1,160,4|8
144,296,128303,2,0,B|104:320|64:296,2,80,0|0|8
144,136,128903,5,4
304,136,129203,1,8
304,296,129503,2,0,B|328:336|368:336,2,80,0|0|8
304,136,130103,5,4
144,136,130403,1,8
136,296,130703,2,0,B|112:336|72:336,2,80,0|0|8
216,160,131303,6,0,B|256:72|344:72,1,160,4|8
272,216,131903,2,0,B|360:256|360:344,1,160,4|8
216,264,132503,2,0,B|176:352|88:352,1,160,4|8
160,216,133103,2,0,B|120:216|96:176,2,80,0|0|8
320,216,133703,5,4
320,56,134003,2,0,B|480:56,2,160,8|8|8
160,56,134903,1,4
160,216,135203,2,4,B|0:216,2,160,8|8|8
320,216,136103,6,0,B|392:280|464:216,1,160,4|8
420,148,136553,1,0
376,80,136703,2,0,B|304:16|232:80,1,160,4|8
276,148,137153,1,0
232,216,137303,6,0,B|252:252|232:292,1,80,4|0
160,252,137603,2,0,B|156:296|124:320,1,80,8|0
76,256,137903,2,0,B|36:280|0:260,1,80,4|0
36,188,138203,2,0,B|4:164|12:116,1,80,8|0
92,136,138503,6,0,B|160:136|160:136|192:116|192:116|248:116,1,160,4|8
408,116,139103,2,0,B|408:36,2,80,0|0|8
408,276,139703,2,0,B|340:276|340:276|308:296|308:296|252:296,1,160,4|8
92,296,140303,2,0,B|92:376,2,80,0|0|8
92,136,140903,6,0,B|136:136|172:120,1,80,12|0
172,200,141203,2,0,B|216:200|252:216,1,80,8|0
252,136,141503,2,0,B|296:136|332:120,1,80,8|0
332,200,141803,2,0,B|376:200|412:216,1,80,8|0
364,280,142103,6,0,B|324:320|324:320|208:320,1,160,4|8
60,320,142703,1,0
140,180,143003,1,8
220,320,143303,1,8
256,192,143453,12,0,145103
256,272,145403,5,8
256,112,145703,1,4
96,96,155303,6,0,B|168:32|240:96,1,160,0|8
320,96,156203,1,0
400,96,156503,2,0,B|480:96,2,80,0|0|8
320,96,157403,1,0
240,96,157703,6,0,B|304:168|240:240,1,160,0|8
160,240,158603,1,0
80,240,158903,2,0,B|0:240,2,80,0|0|8
160,240,159803,1,0
240,240,160103,6,0,B|312:304|384:240,1,160,4|8
464,240,161003,1,0
464,160,161303,2,0,B|464:72,2,80,0|0|8
464,320,162503,6,0,B|392:384|320:320,1,160,4|8
320,240,163403,1,0
240,240,163703,2,0,B|240:160,1,80
240,80,164303,2,0,B|280:80,2,40,8|8|8
200,80,164753,1,2
172,192,167303,5,2
256,276,167603,1,0
340,192,167903,1,0
256,108,168203,1,0
152,224,168503,5,2
284,308,168803,1,0
364,172,169103,1,0
240,76,169403,1,0
120,76,169703,6,0,B|64:28|12:76,1,119.999996423721,2|0
12,196,170303,2,0,B|68:244|120:196,1,119.999996423721,2|0
220,132,170903,2,0,B|276:88|332:132,1,119.999996423721,2|0
276,240,171503,1,0
56,332,172103,6,0,B|8:276|56:224,1,119.999996423721,2|0
56,104,172703,1,0
176,104,173003,1,0
176,224,173303,2,0,B|296:224,1,119.999996423721,2|0
296,104,173903,1,0
416,104,174203,1,0
416,224,174503,6,0,B|464:280|416:332,1,119.999996423721,2|0
296,332,175103,2,0,B|172:332,1,119.999996423721,2|0
56,332,175703,2,0,B|8:276|56:224,1,119.999996423721,6|8
176,224,176303,2,0,B|176:164,2,59.9999982118607,0|0|12
176,332,176903,6,0,B|240:332|284:288|284:236,1,160,4|8
284,76,177503,1,0
284,76,177653,1,0
284,76,177803,2,8,B|376:76|416:152,1,160,8|4
416,312,178403,1,8
416,152,178703,2,0,B|496:152,2,80,0|0|8
256,152,179303,6,0,B|180:112|180:112|104:112,1,160,4|8
68,184,179753,1,0
104,256,179903,2,0,B|180:256|180:256|256:220,1,160,4|8
328,184,180353,1,0
408,184,180503,6,0,B|408:104,1,80,4|0
328,184,180803,2,0,B|248:184,1,80,8|0
328,268,181103,2,0,B|328:348,1,80,4|0
408,268,181403,2,0,B|488:268,1,80,8|0
408,184,181703,6,0,B|408:132|364:88|300:88,1,160,4|8
140,88,182303,2,0,B|56:88,2,80,0|0|8
300,88,182903,2,0,B|300:140|256:184|192:184,1,160,4|8
32,180,183503,2,0,B|32:96,2,80,0|0|8
32,260,183953,1,0
32,260,184103,6,0,B|24:300|48:340,1,80,12|0
128,292,184403,2,0,B|144:332|176:356,1,80,8|0
228,276,184703,2,0,B|264:304|308:296,1,80,8|0
304,200,185003,2,0,B|344:184|368:152,1,80,8|0
256,124,185303,6,0,B|184:64|112:124,1,160,4|8
112,284,185903,2,0,B|184:344|256:284,1,160,0|8
256,124,186503,6,0,B|336:124,1,80,4|8
256,284,186953,2,0,B|168:284,1,80,4|8
336,204,187403,2,0,B|336:284,1,80,4|8
176,204,187853,2,0,B|176:124,1,80,4|8
336,124,188303,2,0,B|256:124,1,80,8|8
256,204,188603,1,4
296,360,188903,6,0,B|384:360,1,80,12|8
216,360,189353,2,0,B|128:360,1,80,12|8
296,280,189803,2,0,B|384:280,1,80,12|8
216,280,190253,2,0,B|128:280,1,80,12|8
256,128,190703,2,0,B|256:44,1,80,12|8
256,208,191303,5,4
