osu file format v9

[General]
AudioFilename: Dispel.mp3
AudioLeadIn: 0
PreviewTime: 124103
Countdown: 0
SampleSet: Soft
StackLeniency: 0.7
Mode: 0
LetterboxInBreaks: 1

[Editor]
Bookmarks: 20903,60503,81803,124103,145103,176903,188603
DistanceSpacing: 0.8
BeatDivisor: 4
GridSize: 8

[Metadata]
Title:Dispel
Artist:Meiko Nakamura
Creator:terametis
Version:Easy
Source:
Tags:S_h_i_o_n Shion adresse leviation

[Difficulty]
HPDrainRate:2
CircleSize:3
OverallDifficulty:2
ApproachRate:2
SliderMultiplier:0.7
SliderTickRate:2

[Events]
//Background and Video events
0,0,"d0db5cd1.jpg"
//Break Periods
2,37903,38543
2,82303,82943
2,101503,102143
2,145903,153743
2,165103,165743
//Storyboard Layer 0 (Background)
//Storyboard Layer 1 (Fail)
//Storyboard Layer 2 (Pass)
//Storyboard Layer 3 (Foreground)
//Storyboard Sound Samples
//Background Colour Transformations
3,100,163,162,255

[TimingPoints]
20903,300,4,2,1,80,1,0
60503,-100,4,2,1,80,0,1
82103,-100,4,2,1,80,0,0
124103,-100,4,2,1,80,0,1
145703,-100,4,2,1,80,0,0
176903,-100,4,2,1,80,0,1
188903,-100,4,2,1,80,0,0

[HitObjects]
256,80,20903,1,0
368,80,21503,2,0,B|400:96|424:136|400:176|368:192,1,140,8|0
256,192,22703,1,8
144,192,23303,5,0
144,304,23903,2,0,B|160:336|200:360|240:336|256:304,1,140,8|0
256,192,25103,1,8
256,80,25703,5,4
344,144,26303,2,0,B|376:176|376:176|376:224|376:224|344:256,1,140,8|0
256,320,27503,1,8
144,320,28103,5,0
48,256,28703,2,0,B|16:224|16:224|16:176|16:176|48:144,1,140,8|0
144,80,29903,1,8
256,80,30503,5,4
368,80,31103,1,8
368,192,31703,2,8,B|440:192,2,70,0|0|8
256,192,32903,5,0
144,192,33503,1,8
144,304,34103,2,8,B|72:304,2,70,0|0|8
256,304,35303,6,0,B|288:288|312:248|288:208|256:192,1,140,0|8
144,192,36503,2,0,B|112:176|88:136|112:96|144:80,1,140,0|8
256,80,37703,1,4
256,80,40103,6,0,B|272:48|312:24|352:48|368:80,1,140,0|8
368,192,41303,2,0,B|440:192,2,70,0|0|8
256,192,42503,6,0,B|240:224|200:248|160:224|144:192,1,140,0|8
144,80,43703,2,0,B|72:80,2,70,0|0|8
256,80,44903,5,0
256,192,45503,1,8
256,304,46103,2,0,B|184:304,2,70,0|0|8
368,304,47303,6,0,B|400:288|424:248|400:208|368:192,1,140,0|8
256,192,48503,2,0,B|184:192,2,70,0|0|8
368,192,49703,6,0,B|400:176|424:136|400:96|368:80,1,140,4|8
256,80,50903,2,0,B|112:80,1,140,0|8
112,192,52103,6,0,B|80:208|56:248|80:288|112:304,1,140,0|8
224,304,53303,2,0,B|368:304,1,140,0|8
368,192,54503,5,4
312,96,55103,1,8
256,192,55703,1,4
192,280,56303,1,8
120,192,56903,5,4
192,104,57503,1,4
256,192,58103,12,4,59303
256,192,60503,5,4
368,192,61103,1,8
368,304,61703,1,2
256,304,62303,1,8
144,304,62903,6,0,B|112:288|88:248|112:208|144:192,1,140,4|8
256,192,64103,2,0,B|288:176|312:136|288:96|256:80,1,140,2|8
144,80,65303,5,4
144,192,65903,1,8
256,192,66503,2,0,B|272:224|312:248|352:224|368:192,1,140,2|8
368,80,67703,5,4
256,80,68303,1,8
256,192,68903,2,0,B|256:264,2,70,2|2|8
256,80,70103,5,4
144,80,70703,2,0,B|144:160,1,70,8|0
144,208,71303,2,0,B|112:224|88:264|112:304|144:320,1,140,2|8
256,320,72503,5,4
368,320,73103,2,0,B|368:248,1,70,8|0
368,192,73703,2,0,B|400:176|424:136|400:96|368:80,1,140,2|8
256,80,74903,5,4
256,192,75503,1,8
256,304,76103,2,0,B|336:304,2,70,2|2|8
144,304,77303,6,0,B|72:272|48:192|72:112|144:80,1,280,4|8
256,80,79103,1,8
256,192,79703,12,2,82103
256,80,84503,5,0
144,80,85103,6,0,B|112:96|88:136|112:176|144:192,1,140,8|0
256,192,86303,1,8
368,192,86903,5,0
368,304,87503,2,0,B|352:336|312:360|272:336|256:304,1,140,8|0
256,192,88703,1,8
256,80,89303,5,0
168,144,89903,2,0,B|136:176|136:176|136:224|136:224|168:256,1,140,8|0
256,320,91103,1,8
368,320,91703,5,0
464,256,92303,2,0,B|496:224|496:224|496:176|496:176|464:144,1,140,8|0
368,80,93503,1,8
256,80,94103,5,4
144,80,94703,1,8
144,192,95303,2,8,B|72:192,2,70,0|0|8
256,192,96503,5,0
368,192,97103,1,8
368,304,97703,2,8,B|440:304,2,70,0|0|8
256,304,98903,6,0,B|224:288|200:248|224:208|256:192,1,140,4|8
368,192,100103,2,0,B|400:176|424:136|400:96|368:80,1,140,0|8
256,80,101303,1,4
256,80,103703,6,0,B|240:48|200:24|160:48|144:80,1,140,0|8
144,192,104903,2,0,B|72:192,2,70,0|0|8
256,192,106103,6,0,B|272:224|312:248|352:224|368:192,1,140,0|8
368,80,107303,2,0,B|440:80,2,70,0|0|8
256,80,108503,5,0
256,192,109103,1,8
256,304,109703,2,0,B|328:304,2,70,0|0|8
144,304,110903,6,0,B|112:288|88:248|112:208|144:192,1,140,0|8
256,192,112103,2,0,B|328:192,2,70,0|0|8
144,192,113303,6,0,B|112:176|88:136|112:96|144:80,1,140,4|8
256,80,114503,1,0
368,80,115103,1,8
368,192,115703,6,0,B|400:208|424:248|400:288|368:304,1,140,4|8
256,304,116903,1,0
144,304,117503,1,8
144,192,118103,5,4
200,96,118703,1,8
256,192,119303,1,4
320,288,119903,1,8
384,192,120503,5,4
320,96,121103,1,4
256,192,121703,12,4,122903
256,192,124103,5,4
144,192,124703,1,8
144,304,125303,1,4
256,304,125903,1,8
368,304,126503,6,0,B|400:288|424:248|400:208|368:192,1,140,2|8
256,192,127703,2,0,B|224:176|200:136|224:96|256:80,1,140,2|8
368,80,128903,5,4
368,192,129503,1,8
256,192,130103,2,0,B|240:224|200:248|160:224|144:192,1,140,2|8
144,80,131303,5,4
256,80,131903,1,8
256,192,132503,2,0,B|256:264,2,70,2|2|8
256,80,133703,5,4
368,80,134303,2,0,B|368:152,1,70,8|0
368,208,134903,2,0,B|400:224|424:264|400:304|368:320,1,140,2|8
256,320,136103,5,4
144,320,136703,2,0,B|144:240,1,70,8|0
144,192,137303,2,0,B|112:176|88:136|112:96|144:80,1,140,2|8
256,80,138503,5,4
256,192,139103,1,8
256,304,139703,2,0,B|184:304,2,70,2|2|8
368,304,140903,6,0,B|440:272|464:192|440:112|368:80,1,280,4|8
256,80,142703,1,8
256,192,143303,12,4,145703
144,80,155303,6,0,B|160:48|200:24|240:48|256:80,1,140,0|8
256,192,156503,2,0,B|272:224|312:248|352:224|368:192,1,140,0|8
368,80,157703,6,0,B|352:48|312:24|272:48|256:80,1,140,0|8
256,192,158903,2,0,B|288:208|312:248|288:288|256:304,1,140,0|8
144,304,160103,6,0,B|112:288|88:248|112:208|144:192,1,140,0|8
256,192,161303,2,8,B|328:192,2,70,0|0|8
144,192,162503,6,0,B|112:176|88:136|112:96|144:80,1,140,0|8
256,80,163703,2,8,B|328:80,2,70,0|0|8
144,80,164903,1,2
256,80,167303,5,2
256,304,168503,1,2
64,192,169703,5,2
256,80,170903,1,2
456,192,172103,5,2
256,304,173303,1,2
256,80,174503,5,2
256,192,175103,1,2
256,304,175703,2,8,B|256:376,2,70,8|8|4
256,192,176903,6,0,B|240:160|200:136|160:160|144:192,1,140,4|8
144,304,178103,1,2
200,304,178403,1,2
256,304,178703,1,8
368,304,179303,6,0,B|400:288|424:248|400:208|368:192,1,140,4|8
256,192,180503,2,8,B|184:192,2,70,2|2|8
368,192,181703,6,0,B|400:176|424:136|400:96|368:80,1,140,4|8
256,80,182903,1,2
200,80,183203,1,2
144,80,183503,1,8
144,192,184103,6,0,B|176:264|256:288|336:264|368:192,1,280,4|8
368,80,185903,1,8
256,80,186503,1,4
256,192,186803,12,4,188603
256,192,188903,12,4,191303
