osu file format v10

[General]
AudioFilename: Leave the Lights On.mp3
AudioLeadIn: 2000
PreviewTime: 22635
Countdown: 0
SampleSet: Soft
StackLeniency: 0.7
Mode: 0
LetterboxInBreaks: 1

[Editor]
Bookmarks: 12753
DistanceSpacing: 0.8
BeatDivisor: 4
GridSize: 4

[Metadata]
Title:Leave The Lights On (KROT Remix)
TitleUnicode:Leave The Lights On (KROT Remix)
Artist:Meiko
ArtistUnicode:Meiko
Creator:Moway
Version:Normal
Source:
Tags:The Bright Side drum and bass dnb drum'n'bass Kirill Orlov Chyo-kun mintong89
BeatmapID:171127
BeatmapSetID:56633

[Difficulty]
HPDrainRate:3
CircleSize:4
OverallDifficulty:3
ApproachRate:4
SliderMultiplier:1.2
SliderTickRate:1

[Events]
//Background and Video events
0,0,"bg.jpg"
//Break Periods
2,45424,55198
//Storyboard Layer 0 (Background)
//Storyboard Layer 1 (Fail)
//Storyboard Layer 2 (Pass)
//Storyboard Layer 3 (Foreground)
//Storyboard Sound Samples
//Background Colour Transformations
3,100,163,162,255

[TimingPoints]
48,352.941176470588,4,2,1,40,1,0
11342,-100,4,2,2,60,0,0
22636,-100,4,2,1,60,0,0
56518,-100,4,2,0,30,0,0
67812,-100,4,2,2,50,0,0
79106,-100,4,2,2,55,0,0
90400,-100,4,2,1,60,0,1
112989,-100,4,2,1,60,0,0

[Colours]
Combo1 : 166,249,255
Combo2 : 98,98,98
Combo3 : 232,255,255
Combo4 : 64,128,128

[HitObjects]
228,152,48,2,0,B|188:124|140:148|140:148|92:124|52:152,2,180,2|0|0,0:0|0:0|0:0,0:0:0
288,228,1459,2,0,B|328:256|376:232|376:232|424:256|464:228,2,180,2|0|0,0:0|0:0|0:0,0:0:0
256,132,2871,6,0,B|256:76|256:76|312:40|372:76,2,180,2|0|0,0:0|0:0|0:0,0:0:0
256,228,4283,2,0,B|256:284|256:284|200:320|140:284,2,180,2|0|0,0:0|0:0|0:0,0:0:0
260,132,5695,5,2,0:0:0
148,40,6224,1,2,0:0:0
112,180,6753,1,2,0:0:0
204,212,7106,5,2,0:0:0
316,304,7636,1,2,0:0:0
352,164,8165,1,2,0:0:0
256,192,8518,12,2,10459,0:0:0
440,304,11342,6,0,B|384:340|328:304,1,120,2|8,0:0|0:0,0:0:0
256,236,12047,2,0,B|256:176,2,60,0|0|8,0:0|0:0|0:0,0:0:0
164,264,12753,6,0,B|128:208|164:152,1,120,0|8,0:0|0:0,0:0:0
232,80,13459,2,0,B|292:80,2,60,0|0|8,0:0|0:0|0:0,0:0:0
136,80,14165,5,0,0:0:0
40,96,14518,1,8,0:0:0
52,192,14871,2,0,B|164:268|276:192,1,240
336,116,15930,5,8,0:0:0
248,76,16283,2,0,B|184:76,2,60,0|8|8,0:0|0:0|0:0,0:0:0
336,116,16989,6,0,B|388:156|380:224,1,120,0|8,0:0|0:0,0:0:0
336,308,17695,2,0,B|284:268|292:200,1,120,0|8,0:0|0:0,0:0:0
208,152,18400,5,0,0:0:0
112,136,18753,1,8,0:0:0
96,232,19106,2,0,B|212:256,1,120,0|8,0:0|0:0,0:0:0
256,192,19812,12,2,21930,0:0:0
432,52,22635,6,0,B|386:39|348:68|347:114,1,120,0|8,0:0|0:0,0:0:0
372,200,23342,1,0,0:0:0
380,300,23695,1,0,0:0:0
304,232,24047,2,0,B|288:172,2,60,0|0|8,0:0|0:0|0:0,0:0:0
284,328,24753,2,8,B|280:372|200:372|196:328,1,120,0|8,0:0|0:0,0:0:0
164,240,25459,6,0,B|164:200|164:200|184:164|184:164|184:124,1,120,0|8,0:0|0:0,0:0:0
328,132,26165,1,0,0:0:0
328,132,26342,1,0,0:0:0
328,132,26518,2,0,B|328:170|328:170|348:206|348:206|348:246,1,120,8|0,0:0|0:0,0:0:0
348,344,27224,1,8,0:0:0
252,352,27577,1,0,0:0:0
220,320,27753,2,0,B|192:264,1,60,0|8,0:0|0:0,0:0:0
160,172,28283,6,0,B|227:164|262:222,1,120,0|8,0:0|0:0,0:0:0
308,308,28989,1,0,0:0:0
384,368,29342,2,0,B|440:334|432:266,1,120
416,176,30047,1,8,0:0:0
320,192,30400,2,0,B|260:202,2,60
416,176,31106,6,0,B|424:248|364:276,1,120,0|8,0:0|0:0,0:0:0
268,288,31812,1,0,0:0:0
176,256,32165,2,0,B|128:220|128:220|128:208|128:208|88:176,1,120
116,88,32871,1,8,0:0:0
208,56,33224,1,0,0:0:0
252,44,33400,2,0,B|308:28,1,60,0|8,0:0|0:0,0:0:0
404,16,33930,6,0,B|348:96|440:164|400:260,1,240,0|0,0:0|0:0,0:0:0
312,280,34989,2,0,B|332:228|296:196|312:160,1,120,8|0,0:0|0:0,0:0:0
308,64,35695,1,8,0:0:0
116,72,36224,5,0,0:0:0
116,72,36400,1,8,0:0:0
116,72,36753,2,0,B|176:92|188:172,1,120,0|8,0:0|0:0,0:0:0
272,332,37812,1,8,0:0:0
272,332,38165,2,0,B|328:316|364:256,1,120,0|8,0:0|0:0,0:0:0
420,128,39047,2,0,B|368:100,1,60,0|8,0:0|0:0,0:0:0
288,44,39576,6,0,B|232:-12|183:45|183:45|136:96|80:44,1,240
12,112,40636,1,8,0:0:0
12,112,40989,2,0,B|32:180,2,60,0|0|8,0:0|0:0|0:0,0:0:0
104,136,41695,1,0,0:0:0
152,136,41871,2,0,B|212:136,1,60,0|8,0:0|0:0,0:0:0
256,192,42400,12,4,45224,0:0:0
136,108,56518,6,0,B|80:192|136:276,1,180
376,276,57930,2,0,B|432:191|376:107,1,180
164,220,59342,6,0,B|180:176|132:144|132:144|180:112|164:68,1,180
352,220,60753,2,0,B|336:176|384:144|384:144|336:112|352:68,1,180
148,192,62165,6,0,B|175:207|204:192,2,60
100,176,62695,1,0,0:0:0
220,96,63224,1,0,0:0:0
304,140,63577,2,0,B|356:172,2,60
284,236,64283,2,0,B|248:292|284:348,1,120
256,192,64989,12,2,67106,0:0:0
172,128,67812,2,0,B|116:152|48:128,1,120,0|8,0:0|0:0,0:0:0
60,224,68518,2,0,B|116:200|184:224,1,120,0|8,0:0|0:0,0:0:0
272,208,69224,1,0,0:0:0
352,264,69577,1,8,0:0:0
432,316,69930,2,0,B|432:376,2,60,0|0|8,0:0|0:0|0:0,0:0:0
432,220,70636,6,0,B|432:164|432:164|432:136|404:124|380:128,1,120,0|8,0:0|0:0,0:0:0
296,100,71342,2,0,B|296:32,2,60,0|0|8,0:0|0:0|0:0,0:0:0
228,168,72048,2,0,B|228:224|228:224|228:252|256:264|280:260,1,120,0|8,0:0|0:0,0:0:0
368,264,72753,2,0,B|368:332,2,60,0|0|8,0:0|0:0|0:0,0:0:0
372,168,73459,6,0,B|372:112|372:112|376:104|376:104|376:48,1,120,0|8,0:0|0:0,0:0:0
284,80,74165,2,0,B|284:136|284:136|288:144|288:144|288:200,1,120,0|8,0:0|0:0,0:0:0
288,296,74871,1,0,0:0:0
192,280,75224,1,8,0:0:0
128,208,75577,6,0,B|64:208,2,60,0|8|8,0:0|0:0|0:0,0:0:0
224,208,76283,2,0,B|248:176|276:208|276:208|300:236|324:208,1,120,0|8,0:0|0:0,0:0:0
420,208,76989,2,0,B|480:208,2,60,0|0|8,0:0|0:0|0:0,0:0:0
324,208,77695,6,0,B|296:184|324:160|324:160|356:132|324:108,1,120,0|8,0:0|0:0,0:0:0
256,40,78400,1,0,0:0:0
248,136,78753,1,8,0:0:0
168,80,79106,5,0,0:0:0
168,80,79459,2,0,B|60:128,1,120,8|0,0:0|0:0,0:0:0
32,220,80165,1,8,0:0:0
124,204,80518,6,0,B|244:204,1,120,0|8,0:0|0:0,0:0:0
340,204,81224,2,0,B|340:144,2,60,0|0|8,0:0|0:0|0:0,0:0:0
344,300,81930,1,0,0:0:0
256,256,82283,1,8,0:0:0
172,204,82636,6,0,B|172:144,2,60,0|0|8,0:0|0:0|0:0,0:0:0
168,300,83342,1,0,0:0:0
256,344,83695,1,8,0:0:0
344,300,84048,2,0,B|392:260|392:192,1,120,0|8,0:0|0:0,0:0:0
364,104,84753,6,0,B|316:144|316:212,1,120,0|8,0:0|0:0,0:0:0
220,204,85459,2,0,B|230:265|289:299,1,120,0|8,0:0|0:0,0:0:0
287,297,86165,1,0,0:0:0
372,344,86518,1,8,0:0:0
468,348,86871,2,0,B|484:292,2,60,0|0|8,0:0|0:0|0:0,0:0:0
256,192,87577,12,4,90400,0:0:0
96,112,91106,6,0,B|36:120,2,60,0|0|8,0:0|0:0|0:0,0:0:0
160,40,91812,2,0,B|208:84|192:152,1,120,0|8,0:0|0:0,0:0:0
144,232,92518,2,0,B|112:284,2,60,0|0|8,0:0|0:0|0:0,0:0:0
193,149,93224,6,0,B|237:101|305:117,1,120,0|8,0:0|0:0,0:0:0
400,120,93930,2,0,B|440:72,2,60,0|0|8,0:0|0:0|0:0,0:0:0
392,216,94636,2,0,B|392:272|392:272|400:284|400:284|400:332,1,120,0|8,0:0|0:0,0:0:0
304,328,95342,2,0,B|304:264,2,60,0|0|8,0:0|0:0|0:0,0:0:0
212,352,96048,6,0,B|172:296|204:240,1,120,0|8,0:0|0:0,0:0:0
288,196,96753,1,0,0:0:0
244,112,97106,1,8,0:0:0
160,156,97459,1,0,0:0:0
292,300,98165,2,0,B|352:300,2,60,0|0|8,0:0|0:0|0:0,0:0:0
196,300,98871,6,0,B|128:300|128:300|112:300|92:264,1,120,0|8,0:0|0:0,0:0:0
60,176,99577,2,0,B|0:176,2,60,0|0|8,0:0|0:0|0:0,0:0:0
156,176,100283,2,0,B|224:176|224:176|240:176|260:140,1,120,0|8,0:0|0:0,0:0:0
356,132,100989,1,0,0:0:0
452,140,101342,1,8,0:0:0
452,236,101695,6,0,B|452:280|452:280|412:296|412:348,1,120,0|8,0:0|0:0,0:0:0
316,340,102400,2,0,B|256:340,2,60
316,244,103106,2,0,B|316:200|316:200|356:184|356:132,1,120,0|8,0:0|0:0,0:0:0
344,44,103812,2,0,B|272:64|264:128,1,120,0|8,0:0|0:0,0:0:0
264,124,104518,1,0,0:0:0
272,316,105224,6,0,B|332:324|332:324|392:316,1,120,0|8,0:0|0:0,0:0:0
390,316,105930,1,0,0:0:0
464,140,106636,1,0,0:0:0
368,124,106989,1,8,0:0:0
272,140,107342,5,0,0:0:0
120,260,108048,1,0,0:0:0
216,276,108400,1,8,0:0:0
312,260,108753,1,0,0:0:0
476,156,109459,6,0,B|444:100|380:88,1,120,0|8,0:0|0:0,0:0:0
368,184,110165,2,0,B|304:172|272:116,1,120,0|8,0:0|0:0,0:0:0
228,32,110871,1,0,0:0:0
140,76,111224,1,8,0:0:0
188,160,111577,6,0,B|224:213|207:275,1,120,0|8,0:0|0:0,0:0:0
120,232,112283,1,0,0:0:0
120,232,112636,1,8,0:0:0
120,232,112989,5,4,0:0:0
