osu file format v10

[General]
AudioFilename: Leave the Lights On.mp3
AudioLeadIn: 2000
PreviewTime: 22635
Countdown: 0
SampleSet: Soft
StackLeniency: 0.7
Mode: 0
LetterboxInBreaks: 1

[Editor]
DistanceSpacing: 1.6
BeatDivisor: 4
GridSize: 4

[Metadata]
Title:Leave The Lights On (KROT Remix)
TitleUnicode:Leave The Lights On (KROT Remix)
Artist:Meiko
ArtistUnicode:Meiko
Creator:Moway
Version:Insane
Source:
Tags:The Bright Side drum and bass dnb drum'n'bass Kirill Orlov Chyo-kun mintong89
BeatmapID:171126
BeatmapSetID:56633

[Difficulty]
HPDrainRate:7
CircleSize:4
OverallDifficulty:7
ApproachRate:9
SliderMultiplier:0.999999999999999
SliderTickRate:1

[Events]
//Background and Video events
0,0,"bg.jpg"
//Break Periods
2,45424,55918
//Storyboard Layer 0 (Background)
//Storyboard Layer 1 (Fail)
//Storyboard Layer 2 (Pass)
//Storyboard Layer 3 (Foreground)
//Storyboard Sound Samples
//Background Colour Transformations
3,100,163,162,255

[TimingPoints]
48,352.941176470588,4,2,0,40,1,0
11342,-71.4285714285714,4,2,2,60,0,0
22636,-55.5555555555556,4,2,1,60,0,0
56518,-100,4,2,0,20,0,0
67812,-71.4285714285714,4,2,2,50,0,0
79106,-71.4285714285714,4,2,2,55,0,0
87930,-71.4285714285714,4,2,2,60,0,0
90400,-55.5555555555556,4,2,1,60,0,1
112989,-55.5555555555556,4,2,1,60,0,0

[Colours]
Combo1 : 166,249,255
Combo2 : 98,98,98
Combo3 : 232,255,255
Combo4 : 64,128,128

[HitObjects]
208,252,48,2,0,B|168:288|116:280,1,99.9999999999999,2|0,0:0|0:0,0:0:0
48,228,577,2,0,B|88:192|140:200,1,99.9999999999999,2|0,0:0|0:0,0:0:0
208,252,1106,1,2,0:0:0
292,240,1283,1,0,0:0:0
364,196,1459,6,0,B|388:148|368:100,1,99.9999999999999,2|0,0:0|0:0,0:0:0
288,132,1989,2,0,B|258:87|206:80,1,99.9999999999999,2|0,0:0|0:0,0:0:0
120,76,2518,1,2,0:0:0
72,144,2695,1,0,0:0:0
80,228,2871,6,0,B|96:278|147:295,1,99.9999999999999,2|0,0:0|0:0,0:0:0
164,212,3400,2,0,B|216:208|264:212,1,99.9999999999999,2|0,0:0|0:0,0:0:0
348,220,3930,1,2,0:0:0
424,256,4106,1,0,0:0:0
364,316,4283,6,0,B|336:272|348:220,1,99.9999999999999,2|0,0:0|0:0,0:0:0
424,256,4812,2,0,B|452:212|440:160,1,99.9999999999999,2|0,0:0|0:0,0:0:0
440,160,5342,1,2,0:0:0
308,52,5695,6,0,B|260:76|284:140,1,99.9999999999999,2|0,0:0|0:0,0:0:0
364,112,6224,2,0,B|387:174|339:198,1,99.9999999999999,2|0,0:0|0:0,0:0:0
256,248,6753,1,2,0:0:0
172,198,6930,1,0,0:0:0
160,104,7106,6,0,B|212:92|248:136,1,99.9999999999999,2|0,0:0|0:0,0:0:0
173,198,7636,2,0,B|138:237|159:290,1,99.9999999999999,2|0,0:0|0:0,0:0:0
232,356,8165,2,0,B|256:358|280:356,1,50,2|0,0:0|0:0,0:0:0
308,264,8518,6,0,B|256:260|204:264,1,99.9999999999999,2|0,0:0|0:0,0:0:0
124,312,9047,2,0,B|76:288|72:232,1,99.9999999999999,2|0,0:0|0:0,0:0:0
88,140,9577,1,2,0:0:0
180,120,9753,1,0,0:0:0
220,204,9930,2,0,B|320:204,1,99.9999999999999,2|0,0:0|0:0,0:0:0
416,204,10459,1,2,0:0:0
155,57,11342,5,0,0:0:0
52,88,11518,1,0,0:0:0
92,184,11695,1,8,0:0:0
192,212,11871,1,0,0:0:0
216,212,11959,1,0,0:0:0
240,212,12047,2,0,B|308:212,2,69.9999978637695,0|0|8,0:0|0:0|0:0,0:0:0
357,327,12753,5,0,0:0:0
460,296,12930,1,0,0:0:0
420,200,13106,1,8,0:0:0
320,172,13283,1,0,0:0:0
296,172,13371,1,0,0:0:0
272,172,13459,2,0,B|204:172,2,69.9999978637695,0|0|8,0:0|0:0|0:0,0:0:0
413,71,14165,5,0,0:0:0
317,113,14342,1,0,0:0:0
388,188,14518,1,8,0:0:0
332,276,14695,2,0,B|357:302,2,34.9999989318848
229,255,15047,2,0,B|158:238,2,69.9999978637695,0|8|0,0:0|0:0|0:0,0:0:0
334,276,15577,5,0,0:0:0
388,188,15753,1,0,0:0:0
317,113,15930,1,8,0:0:0
221,150,16106,1,0,0:0:0
221,150,16195,1,0,0:0:0
221,150,16283,1,0,0:0:0
116,188,16459,1,8,0:0:0
18,151,16636,1,8,0:0:0
220,40,16989,5,0,0:0:0
221,151,17165,2,8,B|221:223,1,69.9999978637695,0|8,0:0|0:0,0:0:0
220,340,17518,1,0,0:0:0
220,340,17606,1,0,0:0:0
220,340,17695,1,0,0:0:0
316,284,17871,2,8,B|392:272,1,69.9999978637695,0|8,0:0|0:0,0:0:0
440,132,18400,6,0,B|512:120,2,69.9999978637695,0|0|8,0:0|0:0|0:0,0:0:0
336,152,18930,1,0,0:0:0
336,152,19018,1,0,0:0:0
336,152,19106,1,0,0:0:0
272,236,19283,1,0,0:0:0
184,176,19459,1,8,0:0:0
248,92,19636,1,0,0:0:0
336,152,19812,6,0,B|396:184,1,69.9999978637695
440,280,20165,2,0,B|368:280,1,69.9999978637695,8|0,0:0|0:0,0:0:0
228,284,20518,1,0,0:0:0
124,192,20695,1,0,0:0:0
220,92,20871,1,8,0:0:0
324,184,21047,1,0,0:0:0
256,192,21224,12,2,22283,0:0:0
108,136,22636,6,0,B|68:164|92:236,1,89.999997253418
172,192,22989,1,8,0:0:0
260,172,23165,2,0,B|278:225|238:253,1,89.999997253418
136,308,23518,2,0,B|48:308,2,89.999997253418,0|8|0,0:0|0:0|0:0,0:0:0
238,253,24047,6,0,B|278:225|260:172,1,89.999997253418
216,64,24400,1,8,0:0:0
332,48,24577,2,0,B|380:32|413:70,1,89.999997253418
468,208,24930,1,0,0:0:0
376,280,25106,1,8,0:0:0
288,200,25283,1,0,0:0:0
228,88,25459,6,0,B|202:39|249:10,2,89.999997253418,0|0|8,0:0|0:0|0:0,0:0:0
288,200,25989,2,0,B|312:228|352:224|352:224|360:288|420:296,1,179.999994506836
440,172,26518,2,0,B|424:120|372:124,1,89.999997253418,8|0,0:0|0:0,0:0:0
232,104,26871,6,0,B|188:91|144:104,2,89.999997253418,0|0|8,0:0|0:0|0:0,0:0:0
256,220,27400,2,0,B|248:268|188:280|128:268|120:220,1,179.999994506836
188,180,27930,1,8,0:0:0
400,76,28283,5,0,0:0:0
480,160,28459,1,0,0:0:0
456,276,28636,1,8,0:0:0
364,344,28812,2,0,B|268:376|201:300,1,179.999994506836
172,188,29342,2,0,B|216:169|257:197,1,89.999997253418,8|0,0:0|0:0,0:0:0
324,292,29695,6,0,B|336:384,2,89.999997253418,0|0|8,0:0|0:0|0:0,0:0:0
308,156,30224,2,0,B|232:100|136:140,1,179.999994506836
232,208,30753,2,0,B|264:240|312:244,1,89.999997253418,8|0,0:0|0:0,0:0:0
428,224,31106,5,0,0:0:0
508,140,31283,1,0,0:0:0
396,112,31459,1,8,0:0:0
288,160,31636,2,0,B|208:220|116:176,1,179.999994506836
20,112,32165,6,0,B|6:73|2:25,2,89.999997253418,8|0|0,0:0|0:0|0:0,0:0:0
64,232,32695,1,0,0:0:0
160,316,32871,1,8,0:0:0
240,220,33047,2,0,B|224:120|153:62,1,179.999994506836
156,64,33577,1,8,0:0:0
396,56,33930,5,0,0:0:0
428,168,34106,2,0,B|456:260,1,89.999997253418,0|8,0:0|0:0,0:0:0
348,364,34459,2,0,B|376:272,1,89.999997253418
428,168,34812,1,0,0:0:0
396,56,34989,1,8,0:0:0
284,88,35165,1,0,0:0:0
316,200,35342,6,0,B|352:232|400:228,2,89.999997253418,0|0|8,0:0|0:0|0:0,0:0:0
220,132,35871,1,0,0:0:0
132,56,36048,2,0,B|96:24|48:28,2,89.999997253418,0|0|8,0:0|0:0|0:0,0:0:0
136,172,36577,1,0,0:0:0
92,280,36753,5,0,0:0:0
188,348,36930,1,0,0:0:0
288,288,37106,1,8,0:0:0
252,176,37283,2,0,B|275:135|327:119|379:135|403:175,1,179.999994506836
444,284,37812,2,0,B|416:372,1,89.999997253418,8|0,0:0|0:0,0:0:0
240,320,38165,6,0,B|331:302,1,89.999997253418
444,284,38518,1,8,0:0:0
404,176,38695,2,0,B|380:136|328:120|276:136|253:177,1,179.999994506836
253,176,39224,1,8,0:0:0
88,344,39577,5,0,0:0:0
156,228,39753,1,0,0:0:0
20,228,39930,1,8,0:0:0
144,304,40106,2,0,B|236:312|308:240,1,179.999994506836
352,136,40636,2,0,B|368:180|412:200,1,89.999997253418,8|0,0:0|0:0,0:0:0
456,308,40989,6,0,B|407:312|379:352,1,89.999997253418
264,352,41342,1,8,0:0:0
264,352,41518,2,0,B|264:280|264:280|276:256|276:256|276:176,1,179.999994506836,0|0,0:0|0:0,0:0:0
332,110,42048,2,0,B|280:134|276:178,1,89.999997253418,8|0,0:0|0:0,0:0:0
316,288,42400,6,0,B|368:264|372:220,1,89.999997253418
332,112,42753,1,8,0:0:0
224,68,42930,1,0,0:0:0
224,68,43018,1,0,0:0:0
224,68,43106,1,0,0:0:0
136,144,43283,1,0,0:0:0
312,144,43459,1,8,0:0:0
224,68,43636,1,0,0:0:0
228,228,43812,6,0,B|228:276|272:304,1,89.999997253418,0|0,0:0|0:0,0:0:0
388,308,44165,2,0,B|388:260|344:232,1,89.999997253418,8|0,0:0|0:0,0:0:0
328,220,44430,1,0,0:0:0
308,208,44518,1,0,0:0:0
192,160,44695,1,0,0:0:0
48,144,44871,1,8,0:0:0
100,268,45048,1,0,0:0:0
100,268,45224,5,4,0:0:0
192,160,56518,5,2,0:0:0
264,196,56695,1,0,0:0:0
336,160,56871,1,0,0:0:0
416,144,57048,2,0,B|444:132|492:148|504:176,1,99.9999999999999,2|0,0:0|0:0,0:0:0
448,280,57577,1,0,0:0:0
448,280,57930,6,0,B|424:296|400:280|400:280|376:264|352:280,1,99.9999999999999,2|0,0:0|0:0,0:0:0
248,340,58636,2,0,B|204:376|156:340,1,99.9999999999999,2|0,0:0|0:0,0:0:0
60,268,59342,6,0,B|8:260,2,50,2|0|0,0:0|0:0|0:0,0:0:0
156,244,59871,2,0,B|205:251,2,50,2|0|0,0:0|0:0|0:0,0:0:0
84,228,60400,1,2,0:0:0
24,184,60577,1,0,0:0:0
60,116,60753,6,0,B|88:72,2,50,2|0|0,0:0|0:0|0:0,0:0:0
84,228,61283,2,0,B|60:272,2,50,2|0|0,0:0|0:0|0:0,0:0:0
132,152,61812,1,2,0:0:0
208,108,61989,1,0,0:0:0
300,108,62165,6,0,B|348:116,2,50,2|0|0,0:0|0:0|0:0,0:0:0
268,176,62695,2,0,B|316:187|368:192,1,99.9999999999999,2|0,0:0|0:0,0:0:0
440,192,63224,1,2,0:0:0
504,156,63400,1,0,0:0:0
440,192,63577,6,0,B|416:240|448:292,1,99.9999999999999,2|0,0:0|0:0,0:0:0
448,360,64106,2,0,B|416:361|392:340|392:340|356:352,1,99.9999999999999,2|0,0:0|0:0,0:0:0
280,368,64636,1,2,0:0:0
208,348,64812,1,0,0:0:0
256,192,64989,12,2,67459,0:0:0
63,166,67812,5,2,0:0:0
116,92,67989,1,0,0:0:0
192,144,68165,1,8,0:0:0
139,218,68342,1,0,0:0:0
172,304,68518,2,0,B|200:368,1,69.9999978637695
292,360,68871,2,0,B|264:296,1,69.9999978637695,8|0,0:0|0:0,0:0:0
224,212,69224,6,0,B|216:172|248:152,1,69.9999978637695,2|0,0:0|0:0,0:0:0
320,208,69577,2,0,B|345:176|381:187,1,69.9999978637695,8|8,0:0|0:0,0:0:0
448,252,69930,2,0,B|422:283|386:272,1,69.9999978637695
320,208,70283,1,8,0:0:0
348,124,70459,1,0,0:0:0
260,96,70636,6,0,B|248:132|220:160,1,69.9999978637695,2|0,0:0|0:0,0:0:0
200,292,70989,2,0,B|212:256|235:232,1,69.9999978637695,8|0,0:0|0:0,0:0:0
308,156,71342,1,0,0:0:0
386,88,71518,1,0,0:0:0
457,167,71695,1,8,0:0:0
379,234,71871,1,0,0:0:0
260,276,72048,6,0,B|224:268|192:276,1,69.9999978637695,2|0,0:0|0:0,0:0:0
60,220,72400,2,0,B|96:228|128:220,1,69.9999978637695,10|8,0:0|0:0,0:0:0
228,184,72753,1,0,0:0:0
132,144,72930,1,8,0:0:0
112,252,73106,1,10,0:0:0
220,276,73283,1,0,0:0:0
240,168,73459,6,0,B|247:132|280:103|324:112|348:139,1,139.999995727539,2|8,0:0|0:0,0:0:0
412,204,73989,1,0,0:0:0
384,292,74165,2,0,B|350:294|316:308,1,69.9999978637695
184,260,74518,2,0,B|212:284|248:296,1,69.9999978637695,8|0,0:0|0:0,0:0:0
312,172,74871,6,0,B|296:204|304:248,1,69.9999978637695,2|0,0:0|0:0,0:0:0
228,188,75224,2,0,B|244:156|236:112,1,69.9999978637695,8|8,0:0|0:0,0:0:0
193,40,75577,1,0,0:0:0
109,80,75753,1,0,0:0:0
153,160,75930,1,8,0:0:0
237,120,76106,1,0,0:0:0
320,88,76283,6,0,B|352:76|392:76,1,69.9999978637695,2|0,0:0|0:0,0:0:0
480,68,76636,2,0,B|474:106|488:136,1,69.9999978637695,8|0,0:0|0:0,0:0:0
400,156,76989,2,0,B|368:168|328:168,1,69.9999978637695
240,176,77342,2,0,B|234:214|248:244,1,69.9999978637695,8|0,0:0|0:0,0:0:0
336,352,77695,6,0,B|342:314|328:284,1,69.9999978637695,2|0,0:0|0:0,0:0:0
248,244,78048,2,0,B|211:243|180:232,1,69.9999978637695,8|8,0:0|0:0,0:0:0
104,184,78400,1,0,0:0:0
44,56,78577,1,8,0:0:0
168,124,78753,1,10,0:0:0
28,140,78930,1,0,0:0:0
132,44,79106,6,0,B|204:40,1,69.9999978637695,2|0,0:0|0:0,0:0:0
324,108,79459,2,0,B|252:112,1,69.9999978637695,8|0,0:0|0:0,0:0:0
168,123,79812,1,0,0:0:0
104,184,79989,1,0,0:0:0
141,260,80165,1,8,0:0:0
226,247,80342,1,0,0:0:0
252,160,80518,6,0,B|188:192,1,69.9999978637695,2|0,0:0|0:0,0:0:0
140,324,80871,2,0,B|202:292,1,69.9999978637695,8|8,0:0|0:0,0:0:0
284,252,81224,1,0,0:0:0
384,176,81400,1,0,0:0:0
268,132,81577,1,8,0:0:0
284,252,81753,1,0,0:0:0
400,304,81930,6,0,B|468:308,1,69.9999978637695,2|0,0:0|0:0,0:0:0
412,220,82283,2,0,B|342:215,1,69.9999978637695,8|0,0:0|0:0,0:0:0
260,208,82636,1,0,0:0:0
200,140,82812,1,0,0:0:0
288,116,82989,2,0,B|320:176,1,69.9999978637695,8|0,0:0|0:0,0:0:0
334,265,83342,5,2,0:0:0
201,277,83518,1,0,0:0:0
270,337,83695,1,8,0:0:0
260,208,83871,1,8,0:0:0
340,168,84048,2,0,B|376:152|416:148,1,69.9999978637695,2|8,0:0|0:0,0:0:0
504,48,84400,2,0,B|468:64|428:68,1,69.9999978637695,10|0,0:0|0:0,0:0:0
344,72,84753,6,0,B|313:82|275:58|275:58|261:102|231:113,1,139.999995727539,2|8,0:0|0:0,0:0:0
156,156,85283,1,0,0:0:0
84,212,85459,2,0,B|60:180|56:140,1,69.9999978637695
48,288,85812,2,0,B|72:320|76:360,1,69.9999978637695,8|0,0:0|0:0,0:0:0
148,300,86165,6,0,B|178:289|216:313|216:313|230:269|260:258,1,139.999995727539,2|8,0:0|0:0,0:0:0
340,224,86695,1,8,0:0:0
376,308,86871,2,0,B|341:309|304:328,2,69.9999978637695,0|0|8,0:0|0:0|0:0,0:0:0
468,296,87400,1,0,0:0:0
416,124,87577,5,2,0:0:0
348,144,87753,1,0,0:0:0
268,260,87930,5,8,0:0:0
336,240,88106,1,0,0:0:0
348,144,88283,6,0,B|324:72,1,69.9999978637695,2|0,0:0|0:0,0:0:0
336,240,88636,2,0,B|360:312,1,69.9999978637695,8|0,0:0|0:0,0:0:0
268,200,88989,6,0,B|204:232,1,69.9999978637695,2|0,0:0|0:0,0:0:0
64,220,89342,2,0,B|126:188,1,69.9999978637695,8|8,0:0|0:0,0:0:0
216,148,89695,5,2,0:0:0
200,132,89783,1,0,0:0:0
192,112,89871,1,0,0:0:0
192,92,89959,1,0,0:0:0
200,72,90047,1,2,0:0:0
216,56,90136,1,0,0:0:0
236,48,90224,1,2,0:0:0
256,44,90312,1,0,0:0:0
284,44,90400,6,0,B|330:35|363:74,1,89.999997253418,0|0,0:0|0:0,0:0:0
424,188,90753,1,8,0:0:0
308,240,90930,1,0,0:0:0
272,232,91018,1,0,0:0:0
244,208,91106,1,0,0:0:0
172,116,91283,1,0,0:0:0
268,48,91459,1,8,0:0:0
340,140,91636,1,0,0:0:0
344,264,91812,6,0,B|320:304|332:352,2,89.999997253418,2|0|10,0:0|0:0|0:0,0:0:0
416,136,92342,1,0,0:0:0
416,136,92430,1,0,0:0:0
416,136,92518,2,0,B|368:136|328:112,1,89.999997253418
176,172,92871,2,0,B|224:172|264:196,1,89.999997253418,8|0,0:0|0:0,0:0:0
360,256,93224,5,2,0:0:0
452,332,93400,1,0,0:0:0
344,364,93577,1,8,0:0:0
232,332,93753,1,0,0:0:0
232,332,93842,1,0,0:0:0
232,332,93930,2,0,B|220:284|188:252,1,89.999997253418
164,92,94283,2,0,B|172:136|208:172,1,89.999997253418,8|0,0:0|0:0,0:0:0
300,244,94636,5,2,0:0:0
415,264,94812,1,0,0:0:0
432,147,94989,1,8,0:0:0
317,126,95165,1,0,0:0:0
317,126,95253,1,0,0:0:0
317,126,95342,2,0,B|272:118|228:136,1,89.999997253418
116,192,95695,1,8,0:0:0
208,276,95871,1,0,0:0:0
340,244,96048,6,0,B|372:216|424:208,1,89.999997253418,2|0,0:0|0:0,0:0:0
492,92,96400,2,0,B|460:120|408:128,1,89.999997253418,10|0,0:0|0:0,0:0:0
276,112,96753,2,0,B|256:68|264:24,1,89.999997253418,2|0,0:0|0:0,0:0:0
192,140,97106,2,0,B|200:184|180:228,1,89.999997253418,10|0,0:0|0:0,0:0:0
136,336,97459,5,2,0:0:0
24,296,97636,1,0,0:0:0
120,228,97812,2,0,B|164:236|216:224,1,89.999997253418,8|0,0:0|0:0,0:0:0
236,220,98077,1,0,0:0:0
264,212,98165,1,0,0:0:0
396,120,98342,1,0,0:0:0
292,52,98518,1,8,0:0:0
244,168,98695,1,0,0:0:0
124,128,98871,6,0,B|86:155|64:194,1,89.999997253418,2|0,0:0|0:0,0:0:0
100,308,99224,2,0,B|137:280|159:241,1,89.999997253418,8|0,0:0|0:0,0:0:0
172,224,99489,1,0,0:0:0
184,204,99577,1,0,0:0:0
236,80,99753,1,0,0:0:0
112,104,99930,1,8,0:0:0
252,160,100106,1,0,0:0:0
368,156,100283,6,0,B|416:148|448:112,1,89.999997253418,2|0,0:0|0:0,0:0:0
484,224,100636,2,0,B|455:263|458:311,1,89.999997253418,8|0,0:0|0:0,0:0:0
340,320,100989,2,0,B|323:274|282:248,1,89.999997253418
172,176,101342,1,8,0:0:0
164,312,101518,1,0,0:0:0
285,251,101695,6,2,B|309:215|318:169,1,89.999997253418,2|0,0:0|0:0,0:0:0
316,52,102048,1,8,0:0:0
216,116,102224,1,0,0:0:0
318,168,102400,2,0,B|410:192,1,89.999997253418
508,136,102753,2,0,B|420:113,1,89.999997253418,8|0,0:0|0:0,0:0:0
318,167,103106,6,2,B|282:199|290:247,1,89.999997253418,2|0,0:0|0:0,0:0:0
188,308,103459,2,0,B|224:276|216:228,1,89.999997253418,8|0,0:0|0:0,0:0:0
212,204,103724,1,0,0:0:0
204,184,103812,1,0,0:0:0
107,113,103989,1,0,0:0:0
36,206,104165,1,8,0:0:0
131,275,104342,1,0,0:0:0
240,236,104518,6,0,B|276:208|324:208,1,89.999997253418,2|0,0:0|0:0,0:0:0
440,216,104871,1,8,0:0:0
400,328,105048,1,0,0:0:0
400,328,105136,1,0,0:0:0
400,328,105224,2,0,B|352:320|336:272,1,89.999997253418
308,156,105577,1,8,0:0:0
400,88,105753,1,0,0:0:0
488,168,105930,6,0,B|480:216|432:232,1,89.999997253418,2|0,0:0|0:0,0:0:0
324,272,106283,1,8,0:0:0
212,236,106459,1,0,0:0:0
212,236,106548,1,0,0:0:0
212,236,106636,1,0,0:0:0
186,86,106812,1,0,0:0:0
118,221,106989,1,8,0:0:0
257,151,107165,1,0,0:0:0
100,128,107342,6,0,B|9:127,1,89.999997253418,2|0,0:0|0:0,0:0:0
118,221,107695,2,0,B|207:221,1,89.999997253418,2|0,0:0|0:0,0:0:0
328,220,108048,2,0,B|368:192|360:140,1,89.999997253418,2|0,0:0|0:0,0:0:0
288,48,108400,2,0,B|248:76|256:128,1,89.999997253418,10|0,0:0|0:0,0:0:0
328,220,108753,5,2,0:0:0
444,292,108930,1,0,0:0:0
328,356,109106,1,8,0:0:0
208,292,109283,1,0,0:0:0
208,292,109371,1,0,0:0:0
208,292,109459,1,0,0:0:0
220,140,109636,1,0,0:0:0
80,208,109812,1,8,0:0:0
208,292,109989,1,0,0:0:0
312,348,110165,6,0,B|324:304|320:260,1,89.999997253418,2|0,0:0|0:0,0:0:0
432,232,110518,2,0,B|401:194|360:180,1,89.999997253418,8|0,0:0|0:0,0:0:0
336,176,110783,1,0,0:0:0
312,176,110871,1,0,0:0:0
184,156,111048,1,0,0:0:0
168,292,111224,1,8,0:0:0
300,308,111400,1,0,0:0:0
436,288,111577,6,0,B|436:240|456:200,1,89.999997253418,2|0,0:0|0:0,0:0:0
504,76,111930,1,8,0:0:0
380,168,112106,1,0,0:0:0
256,76,112283,1,2,0:0:0
256,308,112636,1,10,0:0:0
256,308,112989,5,4,0:0:0
