osu file format v10

[General]
AudioFilename: Leave the Lights On.mp3
AudioLeadIn: 2000
PreviewTime: 22635
Countdown: 0
SampleSet: Soft
StackLeniency: 0.7
Mode: 0
LetterboxInBreaks: 1

[Editor]
DistanceSpacing: 0.8
BeatDivisor: 4
GridSize: 4

[Metadata]
Title:Leave The Lights On (KROT Remix)
TitleUnicode:Leave The Lights On (KROT Remix)
Artist:Meiko
ArtistUnicode:Meiko
Creator:Moway
Version:Easy
Source:
Tags:The Bright Side drum and bass dnb drum'n'bass Kirill Orlov Chyo-kun mintong89
BeatmapID:171124
BeatmapSetID:56633

[Difficulty]
HPDrainRate:2
CircleSize:3
OverallDifficulty:2
ApproachRate:3
SliderMultiplier:0.9
SliderTickRate:1

[Events]
//Background and Video events
0,0,"bg.jpg"
//Break Periods
2,45424,55078
//Storyboard Layer 0 (Background)
//Storyboard Layer 1 (Fail)
//Storyboard Layer 2 (Pass)
//Storyboard Layer 3 (Foreground)
//Storyboard Sound Samples
//Background Colour Transformations
3,100,163,162,255

[TimingPoints]
48,352.941176470588,4,2,0,40,1,0
11342,-100,4,2,2,60,0,0
22636,-100,4,2,1,60,0,0
67812,-100,4,2,2,50,0,0
79106,-100,4,2,2,55,0,0
90400,-100,4,2,1,60,0,1
112989,-100,4,2,1,60,0,0

[Colours]
Combo1 : 166,249,255
Combo2 : 98,98,98
Combo3 : 232,255,255
Combo4 : 64,128,128

[HitObjects]
84,48,47,2,0,B|48:112|84:176,1,135,2|0,0:0|0:0,0:0:0
252,112,1459,6,0,B|316:76|380:112,1,135,2|0,0:0|0:0,0:0:0
388,292,2871,6,0,B|340:316|297:275|252:292,1,135,2|0,0:0|0:0,0:0:0
80,332,4283,6,0,B|56:284|96:241|80:196,1,135,2|0,0:0|0:0,0:0:0
256,56,5694,5,2,0:0:0
452,264,7106,5,2,0:0:0
256,56,8518,5,2,0:0:0
156,328,9930,5,2,0:0:0
444,332,11341,6,0,B|400:344|356:332,1,90,0|8,0:0|0:0,0:0:0
212,312,12400,1,8,0:0:0
144,296,12753,6,0,B|96:280|84:232,1,90,0|8,0:0|0:0,0:0:0
76,88,13812,1,8,0:0:0
148,88,14165,6,0,B|192:72|233:94|233:94|235:147|296:143,1,180
352,188,15224,1,8,0:0:0
304,244,15577,6,0,B|243:239|241:292|241:292|200:314|156:298,1,180
84,292,16636,1,8,0:0:0
20,264,16988,6,0,B|3:223|20:172,1,90,0|8,0:0|0:0,0:0:0
88,48,18047,1,8,0:0:0
156,68,18400,6,0,B|200:88|244:68,1,90,0|8,0:0|0:0,0:0:0
384,36,19459,1,8,0:0:0
256,192,19812,12,10,22283,0:0:0
160,56,23695,5,8,0:0:0
160,128,24047,2,0,B|160:220,1,90,0|8,0:0|0:0,0:0:0
244,336,25106,1,0,0:0:0
244,264,25459,6,0,B|244:172,1,90,0|8,0:0|0:0,0:0:0
356,264,26518,1,8,0:0:0
356,192,26871,6,0,B|356:104,1,90,0|8,0:0|0:0,0:0:0
212,100,27930,1,0,0:0:0
140,100,28283,6,0,B|88:104|72:156,1,90,0|8,0:0|0:0,0:0:0
76,224,28988,2,0,B|105:267|158:254,1,90,0|8,0:0|0:0,0:0:0
228,256,29694,6,0,B|320:256,2,90,0|8|0,0:0|0:0|0:0,0:0:0
148,136,31106,6,0,B|228:96|328:104,1,180
364,244,32518,6,0,B|284:284|184:276,1,180
72,192,33930,6,0,B|160:192,1,90,0|8,0:0|0:0,0:0:0
308,192,34988,1,8,0:0:0
368,236,35342,6,0,B|420:224|428:176,1,90
380,120,36047,2,0,B|292:120,1,90
216,124,36753,6,0,B|196:164|172:204|172:204|196:244|216:284,1,180
344,348,38165,6,0,B|363:310|387:270|387:270|363:230|343:190,1,180
340,48,39577,6,0,B|296:44|256:76,1,90,0|8,0:0|0:0,0:0:0
144,164,40636,1,0,0:0:0
84,200,40988,6,8,B|40:228|0:200,2,90
144,164,42047,1,8,0:0:0
256,192,42400,12,4,45224,0:0:0
116,80,56518,6,0,B|152:48|220:116|248:80,1,135,0|2,0:0|0:0,0:0:0
400,176,57930,6,0,B|364:144|296:212|268:176,1,135,0|2,0:0|0:0,0:0:0
92,176,59342,6,0,B|49:175|29:215|49:255|93:255,1,135,0|2,0:0|0:0,0:0:0
252,172,60753,6,0,B|294:172|314:132|294:92|250:92,1,135,0|2,0:0|0:0,0:0:0
360,236,62165,6,0,B|384:300|384:300|340:364,1,135,0|2,0:0|0:0,0:0:0
168,356,63577,6,0,B|130:301|130:301|154:237,1,135,0|2,0:0|0:0,0:0:0
256,192,64989,12,2,66400,0:0:0
88,120,67812,6,0,B|176:120,1,90,0|8,0:0|0:0,0:0:0
324,120,68871,1,8,0:0:0
396,120,69224,6,0,B|396:212,1,90,0|8,0:0|0:0,0:0:0
308,324,70283,1,8,0:0:0
236,324,70636,6,0,B|192:340|148:324,1,90,0|8,0:0|0:0,0:0:0
192,188,71694,1,8,0:0:0
264,188,72047,6,0,B|308:172|352:188,1,90,0|8,0:0|0:0,0:0:0
308,324,73106,1,8,0:0:0
236,320,73459,6,0,B|180:316|164:274,1,90,0|8,0:0|0:0,0:0:0
124,212,74165,1,0,0:0:0
104,144,74518,1,8,0:0:0
172,164,74871,1,0,0:0:0
300,232,75577,6,0,B|344:260,2,45,0|8|8,0:0|0:0|0:0,0:0:0
256,192,76283,12,2,78400,0:0:0
292,244,79106,5,0,0:0:0
436,244,79812,2,0,B|436:152,1,90,0|8,0:0|0:0,0:0:0
432,80,80518,6,0,B|340:80,1,90,0|8,0:0|0:0,0:0:0
272,88,81224,1,0,0:0:0
204,112,81577,1,8,0:0:0
152,164,81930,6,0,B|152:256,1,90,0|8,0:0|0:0,0:0:0
224,256,82636,2,0,B|224:346,1,90,0|8,0:0|0:0,0:0:0
296,348,83341,6,0,B|388:348,1,90,0|8,0:0|0:0,0:0:0
460,348,84047,1,0,0:0:0
460,276,84400,1,8,0:0:0
256,192,84753,12,0,89695,0:0:0
148,108,90400,6,0,B|108:140|116:192,1,90,0|8,0:0|0:0,0:0:0
112,260,91106,2,0,B|144:300|196:292,1,90,0|8,0:0|0:0,0:0:0
264,284,91812,5,0,0:0:0
332,260,92165,1,8,0:0:0
372,200,92518,1,0,0:0:0
356,56,93224,5,0,0:0:0
288,80,93577,1,0,0:0:0
248,140,93930,1,0,0:0:0
252,284,94636,6,0,B|340:284,1,90,0|8,0:0|0:0,0:0:0
412,284,95341,1,0,0:0:0
416,136,96047,6,0,B|320:136,1,90,0|8,0:0|0:0,0:0:0
252,136,96753,1,0,0:0:0
180,136,97106,1,8,0:0:0
108,136,97459,1,0,0:0:0
104,280,98165,6,0,B|56:280,2,45,0|0|8,0:0|0:0|0:0,0:0:0
176,280,98871,2,0,B|272:280,1,90,0|8,0:0|0:0,0:0:0
340,280,99577,6,0,B|340:328,2,45,0|0|8,0:0|0:0|0:0,0:0:0
340,208,100283,1,0,0:0:0
336,64,100988,1,0,0:0:0
272,92,101341,1,8,0:0:0
208,124,101694,6,0,B|124:172,1,90,0|8,0:0|0:0,0:0:0
132,240,102400,1,0,0:0:0
132,312,102753,1,8,0:0:0
204,312,103106,6,0,B|204:264|204:264|232:228,1,90
332,128,104165,1,8,0:0:0
404,128,104518,6,0,B|404:176|404:176|376:212,1,90,0|8,0:0|0:0,0:0:0
236,208,105577,1,8,0:0:0
232,280,105930,6,0,B|184:280|184:280|148:252,1,90,0|8,0:0|0:0,0:0:0
152,112,106988,1,8,0:0:0
224,112,107341,6,0,B|280:112|280:112|344:144|344:144|396:144,1,180
400,288,108753,6,0,B|344:288|344:288|280:256|280:256|228:256,1,180
256,192,110165,12,4,112988,0:0:0
