osu file format v9

[General]
AudioFilename: Megurine Luka - Secret.mp3
AudioLeadIn: 0
PreviewTime: -1
Countdown: 0
SampleSet: Soft
StackLeniency: 0.7
Mode: 0
LetterboxInBreaks: 1

[Editor]
Bookmarks: 18172,57993,66280
DistanceSpacing: 0.8
BeatDivisor: 6
GridSize: 8

[Metadata]
Title:Secret
Artist:Megurine Luka
Creator:Aka Kuma
Version:Hard
Source:VOCALOID
Tags:Megurine Luka vocaloid secret

[Difficulty]
HPDrainRate:4
CircleSize:4
OverallDifficulty:4
ApproachRate:4
SliderMultiplier:1.29999990463257
SliderTickRate:1

[Events]
//Background and Video events
Video,0,"YouTube - ‪【Megurine Luka】 secret‬‏.flv"
0,0,"konachan-com-80116-animal_ears-catgirl-glasses-megurine_luka-tail-vocaloid.jpg"
//Break Periods
2,61756,65270
//Storyboard Layer 0 (Background)
//Storyboard Layer 1 (Fail)
//Storyboard Layer 2 (Pass)
//Storyboard Layer 3 (Foreground)
//Storyboard Sound Samples
//Background Colour Transformations
3,100,163,162,255

[TimingPoints]
2270.18032786885,493.103278688525,4,2,0,100,1,0
47306,464.678063514114,4,2,0,100,1,0

[Colours]
Combo1 : 111,111,111
Combo2 : 132,0,66
Combo3 : 255,128,255
Combo4 : 181,4,4

[HitObjects]
48,128,18542,2,0,B|64:64|144:48,1,129.999990463257
136,144,19364,1,0
224,160,19610,2,0,B|216:224|128:232,1,129.999990463257,0|0
304,240,20597,6,0,B|320:176|400:160,1,129.999990463257
392,256,21336,1,0
480,272,21583,2,0,B|472:336|384:344,1,129.999990463257
248,328,22569,6,0,B|208:344|168:320,2,64.9999952316285
256,240,23309,2,0,B|280:208|240:176,1,64.9999952316285
240,152,23802,2,0,B|202:115|242:75,1,86.666660308838
432,136,24542,2,0,B|456:168|480:200,2,64.9999952316285
328,72,25322,1,0
216,56,25569,1,0
104,80,25815,1,0
104,80,25938,1,0
104,80,26061,1,0
96,240,26596,6,0,B|160:256|128:328|200:328,1,129.999990463257
280,320,27336,1,0
376,328,27582,2,0,B|432:329|400:257|464:241,1,129.999990463257
440,88,28569,6,0,B|456:48|488:40,2,64.9999952316285
440,88,29308,1,0
432,216,29555,1,0
296,208,29801,1,0
312,72,30048,1,0
184,72,30541,5,0
200,208,30787,1,0
80,216,31034,1,0
64,96,31281,1,0
64,96,31527,2,0,B|48:56|21:50,2,64.9999952316285
128,192,32596,5,0
128,320,32843,1,0
256,320,33089,1,0
256,192,33336,1,0
392,192,33582,2,0,B|424:192,4,21.6666650772095
480,176,34157,6,0,B|424:104|320:64|248:64,1,259.999980926514
152,112,35554,2,0,B|80:112,2,64.9999952316285
152,224,36294,1,0
232,312,36540,1,0
312,224,36787,1,0
304,112,37033,2,0,B|376:112,2,64.9999952316285
32,176,38102,6,0,B|88:104|192:64|264:64,1,259.999980926514
360,112,39581,2,0,B|432:112,2,64.9999952316285
360,224,40321,1,0
280,312,40567,1,0
200,224,40814,1,0
208,112,41060,2,0,B|136:112,2,64.9999952316285
64,56,42047,6,0,B|112:80|144:128|160:224|176:128|192:80|264:48,1,259.999980926514
352,64,43526,1,0
464,128,43773,1,0
352,184,44019,1,0
464,240,44266,1,0
352,304,44513,1,0
240,248,44759,1,0
232,136,45006,1,0
232,136,45581,1,0
176,240,45992,6,0,B|173:246|149:278|109:270|85:342|101:366|141:358|157:326|125:270|53:238,1,254.999972979228
54,238,47538,1,0
88,112,48080,1,0
168,192,48312,1,0
248,280,48545,2,0,B|248:344,2,64.9999952316285
328,192,49318,1,0
392,112,49551,1,0
168,336,50558,5,0
336,40,51565,1,0
64,184,52572,1,0
440,288,53579,1,0
160,64,54585,1,0
320,296,55592,1,0
240,192,56599,1,0
240,192,57296,1,0
200,208,57528,1,0
40,48,58071,5,0
128,112,58303,1,0
48,168,58536,2,0,B|24:224|80:280|48:352,1,173.333320617676
256,296,59387,2,0,B|312:344,2,64.9999952316285
241,242,60084,2,0,B|192:200,2,64.9999952316285
264,200,60781,2,0,B|312:144,2,64.9999952316285
264,200,61556,1,0
48,48,66590,5,0
48,48,66822,2,0,B|104:48|136:88|168:112|192:128|256:128,1,216.666650772095
264,48,67829,2,0,B|208:48|176:88|144:112|120:128|56:128,1,216.666650772095
64,280,69068,1,0
64,320,69533,1,0
