osu file format v9

[General]
AudioFilename: Megurine Luka - Secret.mp3
AudioLeadIn: 0
PreviewTime: -1
Countdown: 0
SampleSet: Soft
StackLeniency: 0.7
Mode: 0
LetterboxInBreaks: 1

[Editor]
DistanceSpacing: 0.8
BeatDivisor: 4
GridSize: 8

[Metadata]
Title:Secret
Artist:Megurine Luka
Creator:Aka Kuma
Version:Alice20ai
Source:VOCALOID
Tags:Megurine Luka,Vocaloid

[Difficulty]
HPDrainRate:2
CircleSize:3
OverallDifficulty:3
ApproachRate:3
SliderMultiplier:0.8
SliderTickRate:0.5

[Events]
//Background and Video events
Video,0,"YouTube - ‪【Megurine Luka】 secret‬‏.flv"
0,0,"konachan-com-80116-animal_ears-catgirl-glasses-megurine_luka-tail-vocaloid.jpg"
//Break Periods
2,49807,56673
//Storyboard Layer 0 (Background)
//Storyboard Layer 1 (Fail)
//Storyboard Layer 2 (Pass)
//Storyboard Layer 3 (Foreground)
//Storyboard Sound Samples
//Background Colour Transformations
3,100,187,40,15

[TimingPoints]
2270,493.096646942801,4,2,0,60,1,0
34097,-100,4,1,0,100,0,1
66110,-100,4,2,0,100,0,0
82117,-100,4,1,0,100,0,1
98124,-100,4,2,0,100,0,0

[Colours]
Combo1 : 41,41,41
Combo2 : 132,0,66
Combo3 : 255,128,255
Combo4 : 251,64,64

[HitObjects]
40,344,18110,1,6
112,304,18603,2,0,B|144:280|192:272|240:280|272:304,1,160
328,344,20083,1,2
336,264,20576,2,0,B|368:232|376:184|368:136|336:104,1,160
328,40,21993,1,2
264,88,22610,2,0,B|232:112|184:120|136:112|104:88,1,160
48,144,24089,1,2
120,176,24582,2,0,B|152:208|160:256|152:304|120:336,1,160
208,336,26123,6,0,B|272:336|272:288,2,80,8|0|0
184,256,27602,1,0
208,176,28095,2,0,B|272:176|272:216,2,80,8|0|0
184,256,29575,1,0
104,240,30068,2,0,B|104:176|144:176,2,80,8|0|0
184,256,31609,1,0
264,232,32102,2,0,B|264:168|208:168,2,80,8|0|14
256,104,34074,5,6
184,80,34567,2,0,B|216:112|256:120|296:112|328:80,1,160,8|8
400,48,36108,1,2
392,128,36601,2,8,B|424:160|432:208|424:256|400:280,1,160,8|8
336,320,38081,1,2
304,248,38574,2,8,B|280:248|280:152|232:152|232:248|208:248,1,160
176,320,40115,1,2
104,280,40608,2,8,B|72:248|64:200|72:152|104:120,1,160
160,88,42087,5,8
160,88,42334,1,8
160,88,42580,1,8
272,32,43628,2,2,B|304:56|336:80,1,80
392,136,44614,2,2,B|400:176|408:216,1,80
392,296,45600,1,8
312,304,46093,6,2,B|288:304|264:304,1,40
240,304,46587,2,0,B|184:304|152:240|152:184,1,160,2|6
128,112,48127,5,2
200,72,48621,1,2
280,88,49114,2,0,B|336:88|336:136,1,80,8|14
128,128,58113,6,0,B|152:128|176:128,1,40,6|0
200,128,58606,2,0,B|248:136|256:184,1,80,0|4
320,224,59592,2,0,B|336:208|360:224,2,40
240,248,60578,1,2
168,208,61133,2,0,B|128:208|128:208|128:168,1,80,0|14
256,192,62119,12,4,63119
256,192,64091,12,4,65591
408,64,66619,6,0,B|360:64|352:112,2,80,8|0|8
432,144,68098,1,2
392,216,68591,1,2
312,240,69084,2,0,B|272:224|256:184,1,80,2|6
208,120,70132,5,8
288,96,70625,2,4,B|312:104|336:112,2,40
328,192,71611,2,0,B|360:224|352:272|352:272,1,80,2|4
320,272,72351,1,4
272,280,72597,1,4
272,280,72844,2,8,B|232:272|208:240|208:184,1,120
136,152,74138,1,4
200,104,74631,5,8
280,104,75125,1,8
344,152,75618,2,0,B|376:176|368:224,1,80,8|4
288,248,76604,1,8
208,224,77097,1,8
128,216,77590,2,0,B|80:224|56:256,1,80,8|4
144,344,79131,2,0,B|224:304|248:224,1,160,4|8
280,152,80610,2,0,B|328:160|352:192,2,80,2|8|2
280,152,82090,5,4
320,224,82644,2,0,B|360:248|320:296,1,80,8|8
240,280,83630,1,2
168,240,84124,1,2
160,160,84617,1,8
136,80,85110,2,0,B|176:80|216:80,1,80,8|2
296,80,86096,2,0,B|344:80,2,40,2|0|8
296,160,87082,1,8
296,240,87575,1,2
296,320,88068,1,2
216,320,88561,1,8
216,240,89055,1,8
216,160,89548,2,0,B|224:112|256:96,1,80,2|8
288,96,90287,2,8,B|304:120|320:96,1,40
400,104,91027,5,8
464,160,91520,1,8
464,240,92013,1,2
424,312,92506,1,2
344,336,92999,2,8,B|304:344|264:336,1,80
184,320,93985,6,0,B|144:312|136:296,2,40,2|2|4
200,240,95588,1,8
144,176,96081,1,2
160,144,96327,1,2
184,120,96574,1,2
216,104,96820,1,2
256,104,97067,2,0,B|304:96|344:104,1,80,8|14
256,192,98054,12,4,100055
