osu file format v9

[General]
AudioFilename: Leia.mp3
AudioLeadIn: 0
PreviewTime: 191428
Countdown: 0
SampleSet: Normal
StackLeniency: 0.4
Mode: 0
LetterboxInBreaks: 0

[Editor]
Bookmarks: 14881,119428,151638,178796
DistanceSpacing: 1.5
BeatDivisor: 2
GridSize: 8

[Metadata]
Title:Leia
Artist:Megurine Luka
Creator:Mafiamaster
Version:Normal
Source:yuyoyuppe
Tags:meola gowww vocaloid

[Difficulty]
HPDrainRate:5
CircleSize:3
OverallDifficulty:4
ApproachRate:5
SliderMultiplier:0.9
SliderTickRate:0.5

[Events]
//Background and Video events
Video,0,"Leia.avi"
0,0,"Mafia owns you.jpg"
//Break Periods
2,107312,117912
2,140470,150438
//Storyboard Layer 0 (Background)
//Storyboard Layer 1 (Fail)
//Storyboard Layer 2 (Pass)
//Storyboard Layer 3 (Foreground)
//Storyboard Sound Samples
//Background Colour Transformations
3,100,0,0,0

[TimingPoints]
1323,315.789473684211,4,2,1,100,1,0
17025,-100,4,2,1,60,0,0
17744,-100,4,1,1,100,0,1
30375,-100,4,1,1,5,0,0
33217,-100,4,2,1,100,0,0
61788,-125,4,2,1,100,0,0
77112,-100,4,1,1,100,0,1
89645,-100,4,1,1,100,0,0
89744,-100,4,1,1,100,0,1
100796,-100,4,1,1,100,0,0
102355,-100,4,2,1,80,0,0
118796,-100,4,2,1,100,0,0
121165,-100,4,1,1,80,0,0
121480,-100,4,2,1,100,0,0
128744,-100,4,1,1,80,0,0
129059,-100,4,2,1,100,0,0
136480,-100,4,2,1,70,0,0
151007,-100,4,1,1,100,0,0
166717,-125,4,2,1,50,0,0
188744,-125,4,2,1,20,0,0
191191,-100,4,2,1,100,0,0
192059,-100,4,1,1,100,0,1
204592,-100,4,1,1,100,0,0
204691,-100,4,1,1,100,0,1
215744,-100,4,1,1,100,0,0
217303,-100,4,1,1,100,0,0

[Colours]
Combo1 : 250,235,173
Combo2 : 253,108,119
Combo3 : 117,217,227
Combo4 : 50,124,152

[HitObjects]
192,104,17112,2,0,B|208:56|256:48|256:48|304:56|320:104,1,180,0|4
384,240,18217,2,0,B|424:280|400:320|400:320|352:320,1,135,8|0
256,320,19007,1,0
158,320,19323,2,0,B|112:320|112:320|88:280|128:240,1,135,4|8
256,168,20270,6,0,B|256:80,2,90,0|0|4
256,320,21375,2,0,B|208:336|184:296|184:296|208:272|208:248,1,135,8|0
256,168,22165,1,0
304,250,22480,2,0,B|304:272|328:296|328:296|304:336|256:320,1,135,4|8
392,248,23428,5,0
472,192,23744,1,0
392,136,24059,1,4
256,72,24533,2,0,B|120:72,1,135,8|0
48,136,25323,1,0
120,208,25638,2,0,B|80:272|120:336,1,135,4|8
256,280,26586,6,0,B|256:184,1,90
192,112,27217,2,0,B|256:72|320:112,2,135,4|8|0
128,192,28480,1,0
192,272,28796,2,0,B|256:312|320:272,2,135,4|8|0
256,192,30375,12,0,32270
480,200,33849,6,0,B|480:344,2,135,4|8|0
480,104,35112,1,8
408,40,35428,1,8
336,104,35744,2,0,B|192:104,2,135,0|8|0
152,24,37323,6,0,B|288:24,2,135,0|8|0
64,64,38586,1,0
24,152,38901,1,8
64,240,39217,2,0,B|144:312|224:240,1,180
144,184,40165,2,0,B|144:88,1,90,0|8
224,40,40796,6,0,B|224:184,2,135,0|8|0
304,96,42059,2,0,B|304:192,1,90,0|8
400,152,42691,2,0,B|360:216|400:280,2,135,0|8|0
456,344,44270,6,0,B|392:384|328:344,2,135,0|8|0
392,272,45533,2,0,B|352:240|296:248,1,90,0|8
320,144,46165,2,0,B|312:104|256:56|200:104|192:144,1,180,0|8
256,224,47112,1,0
56,232,47744,6,0,B|8:232|0:192|8:152|56:152,2,135,4|0|0
144,192,49007,1,0
208,120,49323,1,8
296,80,49638,2,0,B|360:80|360:128|424:128,2,135,0|8|0
208,120,50901,1,8
144,192,51217,6,0,B|144:328,2,135,4|0|0
80,120,52480,1,0
144,48,52796,1,8
208,120,53112,2,0,B|288:192|368:120,1,180,0|8
432,48,54059,1,0
344,224,54691,6,0,B|408:224|392:288|456:288,2,135,4|0|0
256,272,55954,2,0,B|256:176,1,90,0|8
168,224,56586,2,0,B|104:224|120:288|56:288,2,135,0|8|0
120,32,58165,5,4
256,96,58638,1,2
392,32,59112,1,2
256,176,59744,5,8
200,256,60059,2,0,B|152:336,1,90
256,320,60691,1,8
312,256,61007,2,8,B|360:336,2,90,8|8|8
352,184,61954,6,0,B|368:96|296:104|256:44|256:44|216:104|144:96|160:184,1,360,4|0
88,232,63849,2,0,B|44:280|88:328,2,108,2|0|2
160,280,65112,2,0,B|232:280,2,72,0|0|2
160,280,66217,1,0
352,280,67323,5,0
424,232,67638,2,0,B|468:280|424:328,2,108,2|0|2
256,192,69217,1,2
160,216,69533,6,0,B|160:280|208:304|208:304|256:248|256:248|304:304|304:304|352:280|352:216,1,360,4|0
304,144,71428,2,0,B|256:120|256:120|208:144,2,108,2|0|2
288,232,72691,2,0,B|256:248|256:248|224:232,1,72
208,320,73323,2,0,B|256:344|256:344|304:320,1,108,6|0
32,192,74901,5,0
32,280,75217,2,0,B|152:280,2,108,4|0|0
256,48,77112,6,0,B|256:184,2,135,4|8|8
160,80,78375,1,8
128,176,78691,2,0,B|88:239|124:303,2,135,4|8|8
256,328,80270,6,0,B|256:192,2,135,4|0|12
352,304,81533,1,8
384,208,81849,2,0,B|423:144|387:80,2,135,4|8|8
256,48,83428,5,4
168,168,83901,2,0,B|80:167|96:81,1,135,8|8
168,16,84691,1,8
256,48,85007,2,0,B|392:48,1,135,4|8
488,160,85954,6,0,B|400:160,1,90,8|8
448,248,86586,2,0,B|312:248,2,135,0|0|4
496,336,87849,1,8
400,336,88165,2,0,B|264:336,2,135,4|8|8
336,152,89744,6,0,B|383:89|320:33,2,135,4|8|8
256,208,91007,1,8
176,264,91323,2,0,B|128:326|191:382,2,135,4|0|0
256,208,92586,1,8
336,264,92901,6,0,B|384:327|320:382,2,135,4|0|4
256,208,94164,1,8
176,152,94480,2,0,B|129:89|192:34,2,135,4|8|8
256,208,95744,1,8
336,152,96059,6,0,B|472:152,2,135,4|8|8
256,96,97323,1,8
176,152,97638,2,0,B|40:152,2,135,4|8|8
256,208,98901,1,0
168,248,99217,5,4
256,368,99691,1,8
344,248,100165,1,4
256,208,100480,1,8
168,248,100796,1,4
256,40,101744,5,0
256,192,102375,12,4,107112
256,8,119112,5,8
344,56,119428,2,0,B|336:144,1,90,8|0
256,88,120059,2,0,B|256:192,1,90,8|0
168,56,120691,2,0,B|176:144,1,90,8|8
144,240,121323,6,0,B|184:304|256:328|328:304|368:240,1,270,4|4
312,160,122586,2,0,B|304:216|256:248|208:216|200:160,1,180,2|8
256,24,123691,1,8
312,160,124165,2,0,B|408:160,2,90,4|2|0
256,240,125112,2,0,B|392:240,2,135,8|8|4
160,64,126691,5,0
256,40,127007,2,0,B|256:176,2,135,8|8|4
352,64,128270,1,8
424,128,128586,1,8
368,208,128901,6,0,B|328:272|256:296|184:272|144:208,1,270,4|4
200,128,130164,2,0,B|208:184|256:216|304:184|312:128,1,180,2|8
464,120,131269,1,8
392,248,131743,2,0,B|392:152,2,90,4|2|2
352,344,132691,6,0,B|304:264,1,90,12|8
206,266,133323,2,0,B|160:344,1,90,8|12
256,352,133954,1,8
256,256,134270,5,8
256,160,134586,2,0,B|256:24,2,135,12|8|12
256,160,136165,1,0
256,192,136480,12,4,140270
112,32,151638,5,12
208,32,151954,1,8
304,32,152270,1,8
400,32,152586,1,8
344,224,153217,6,0,B|344:312,1,90,8|12
168,224,154165,2,0,B|168:312,1,90,8|4
80,136,155112,5,8
160,80,155428,1,12
256,64,155744,1,8
352,80,156059,1,8
432,136,156375,1,8
344,314,157007,6,0,B|344:224,1,90,8|12
168,314,157955,2,0,B|168:224,1,90,8|4
104,40,158901,6,0,B|200:40,2,90,8|12|8
120,136,159849,2,0,B|216:136,1,90,8|8
408,40,160796,6,0,B|312:40,2,90,8|12|8
392,136,161744,2,0,B|296:136,1,90,8|8
256,328,162691,5,0
208,240,163007,2,0,B|160:224|124:176|160:128|208:112,1,180,4|0
304,112,163954,2,0,B|352:128|388:176|352:224|304:240,1,180,4|0
380,304,164901,6,0,B|300:360,1,90,8|8
205,355,165533,2,0,B|132:304,2,90,8|8|0
256,256,166480,1,0
192,200,166796,6,0,B|148:152|192:104,2,108,2|0|2
256,256,168059,1,0
320,200,168375,2,0,B|364:152|320:104,2,108,2|0|2
256,144,169638,6,0,B|256:48,1,72,0|2
136,24,170428,2,0,B|92:72|136:120,1,108,0|2
184,192,171217,1,0
136,264,171533,2,0,B|92:312|136:360,1,108,2|0
256,320,172480,6,0,B|256:248,2,72,0|0|2
384,320,173586,2,0,B|504:320,1,108,0|2
464,240,174375,1,0
432,160,174691,2,0,B|320:160,1,108,2|0
328,32,175638,6,0,B|400:16,2,72,2|0|2
256,136,176744,1,0
184,32,177217,2,0,B|112:16,2,72,2|0|2
256,136,178323,1,0
192,248,178796,6,0,B|168:208|135:209,2,72,0|0|2
256,360,179901,1,0
320,248,180375,2,0,B|343:208|376:209,2,72,2|0|2
256,136,181480,1,0
144,72,181954,6,0,B|105:64|94:25,2,72,2|0|2
192,192,183059,1,0
144,312,183533,2,0,B|105:319|94:358,2,72,2|0|2
192,192,184638,1,0
368,312,185112,6,0,B|406:319|417:358,2,72,0|0|2
320,192,186217,1,0
368,72,186691,2,0,B|406:64|417:25,2,72,2|0|2
320,192,187796,1,0
256,304,188270,5,2
256,216,188586,1,0
256,128,188901,2,0,B|256:8,2,108,0|0|0
256,216,190165,1,0
256,304,190480,1,0
256,304,190954,1,0
256,304,191428,5,0
456,232,192059,6,0,B|504:232|512:192|504:152|456:152,2,135,4|8|8
368,192,193323,1,8
272,192,193638,2,0,B|120:192,2,135,4|8|8
368,192,194901,1,8
328,104,195217,6,0,B|280:48|184:48,2,135,4|8|8
368,192,196480,1,8
328,280,196796,2,0,B|280:336|184:336,1,135,4|8
120,216,197744,6,0,B|120:128,1,90,8|8
56,48,198375,2,0,B|120:8|184:48,2,135,4|8|8
16,136,199638,1,8
56,224,199954,2,0,B|120:264|184:224,1,135,4|8
256,96,200901,5,8
352,96,201217,1,8
448,96,201533,2,0,B|488:160|448:224,2,135,4|8|8
352,96,202796,1,8
256,96,203112,2,0,B|216:160|256:224,1,135,4|8
352,336,204059,6,0,B|352:240,2,90,8|8|4
256,224,205165,1,8
160,336,205638,2,0,B|160:240,1,90,8|8
72,288,206270,2,0,B|72:152,1,135,4|8
160,32,207217,5,8
144,128,207533,1,8
200,208,207849,2,0,B|256:248|256:248|312:208,2,135,4|8|8
256,128,209112,1,8
320,56,209428,2,0,B|384:16|448:56,1,135,4|8
384,192,210375,6,0,B|384:280,2,90,8|8|4
320,56,211480,2,0,B|256:96|192:56,1,135,8|8
104,96,212270,1,8
144,184,212586,2,0,B|0:184,1,135,4|8
56,320,213533,5,8
136,376,213849,1,8
216,320,214165,1,4
256,176,214638,1,8
296,320,215112,1,8
376,376,215428,1,8
456,320,215744,1,4
256,96,216691,5,0
256,192,217323,12,4,223638
