osu file format v9

[General]
AudioFilename: luka - [hatsune miku] [09] - .mp3
AudioLeadIn: 0
PreviewTime: 63283
Countdown: 0
SampleSet: Soft
StackLeniency: 0.7
Mode: 0
LetterboxInBreaks: 1

[Editor]
Bookmarks: 19496,46970,64142,91616,105353,132827,146565,174039,201513,228987
DistanceSpacing: 1
BeatDivisor: 4
GridSize: 8

[Metadata]
Title:Katachi Aru Mono
Artist:Megurine Luka
Creator:loveFantasy
Version:Hard
Source:Chonicle
Tags:vocaloid sekachu shibasaki kou sekai no chuushin de ai wo sakebu drama yuca y_u_c_a baca littlecar littlecar3370

[Difficulty]
HPDrainRate:6
CircleSize:5
OverallDifficulty:6
ApproachRate:8
SliderMultiplier:1.6
SliderTickRate:1

[Events]
//Background and Video events
0,0,"bg.jpg"
//Break Periods
2,93533,104603
//Storyboard Layer 0 (Background)
//Storyboard Layer 1 (Fail)
//Storyboard Layer 2 (Pass)
//Storyboard Layer 3 (Foreground)
//Storyboard Sound Samples
//Background Colour Transformations
3,100,0,0,0

[TimingPoints]
2325,429.28588293374,4,2,1,40,1,0
17779,-133.333333333333,4,2,1,40,0,0
20140,-133.333333333333,4,2,1,20,0,0
20569,-133.333333333333,4,2,1,40,0,0
22930,-133.333333333333,4,2,1,20,0,0
23789,-133.333333333333,4,2,1,40,0,0
25506,-133.333333333333,4,2,1,20,0,0
25935,-133.333333333333,4,2,1,15,0,0
26365,-133.333333333333,4,2,1,20,0,0
26794,-133.333333333333,4,2,1,40,0,0
27008,-133.333333333333,4,2,1,20,0,0
27438,-133.333333333333,4,2,1,40,0,0
28296,-133.333333333333,4,2,1,15,0,0
28511,-133.333333333333,4,2,1,40,0,0
29799,-133.333333333333,4,2,1,20,0,0
30228,-133.333333333333,4,2,1,40,0,0
30443,-133.333333333333,4,2,1,20,0,0
30657,-133.333333333333,4,2,1,40,0,0
31731,-133.333333333333,4,2,1,20,0,0
31945,-133.333333333333,4,2,1,40,0,0
33877,-133.333333333333,4,2,1,20,0,0
34306,-133.333333333333,4,2,1,40,0,0
36667,-133.333333333333,4,2,1,20,0,0
37526,-133.333333333333,4,2,1,40,0,0
39672,-133.333333333333,4,2,1,20,0,0
39887,-133.333333333333,4,2,1,40,0,0
40102,-133.333333333333,4,2,1,20,0,0
40531,-133.333333333333,4,2,1,40,0,0
40746,-133.333333333333,4,2,1,20,0,0
41175,-133.333333333333,4,2,1,40,0,0
43536,-133.333333333333,4,2,1,20,0,0
43751,-133.333333333333,4,2,1,40,0,0
44180,-133.333333333333,4,2,1,20,0,0
44609,-133.333333333333,4,2,1,40,0,0
46541,-133.333333333333,4,2,1,30,0,0
46756,-133.333333333333,4,2,1,20,0,0
46970,-125,4,2,1,25,0,0
52122,-125,4,2,1,35,0,0
52336,-125,4,2,1,25,0,0
53839,-111.111111111111,4,2,1,40,0,0
57273,-111.111111111111,4,2,1,50,0,0
58132,-111.111111111111,4,2,1,15,0,0
58990,-111.111111111111,4,2,1,50,0,0
59849,-111.111111111111,4,2,1,5,0,0
60707,-111.111111111111,4,2,1,50,0,0
62210,-111.111111111111,4,2,0,60,0,0
62425,-111.111111111111,4,1,1,45,0,0
64142,-100,4,2,0,70,0,1
64571,-100,4,1,1,50,0,1
71440,-100,4,2,1,50,0,1
71654,-100,4,1,1,50,0,1
72083,-100,4,2,1,50,0,1
72513,-100,4,1,1,50,0,1
73157,-100,4,2,1,50,0,1
73371,-100,4,1,1,50,0,1
74230,-100,4,2,1,50,0,1
74445,-100,4,1,1,50,0,1
74874,-100,4,2,1,50,0,1
75088,-100,4,1,1,50,0,1
76376,-100,4,2,1,50,0,1
76591,-100,4,1,1,50,0,1
76806,-100,4,2,1,50,0,1
77020,-100,4,1,1,50,0,1
77879,-100,4,2,0,70,0,1
78308,-100,4,1,1,50,0,1
85177,-100,4,2,1,50,0,1
85391,-100,4,1,1,50,0,1
85821,-100,4,2,1,50,0,1
86250,-100,4,1,1,50,0,1
86465,-100,4,2,1,50,0,1
86894,-100,4,1,1,50,0,1
87108,-100,4,2,1,50,0,1
87323,-100,4,1,1,50,0,1
87752,-100,4,2,1,50,0,1
87967,-100,4,1,1,50,0,1
89899,-100,4,2,1,50,0,1
90757,-100,4,2,0,50,0,1
91187,-100,4,2,1,50,0,1
91616,-133.333333333333,4,2,1,80,0,0
92475,-133.333333333333,4,2,1,20,0,0
92904,-133.333333333333,4,2,1,10,0,0
93333,-133.333333333333,4,2,1,5,0,0
105353,-133.333333333333,4,2,1,40,0,0
105997,-133.333333333333,4,2,1,20,0,0
106856,-133.333333333333,4,2,1,40,0,0
107392,-133.333333333333,4,2,1,20,0,0
107500,-133.333333333333,4,2,1,40,0,0
107714,-133.333333333333,4,2,1,20,0,0
108143,-133.333333333333,4,2,1,40,0,0
108358,-133.333333333333,4,2,1,20,0,0
109217,-133.333333333333,4,2,1,40,0,0
109431,-133.333333333333,4,2,1,20,0,0
109861,-133.333333333333,4,2,1,40,0,0
110075,-133.333333333333,4,2,1,20,0,0
110290,-133.333333333333,4,2,1,40,0,0
110827,-133.333333333333,4,2,1,20,0,0
111041,-133.333333333333,4,2,1,40,0,0
111148,-133.333333333333,4,2,1,20,0,0
111363,-133.333333333333,4,2,1,40,0,0
112222,-133.333333333333,4,2,1,20,0,0
112651,-133.333333333333,4,2,1,40,0,0
112866,-133.333333333333,4,2,1,20,0,0
113724,-133.333333333333,4,2,1,40,0,0
114261,-133.333333333333,4,2,1,20,0,0
114368,-133.333333333333,4,2,1,40,0,0
114583,-133.333333333333,4,2,1,20,0,0
115012,-133.333333333333,4,2,1,40,0,0
115227,-133.333333333333,4,2,1,20,0,0
115656,-133.333333333333,4,2,1,40,0,0
116300,-133.333333333333,4,2,1,20,0,0
116729,-133.333333333333,4,2,1,40,0,0
116944,-133.333333333333,4,2,1,20,0,0
117373,-133.333333333333,4,2,1,40,0,0
117695,-133.333333333333,4,2,1,20,0,0
117910,-133.333333333333,4,2,1,40,0,0
118017,-133.333333333333,4,2,1,20,0,0
118446,-133.333333333333,4,2,1,40,0,0
118661,-133.333333333333,4,2,1,20,0,0
119090,-133.333333333333,4,2,1,40,0,0
119734,-133.333333333333,4,2,1,20,0,0
120593,-133.333333333333,4,2,1,40,0,0
121129,-133.333333333333,4,2,1,20,0,0
121237,-133.333333333333,4,2,1,40,0,0
121451,-133.333333333333,4,2,1,20,0,0
121666,-133.333333333333,4,2,1,40,0,0
122095,-133.333333333333,4,2,1,20,0,0
122525,-133.333333333333,4,2,1,40,0,0
123168,-133.333333333333,4,2,1,20,0,0
124027,-133.333333333333,4,2,1,40,0,0
124564,-133.333333333333,4,2,1,20,0,0
124778,-133.333333333333,4,2,1,40,0,0
124886,-133.333333333333,4,2,1,20,0,0
125100,-133.333333333333,4,2,1,40,0,0
125530,-133.333333333333,4,2,1,30,0,0
125959,-133.333333333333,4,2,1,40,0,0
126603,-133.333333333333,4,2,1,20,0,0
126817,-133.333333333333,4,2,1,40,0,0
127247,-133.333333333333,4,2,1,20,0,0
127461,-133.333333333333,4,2,1,40,0,0
127998,-133.333333333333,4,2,1,20,0,0
128213,-133.333333333333,4,2,1,40,0,0
128320,-133.333333333333,4,2,1,20,0,0
128964,-133.333333333333,4,2,1,40,0,0
130037,-133.333333333333,4,2,1,20,0,0
130466,-133.333333333333,4,2,1,40,0,0
132827,-125,4,2,1,30,0,0
133257,-125,4,2,1,40,0,0
136262,-125,4,2,1,30,0,0
136691,-125,4,2,1,40,0,0
136906,-125,4,2,1,20,0,0
137335,-125,4,2,1,40,0,0
137550,-125,4,2,1,20,0,0
138408,-125,4,2,1,40,0,0
138837,-125,4,2,1,20,0,0
139696,-111.111111111111,4,2,1,35,0,0
143130,-111.111111111111,4,2,0,60,0,0
143560,-111.111111111111,4,2,1,20,0,0
143989,-111.111111111111,4,2,1,40,0,0
144418,-111.111111111111,4,2,1,20,0,0
144633,-111.111111111111,4,2,1,40,0,0
145277,-111.111111111111,4,2,1,50,0,0
145706,-111.111111111111,4,2,1,60,0,0
146565,-100,4,1,1,60,0,0
146672,-100,4,2,1,60,0,0
152360,-100,4,2,0,50,0,0
152682,-100,4,2,1,60,0,0
160302,-100,4,1,1,60,0,0
160409,-100,4,2,1,60,0,0
174039,-100,4,2,1,40,0,0
174897,-200,4,2,1,40,0,0
177473,-200,4,2,1,50,0,0
177902,-200,4,2,1,40,0,0
180049,-200,4,2,1,50,0,0
180478,-200,4,2,1,40,0,0
180907,-200,4,2,0,40,0,0
181122,-200,4,2,1,40,0,0
186488,-200,4,2,0,35,0,0
186917,-200,4,2,1,50,0,0
187347,-200,4,1,0,30,0,0
187776,-200,4,2,0,50,0,0
187991,-200,4,2,1,45,0,0
190352,-200,4,2,0,50,0,0
190566,-200,4,2,1,45,0,0
193786,-200,4,2,1,60,0,0
194215,-200,4,2,1,40,0,0
194645,-200,4,1,0,40,0,0
195289,-200,4,2,1,40,0,0
198079,-111.111111111111,4,2,1,40,0,0
198937,-111.111111111111,4,2,0,40,0,0
199152,-111.111111111111,4,2,1,40,0,0
199581,-111.111111111111,4,2,0,60,0,0
199796,-111.111111111111,4,1,1,40,0,0
200869,-111.111111111111,4,1,1,50,0,0
201513,-100,4,1,0,50,0,1
201728,-100,4,2,1,60,0,1
203230,-100,4,2,1,40,0,1
203660,-100,4,2,1,60,0,1
204947,-100,4,2,1,40,0,1
205162,-100,4,2,1,60,0,1
206665,-100,4,2,1,40,0,1
207094,-100,4,2,1,60,0,1
208382,-200,4,2,0,60,0,1
208811,-200,4,2,0,100,0,1
209026,-200,4,2,1,60,0,1
209670,-200,4,2,0,100,0,1
209884,-200,4,2,1,60,0,1
210314,-142.857142857143,4,2,1,60,0,1
210528,-142.857142857143,4,2,1,40,0,1
210743,-125,4,2,1,60,0,1
211172,-111.111111111111,4,2,1,60,0,1
211387,-111.111111111111,4,2,1,40,0,1
211601,-111.111111111111,4,2,1,60,0,1
211816,-100,4,2,1,60,0,1
213319,-100,4,2,0,60,0,1
213426,-100,4,2,1,60,0,1
213533,-100,4,2,1,40,0,1
213748,-100,4,2,1,60,0,1
215250,-100,4,1,0,50,0,1
215572,-100,4,2,1,60,0,1
216967,-100,4,2,1,40,0,1
217397,-100,4,2,1,60,0,1
218685,-100,4,2,1,40,0,1
219007,-100,4,2,1,60,0,1
220402,-100,4,2,1,40,0,1
220831,-100,4,2,1,60,0,1
222119,-200,4,2,0,60,0,1
222548,-200,4,2,0,100,0,1
222763,-200,4,2,1,60,0,1
223407,-200,4,2,0,100,0,1
223621,-200,4,2,1,60,0,1
223836,-133.333333333333,4,2,1,60,0,1
225553,-200,4,2,1,60,0,1
228129,-200,4,2,0,60,0,1
228558,-200,4,2,1,60,0,1
230705,-100,4,2,1,5,0,0

[Colours]
Combo1 : 167,143,143
Combo2 : 255,197,196
Combo3 : 168,218,255
Combo4 : 254,254,177

[HitObjects]
256,131,18637,1,0
256,157,19067,1,0
256,183,19496,6,0,B|199:212|177:271,1,119.999996423721,4|0
163,342,20140,2,0,B|112:231,1,119.999996423721,8|0
41,165,20784,2,0,B|70:155|101:165,1,59.9999982118607,2|0
165,146,21213,2,0,B|182:84|146:28,1,119.999996423721
215,82,21857,2,0,B|336:66,1,119.999996423721,0|0
390,117,22501,1,2
390,117,22930,6,0,B|444:137|473:220|444:291|390:311,1,239.999992847443,8|0
364,240,24218,1,2
321,299,24433,1,0
256,334,24647,2,0,B|198:367|143:330,1,119.999996423721,0|0
198,209,25291,5,0
252,260,25506,2,0,B|290:201|238:147,1,119.999996423721,2|8
178,34,26365,6,0,B|134:88|171:145,1,119.999996423721,8|0
314,163,27008,2,0,B|296:95|227:94,1,119.999996423721,8|0
239,169,27652,1,2
206,233,27867,2,0,B|239:290|204:349,1,119.999996423721,0|8
136,348,28511,1,2
140,206,28940,2,0,B|128:177|138:148,1,59.9999982118607
192,42,29370,2,0,B|204:71|194:100,1,59.9999982118607,2|0
243,150,29799,5,8
243,150,30228,2,0,B|273:139|304:148,1,59.9999982118607,0|8
357,195,30657,2,0,B|382:312,1,119.999996423721,0|0
416,152,31516,1,2
416,152,31731,1,8
443,86,31945,1,0
443,86,32160,1,0
321,80,32375,5,0
296,91,32804,1,0
271,102,33233,6,0,B|226:149|238:215,1,119.999996423721,4|0
344,353,33877,2,0,B|322:289|257:282,1,119.999996423721,8|0
190,265,34521,2,0,B|133:286,1,59.9999982118607,2|0
71,318,34950,2,0,B|43:258|84:204,1,119.999996423721
69,27,35594,2,0,B|97:87|56:141,1,119.999996423721
13,195,36238,1,2
130,155,36667,6,0,B|150:101|221:72|304:101|324:155,1,239.999992847443,8|0
419,85,37955,1,2
419,157,38170,1,0
469,209,38385,2,0,B|459:236|423:250|382:236|372:209,1,119.999996423721
336,344,39028,5,0
284,288,39243,2,0,B|302:160,1,119.999996423721,2|8
256,112,39887,1,0
211,169,40102,6,0,B|149:201|103:145,1,119.999996423721,8|0
110,80,40746,2,0,B|47:184,1,119.999996423721,8|0
74,252,41390,1,2
44,317,41604,1,0
147,264,41819,2,0,B|199:304|264:271,1,119.999996423721
365,120,42677,2,0,B|313:80|248:113,1,119.999996423721,2|0
219,174,43321,1,0
217,247,43536,5,8
217,247,43751,1,0
150,208,43965,2,0,B|136:178|150:149,1,59.9999982118607,0|8
303,63,44609,1,0
364,101,44824,2,0,B|351:132|364:164,1,59.9999982118607
290,134,45253,5,2
346,228,45682,1,0
252,285,46112,1,0
195,190,46541,1,8
195,190,46756,1,0
228,124,46970,6,0,B|209:60|140:39,1,128,12|0
78,76,47614,1,8
91,216,48043,2,0,B|60:208|43:176,2,64,2|8|2
143,267,48687,6,0,B|128:328,1,64,8|0
204,314,49117,2,0,B|235:300|271:315,1,64,0|8
415,313,49761,1,2
346,278,49975,1,8
303,215,50190,1,2
252,47,50405,6,0,B|276:116|237:169,1,128,8|0
106,191,51048,1,8
176,201,51478,2,0,B|186:232|212:254,1,64,2|8
265,304,51907,1,2
330,337,52122,5,12
330,337,52336,1,0
326,265,52551,2,0,B|355:204|314:141,1,128,2|2
260,18,53410,2,2,B|246:52|274:81,1,64
344,76,53839,5,8
344,76,54053,2,0,B|315:104|315:141,1,71.9999965667726
260,301,54697,1,2
260,301,55127,2,0,B|255:265|221:241,1,71.9999965667726,8|0
163,201,55556,5,0
43,164,55771,1,8
130,76,56200,2,0,B|114:148,2,71.9999965667726,2|8|2
197,44,56844,2,0,B|230:59|268:47,1,71.9999965667726,0|2
256,120,57273,1,4
256,192,57380,12,0,59849
217,213,60707,6,0,B|224:250|259:274,1,71.9999965667726,8|0
318,313,61137,1,0
389,341,61351,1,8
297,219,61566,2,0,B|332:213|363:181,1,71.9999965667726,0|8
390,118,61995,1,2
268,78,62210,5,4
201,48,62425,5,2
207,119,62639,2,0,B|173:135|136:123,1,71.9999965667726,0|0
254,178,63068,2,0,B|248:215|263:247,1,71.9999965667726,0|2
316,299,63498,1,0
435,224,63712,1,2
320,140,63927,1,2
311,218,64142,6,0,B|268:224|230:190|220:141|247:107,1,160,4|0
320,140,64786,2,0,B|362:133|400:167|410:216|384:250,1,160,2|0
240,319,65644,1,0
94,253,66073,2,0,B|68:289,2,40,0|0|2
140,187,66503,1,0
94,121,66717,1,2
222,187,67147,1,2
255,114,67576,6,0,B|248:71|282:33|331:23|365:50,1,160,2|0
332,123,68220,2,0,B|338:165|305:203|255:213|222:187,1,160,2|0
280,338,69078,1,0
127,293,69508,1,0
99,293,69615,1,0
71,293,69722,2,0,B|49:324|65:369,2,80,2|0|2
112,164,70581,1,0
63,107,70796,1,0
136,91,71010,5,2
239,207,71440,2,0,B|225:165|184:149,1,80
277,129,71869,2,0,B|296:94|337:75,1,80
316,197,72298,2,0,B|352:219|350:269,1,80,2|0
209,339,72942,2,0,B|192:375,2,40,0|0|2
209,339,73371,1,0
176,160,73586,1,2
310,83,74230,5,0
368,39,74445,1,2
356,198,74874,1,0
387,263,75088,1,2
313,351,75518,1,2
293,236,75947,1,2
243,180,76162,2,0,B|224:145|189:123,1,80,2|0
165,111,76484,1,0
139,106,76591,1,2
159,204,76806,1,0
159,204,77020,1,2
245,49,77235,1,0
245,49,77450,1,2
276,85,77664,1,2
321,85,77879,6,0,B|337:44|385:28|433:45|449:85,1,160,4|0
384,131,78523,2,0,B|368:171|320:187|272:171|256:131,2,160,2|0|0
321,244,79811,1,0
321,244,79918,1,0
321,244,80025,1,2
360,317,80240,1,0
282,317,80455,1,2
172,244,80884,1,2
113,182,81313,6,0,B|153:198|169:246|152:294|113:310,1,160,2|0
67,245,81957,2,0,B|27:229|11:181|27:133|67:117,2,160,2|0|0
136,118,83245,1,0
136,118,83352,1,0
136,118,83460,1,2
176,47,83674,1,0
216,118,83889,1,2
174,190,84318,6,0,B|193:227|171:266,1,80
130,325,84747,1,2
307,122,85177,1,0
270,190,85391,2,0,B|250:223|273:266,1,80,0|2
324,320,85821,1,0
390,353,86035,1,0
386,280,86250,1,0
451,309,86465,1,2
465,160,86894,1,0
424,99,87108,2,0,B|397:65|357:52,1,80,0|2
346,183,87752,2,0,B|301:190|279:227,1,80
244,287,88182,5,2
232,155,88611,1,0
232,155,88826,1,2
60,84,89255,2,0,B|112:68|168:136|151:184,1,160,2|0
153,262,89899,1,2
256,332,90328,1,2
359,262,90757,1,4
256,192,91187,1,2
267,108,91401,1,2
306,36,91616,5,4
256,192,91723,12,0,93333
195,115,105353,5,4
157,182,105782,2,0,B|184:236,1,59.9999982118607,0|8
391,283,106641,2,0,B|364:229,1,59.9999982118607,8|0
393,126,107285,2,0,B|393:156,2,29.9999991059304,0|8|0
320,165,107714,1,8
280,294,108143,1,0
315,365,108358,1,8
209,259,108787,6,0,B|165:246|146:206|161:160,1,119.999996423721,8|0
234,188,109431,2,0,B|299:80,1,119.999996423721,8|0
242,31,110075,1,8
242,31,110290,1,0
180,79,110505,5,0
109,105,110719,2,0,B|75:116,1,29.9999991059304,0|8
70,187,111041,2,0,B|36:198,1,29.9999991059304,0|8
79,264,111363,2,2,B|72:301|120:350|158:335,1,119.999996423721,4|0
278,293,112222,5,8
334,242,112651,2,0,B|391:221,1,59.9999982118607,0|8
256,88,113510,2,0,B|199:109,1,59.9999982118607,8|0
218,214,114153,2,0,B|218:175,2,29.9999991059304,0|8|0
234,287,114583,2,0,B|187:326|125:329,1,119.999996423721,8|0
97,263,115227,1,8
52,78,115656,6,0,B|33:146|82:190,1,119.999996423721,8|0
151,209,116300,2,0,B|284:242,1,119.999996423721,8|0
339,224,116944,1,8
302,88,117373,5,0
234,127,117588,2,0,B|223:97,1,29.9999991059304,0|8
310,191,117910,2,0,B|299:161,1,29.9999991059304,0|8
231,283,118446,2,0,B|194:288|173:312,1,59.9999982118607,0|8
119,354,118876,1,8
108,278,119090,6,0,B|67:226|97:164,1,119.999996423721,4|0
137,104,119734,1,8
321,71,120378,1,8
251,47,120593,1,0
262,121,120807,1,0
214,186,121022,2,0,B|182:199,2,29.9999991059304,0|8|0
264,249,121451,2,0,B|277:278|264:308,1,59.9999982118607,8|0
402,282,122095,1,8
339,241,122525,6,0,B|323:184|367:130,1,119.999996423721,8|0
427,88,123168,1,8
265,146,123812,1,8
212,198,124027,1,0
138,205,124242,1,0
97,141,124456,2,0,B|64:131,1,29.9999991059304,0|8
121,73,124778,2,0,B|88:63,1,29.9999991059304,0|8
20,77,125100,1,4
66,209,125530,1,8
197,298,125959,5,8
255,190,126388,2,0,B|276:160|264:129,1,59.9999982118607,0|8
223,73,126817,1,0
189,221,127247,2,0,B|203:250|238:260,1,59.9999982118607,8|0
303,247,127676,1,0
288,320,127891,2,0,B|326:317,1,29.9999991059304,0|8
374,268,128213,2,0,B|412:265,1,29.9999991059304,0|8
466,225,128535,2,0,B|487:161|447:107,1,119.999996423721,8|0
381,83,129393,5,8
308,195,129822,2,0,B|283:213|245:214,1,59.9999982118607,0|8
315,120,130466,1,0
213,38,130896,2,0,B|222:69|253:83,1,59.9999982118607
244,223,131540,6,0,B|202:270,2,60.0000022888184,2|0|2
140,91,132398,1,2
208,130,132613,1,2
280,112,132827,6,0,B|320:96|368:96|408:120|424:144,1,128,12|0
392,280,133686,1,2
240,248,134115,1,0
192,312,134330,1,2
120,280,134545,6,0,B|88:272|48:248|32:216|32:176,1,128,0|2
88,144,135188,2,0,B|120:152|160:144|192:112|200:72,1,128,0|0
256,48,135832,1,2
256,312,136262,5,8
328,168,136691,2,0,B|368:176|392:224,1,64,2|8
150,133,137335,2,0,B|144:96|184:64,1,64,2|8
216,272,137979,1,10
296,112,138408,5,0
328,304,138837,1,10
144,240,139267,1,0
136,48,139696,2,0,B|152:88|200:96|232:80|224:32|256:8|304:8|336:40,2,215.999989700318,8|0|4
80,136,142057,5,0
80,136,142272,1,10
48,224,142701,1,8
48,224,142916,1,2
240,336,143130,6,0,B|104:288,1,143.999993133545,4|0
344,112,143989,2,0,B|208:160,1,143.999993133545,8|0
107,57,144633,2,0,B|176:80,1,71.9999965667726,8|2
176,80,145277,5,8
126,143,145491,1,0
202,165,145706,6,0,B|290:189,1,71.9999965667726,10|0
137,222,146135,2,0,B|49:198,1,71.9999965667726,0|0
64,272,146565,6,0,B|88:336|168:336|192:256,1,160,4|0
184,128,147208,2,0,B|160:104|128:104|96:144,1,80,0|8
248,192,147638,2,0,B|272:256|352:256|376:176,1,160,0|8
424,120,148282,1,8
200,40,148711,1,8
104,264,149140,1,8
328,344,149570,1,0
424,120,149999,6,0,B|400:56|320:56|296:136,1,160,8|0
176,192,150643,1,0
176,192,150857,2,0,B|200:256|280:256|304:176,1,160,8|0
168,120,151501,1,8
168,120,151716,2,0,B|144:56|64:56|40:136,1,160,8|0
0,200,152360,1,8
48,280,152575,1,8
336,280,153004,1,0
392,200,153218,1,8
328,128,153433,6,0,B|288:40|176:64,1,160,8|0
56,256,154292,2,0,B|96:344|208:320,1,160,8|0
280,360,154936,1,8
328,280,155150,1,8
240,240,155365,1,0
24,144,155794,1,8
24,144,156009,2,0,B|64:96|120:96|168:152,1,160,8|0
240,200,156653,5,0
336,208,156867,2,0,B|376:128,1,80,8|8
488,120,157297,1,0
456,232,157511,2,0,B|416:328,1,80,0|8
304,328,157941,1,8
304,328,158370,5,8
216,360,158585,1,0
168,280,158799,1,8
256,240,159014,1,8
256,240,159443,5,8
208,128,159658,1,8
304,56,159872,1,8
408,120,160087,1,0
368,232,160302,6,0,B|424:264|424:352|360:368,1,160,4|0
280,360,160946,2,0,B|176:360,1,80,0|8
200,360,161375,2,0,B|200:304|152:240|88:240,1,160,0|8
32,192,162019,1,8
256,40,162448,1,8
472,192,162877,5,8
472,192,163307,1,0
472,192,163736,2,0,B|496:240|472:280,1,80,8|0
384,232,164165,1,0
296,272,164380,2,0,B|272:224|296:184,1,80,0|8
384,232,164809,2,0,B|384:64,1,160,0|8
384,72,165453,1,8
200,32,165882,1,8
104,56,166097,1,0
64,144,166312,2,0,B|8:168|8:248|80:272,1,160,8|0
168,272,166956,6,0,B|328:272,1,160
424,272,167600,1,0
360,88,168029,1,8
176,136,168458,1,0
104,72,168673,1,8
40,144,168887,2,0,B|40:232,1,80,8|0
112,288,169317,1,8
200,328,169531,2,0,B|200:232,1,80,8|8
440,72,170390,5,0
504,136,170605,1,8
440,200,170819,1,8
440,200,171463,5,8
352,120,171678,1,0
264,200,171892,1,0
352,280,172107,1,8
352,280,172322,5,8
128,360,172751,1,8
40,136,173180,1,8
256,24,173610,2,0,B|256:104,1,80,8|8
256,104,174039,1,4
289,275,174897,6,0,B|269:217|310:157,1,120,8|8
361,114,175756,2,0,B|399:105,2,40,0|8|0
222,154,176615,2,0,B|192:128|149:117,1,80,8|0
81,136,177258,1,0
123,199,177473,5,2
66,328,177688,1,2
209,317,177902,1,0
241,248,178332,6,0,B|281:229|327:233,1,80,8|0
384,262,178976,1,8
443,212,179190,2,0,B|486:224,2,40,0|8|0
388,92,180049,5,10
324,17,180263,1,2
254,78,180478,1,0
193,124,180907,6,0,B|189:169,1,40,4|0
134,212,181337,1,2
68,181,181551,1,0
206,238,181766,6,0,B|229:274,1,40,8|0
291,312,182195,1,2
358,283,182410,1,8
432,211,182625,6,0,B|379:215,1,40,0|8
321,217,183054,1,2
318,145,183268,1,0
262,97,183483,6,0,B|224:114,1,40,8|0
162,62,183912,2,0,B|198:45,1,40,2|0
265,22,184342,5,4
218,198,184986,2,0,B|230:239,1,40,0|8
294,333,185630,2,0,B|282:294,1,40,0|8
296,227,186059,6,0,B|312:187|291:147,1,80,0|4
216,157,186917,2,0,B|200:197|221:237,1,80,8|4
264,296,187776,5,4
108,319,187991,2,0,B|62:325,2,40,2|0|2
254,139,188849,1,2
299,193,189064,1,0
237,225,189279,1,2
192,170,189493,5,8
373,158,189708,2,0,B|409:145,2,40,2|0|2
238,110,190352,1,4
101,77,190566,2,0,B|63:60,2,40,2|0|2
180,71,191210,6,0,B|221:50|262:61,1,80,8|0
309,154,191854,2,0,B|348:167|375:204,1,80,10|2
348,313,192498,1,8
348,313,192713,1,2
283,351,192927,6,0,B|273:332|276:310,1,40,8|2
185,256,193357,2,0,B|191:240|209:225,1,40,8|2
303,192,193786,2,0,B|383:180,1,80,8|0
479,188,194430,1,2
464,85,194645,6,0,B|415:51|349:43,1,120,4|2
296,92,195503,2,0,B|252:99|222:131,1,80,8|0
185,183,196147,1,2
218,246,196362,1,0
131,231,196791,5,2
159,118,197006,1,2
94,23,197220,2,0,B|56:10|15:14,1,80,8|0
217,171,198079,6,0,B|224:134|259:110,1,71.9999965667726,8|8
318,71,198509,1,0
389,43,198723,1,8
297,165,198938,2,0,B|332:171|363:203,1,71.9999965667726,12|8
390,266,199367,1,2
268,306,199582,5,6
201,336,199797,5,2
207,265,200011,2,0,B|173:249|136:261,1,71.9999965667726,0|0
254,206,200440,2,0,B|248:169|263:137,1,71.9999965667726,0|6
316,85,200870,5,0
435,160,201084,1,2
320,244,201299,1,2
367,143,201513,6,0,B|394:114|394:114|412:70,2,80,4|0|2
297,169,202157,1,2
267,239,202372,2,0,B|277:278|277:278|259:317,1,80,8|2
227,342,202694,2,0,B|101:341,1,120,0|10
65,206,203230,2,0,B|48:245|48:245|63:285,2,80,8|8|0
132,173,203874,1,0
132,24,204089,1,10
196,63,204518,5,2
345,63,204733,1,2
408,106,204947,2,0,B|432:139|432:139|472:149,1,80,8|0
493,216,205377,2,0,B|467:295,1,80,2|2
413,341,205806,2,0,B|398:298|367:269,1,80,8|2
347,243,206128,2,0,B|228:243,1,120,0|10
160,274,206665,2,0,B|123:286|123:286|82:272,2,80,8|8|0
160,204,207309,5,0
228,48,207523,1,10
143,134,207952,5,2
245,118,208166,1,2
329,43,208382,6,0,B|308:110|374:142,1,120,4|0
430,188,209240,2,0,B|460:245|423:306,1,120,8|0
327,334,210314,2,0,B|268:323,1,55.999998664856,0|2
276,251,210743,2,0,B|211:239,1,64,0|8
163,182,211172,2,0,B|156:148|156:148|168:108,2,71.9999965667726,0|2|0
128,250,211816,6,0,B|159:284|141:344|90:370|54:344,1,160,0|2
60,279,212460,2,2,B|40:258|55:201|83:192|83:192|94:162|81:135,1,160
53,67,213104,1,2
53,67,213319,1,4
53,67,213426,1,0
53,67,213533,6,0,B|92:48|92:48|137:48,1,80,8|0
189,85,213962,1,8
239,234,214177,5,0
298,281,214392,2,0,B|334:299|334:299|383:288,1,80,8|0
345,225,214821,2,0,B|362:190|362:190|352:143,1,80,8|0
378,79,215250,6,0,B|278:148,1,120,4|0
243,170,215680,2,0,B|210:190|210:190|171:176,1,80,2|2
108,142,216109,1,8
110,216,216324,2,0,B|97:257|97:257|110:293,2,80,2|0|10
108,142,216967,5,8
128,17,217182,1,8
186,130,217396,1,0
73,72,217611,1,0
199,52,217826,1,10
383,80,218255,5,2
257,100,218470,1,2
246,173,218685,6,0,B|245:293,1,120,8|0
267,327,219114,2,0,B|304:342|304:342|341:327,1,80,2|2
390,273,219543,1,8
317,257,219758,2,0,B|317:176,2,80,2|0|10
389,201,220402,5,8
303,83,220616,1,8
166,128,220831,1,0
166,272,221046,1,0
303,316,221260,1,10
193,200,221690,5,2
56,156,221904,1,2
105,95,222119,6,0,B|155:54|223:46,1,120,4|0
215,125,222977,2,0,B|270:157|338:162,1,120,8|8
380,214,223836,2,0,B|409:220|409:220|444:214,2,59.9999982118607,0|8|2
264,326,224695,2,0,B|273:297|273:297|265:264,1,59.9999982118607,10|0
236,246,225017,1,0
206,223,225124,2,0,B|199:196|199:196|209:158,1,59.9999982118607,2|10
265,116,225553,6,0,B|207:86|145:88,1,120,2|0
146,159,226412,2,0,B|93:190|19:183,1,120,8|2
71,251,227270,5,2
229,334,227699,1,2
147,202,228128,1,6
226,243,228557,1,2
197,202,228773,1,2
221,155,228987,5,4
256,192,229095,12,0,230705
