osu file format v6

[General]
AudioFilename: DYE.mp3
AudioLeadIn: 0
PreviewTime: 13080
Countdown: 0
SampleSet: Normal
StackLeniency: 0.7
Mode: 0
LetterboxInBreaks: 0
UseSkinSprites: 1

[Editor]
DistanceSpacing: 1
BeatDivisor: 4
GridSize: 8

[Metadata]
Title:DYE
Artist:Megurine Luka
Creator:Shinxyn
Version:Normal
Source:AVTechNO
Tags:AVTechZO Vocaloid Vocaloid2

[Difficulty]
HPDrainRate:3
CircleSize:3
OverallDifficulty:3
SliderMultiplier:1
SliderTickRate:1

[Events]
//Background and Video events
0,0,"503.png"
//Break Periods
2,38153,41070
2,79166,83602
2,146001,156513
//Storyboard Layer 0 (Background)
//Storyboard Layer 1 (Fail)
//Storyboard Layer 2 (Pass)
//Storyboard Layer 3 (Foreground)
Sprite,Foreground,Centre,"hitcircle.png",519,423 F,0,208080,208555,0,0.7 C,0,208744,209219,168,112,169 S,0,209219,,0.7119195
Sprite,Foreground,Centre,"approachcircle.png",519,423 F,0,208175,209219,0,0.375 S,0,208175,209219,2.549166,1.167801 C,0,208744,209219,168,112,169 S,0,209219,,1.167801
Sprite,Foreground,Centre,"default-5.png",519,423 F,0,208080,208555,0,1 F,0,208555,209219,1 S,0,209219,,0.5
Sprite,Foreground,Centre,"hitcircleoverlay.png",519,423 F,0,208080,208555,0,1 F,0,208555,209219,1 S,0,209219,,0.6314404
//Storyboard Sound Samples
//Background Colour Transformations
3,100,0,0,0

[TimingPoints]
13650,379.746835443038,4,1,0,60,1,0
37953,-100,4,1,0,0,0,0
42320,-100,4,1,0,40,0,0
47447,-100,4,1,0,45,0,0
48776,-100,4,1,0,40,0,0
51624,-100,4,1,0,50,0,0
54757,-100,4,1,0,60,0,0
84947,-100,4,1,0,60,0,0
90168,-100,4,1,0,50,0,0
90548,-100,4,1,0,40,0,0
90928,-100,4,1,0,30,0,0
96055,-100,4,1,0,60,0,0
96624,-100,4,1,0,80,0,0
97004,-100,4,1,0,100,0,0
97384,-100,4,1,0,60,0,0
120738,-100,4,2,0,60,0,0
121498,-100,4,1,0,60,0,0
170295,-100,4,2,0,80,0,0
180643,-100,4,2,0,60,0,0
181403,-100,4,2,0,40,0,0
185295,-100,4,1,0,60,0,1
209219,-100,4,1,0,0,0,0

[Colours]
Combo1 : 249,0,6
Combo2 : 255,119,204
Combo3 : 168,112,169
Combo4 : 239,124,239

[HitObjects]
400,72,13649,1,0
440,160,14029,2,0,B|392:208|312:184,1,100
344,288,14789,2,0,B|272:272|264:200,1,100
176,184,15548,2,0,B|224:128|296:152,1,100
296,48,16308,2,0,B|352:64|344:136,1,100,0|0
344,224,17067,6,0,B|288:256|208:248,1,100
152,248,17827,2,0,B|200:200|200:120,1,100
112,112,18586,2,0,B|128:176|48:216,1,100
24,112,19346,2,0,B|24:40|80:16,1,100,0|0
160,24,20105,2,0,B|208:64|192:136,1,100
296,112,20865,5,0
328,312,21624,1,0
160,208,22384,1,0
256,208,22763,2,0,B|368:208,2,100
160,208,23903,1,0
144,304,24282,2,0,B|72:280|64:216,2,100
160,208,25422,5,0
160,208,25612,1,0
160,208,25801,1,4
232,280,26181,6,0,B|288:248|304:184,1,100
376,144,26941,2,0,B|416:208|360:264,1,100
400,336,27700,2,0,B|336:315|272:392,1,100
206,357,28460,5,0
96,192,29219,1,0
264,88,29979,1,0
384,248,30738,1,0
264,88,31498,6,0,B|264:224,1,100
336,256,32257,1,0
264,328,32637,1,0
192,256,33017,1,0
96,256,33396,1,0
96,160,33776,1,0
192,160,34156,1,0
296,160,34536,2,0,B|416:248,2,100
384,112,35675,5,0
472,160,36055,1,0
472,256,36434,1,0
384,304,36814,1,0
296,256,37194,1,0
296,160,37574,2,0,B|400:104,1,100,0|0
400,72,42510,6,0,B|464:184|416:312,2,200
200,72,44789,1,0
120,256,45548,6,0,B|208:320|328:280,2,200
200,72,47827,1,0
344,208,48586,5,0
248,216,48966,2,0,B|240:152|296:128,2,100
344,208,50105,2,0,B|448:256,2,100
256,168,51244,1,0
56,168,52004,5,0
128,104,52384,2,0,B|168:160|128:240,1,100
56,168,53143,2,0,B|32:288|184:352,1,200
344,328,54662,5,0
408,248,55042,2,0,B|392:192|336:160,4,100
304,248,56941,2,0,B|192:248,1,100
128,64,58080,6,0,B|264:64,1,100
328,64,58839,2,0,B|376:48|416:88|456:56,2,100
128,64,60358,1,0
48,192,60928,6,0,B|72:320|248:352,1,250
280,264,62257,2,0,B|224:160|88:136,1,200
40,96,63396,1,0
192,96,63966,6,0,B|312:80|440:144,1,250
360,208,65295,2,0,B|408:240|488:232,2,100
360,208,66434,1,0
264,184,66814,6,0,B|104:184,1,150
112,288,67763,2,0,B|256:288,1,100
312,288,68523,2,0,B|464:288,1,150
464,184,69472,2,0,B|336:184,1,100
288,120,70232,5,0
192,144,70612,1,0
192,240,70991,1,0
288,216,71371,2,0,B|368:280,4,100
368,160,73270,5,0
424,240,73649,2,0,B|504:152|408:64,1,200
368,160,74789,1,0
272,160,75168,1,0
176,160,75548,2,0,B|112:160,2,50
224,248,76308,5,0
296,312,76687,2,0,B|424:280|456:176,1,200
416,96,77827,2,0,B|368:80|312:96,1,100
224,120,78586,1,0
128,160,78966,1,4
96,96,85042,5,0
96,296,85801,2,0,B|248:296,2,150
96,192,87320,1,0
288,192,88080,2,0,B|408:192,2,100
192,192,89219,5,0
240,104,89599,1,0
328,64,89979,1,0
416,104,90358,1,0
464,192,90738,2,0,B|422:369|222:356|186:171,2,400
256,208,95675,12,0,97194
56,192,98713,5,0
456,192,100232,1,0
256,40,101561,6,0,B|256:160,1,100
256,240,102320,1,0
256,344,102700,1,0
256,344,102890,1,0
256,344,103080,1,0
360,240,103649,6,0,B|392:176|368:128,1,100
312,64,104409,2,0,B|256:112|256:160,1,100
256,248,105168,1,0
208,56,105928,6,0,B|112:72|96:128,2,100
16,112,107447,2,0,B|30:173|96:192,2,100
184,224,108966,1,0
288,224,109346,5,4
384,224,109725,6,0,B|432:208|456:104,2,100
288,224,110865,2,0,B|240:264|224:336,1,100
136,304,111624,2,0,B|64:256|104:160,1,150
136,80,112574,6,0,B|232:112|304:72|400:136,1,250
384,224,113903,2,0,B|368:280|296:376|168:328|120:256,1,300
56,96,115801,5,0
232,192,116561,1,0
408,280,117320,2,0,B|464:240|456:176,1,100
384,128,118080,2,0,B|328:168|328:232,1,100
312,312,118839,1,0
112,312,119599,6,0,B|80:256|96:184,1,100
104,120,120358,2,0,B|168:88,1,50,0|0
248,96,120928,2,0,B|336:96,3,50,0|0|0|4
336,208,121877,5,0
136,208,122637,1,0
232,32,123396,2,0,B|256:80|208:120|256:152,2,100
40,96,124915,5,0
104,288,125675,1,0
208,288,126055,2,0,B|280:288,3,50
360,288,127004,2,0,B|416:288,2,50
360,136,127953,5,0
168,192,128713,1,0
312,56,129472,1,0
256,136,129852,1,0
256,240,130232,2,0,B|200:344|72:312,1,200
40,232,131371,5,0
112,160,131751,2,0,B|160:112,1,50
248,128,132320,2,0,B|296:192,2,50
192,48,133080,2,0,B|192:128,3,50,0|0|0|4
192,200,134029,6,0,B|192:320,2,100
272,256,135168,1,0
376,256,135548,2,0,B|496:256,2,100,0|0|0
432,168,136687,1,0
432,72,137067,5,0
344,120,137447,1,0
240,120,137827,2,0,B|168:128|120:168,1,100
145,250,138586,2,0,B|256:256|344:184,1,200
232,80,139915,6,0,B|232:16,2,50
232,184,140675,2,0,B|232:248,2,50
152,128,141434,6,0,B|80:128|40:200,1,100
64,264,142194,2,0,B|104:296|176:296,1,100
200,208,142953,2,0,B|328:192,1,100
256,208,143713,12,4,145801
256,192,157953,5,4
152,192,158333,6,0,B|112:152|144:88,1,100
240,104,159093,2,0,B|248:48|320:32,1,100
336,128,159852,2,0,B|392:112|432:152,1,100
360,216,160612,2,0,B|408:248|392:320,1,100
296,272,161371,6,0,B|272:328|200:312,2,100
208,224,162510,2,0,B|152:248|104:208,2,100
248,136,163650,1,0
320,64,164029,6,0,B|352:104|344:176,1,100
248,136,164789,2,0,B|280:176|272:248,1,100,0|0
176,208,165548,2,0,B|208:248|200:320,1,100,0|0
104,280,166308,2,0,B|136:320|128:392,1,100,0|0
104,280,167067,6,0,B|80:192|96:64|280:40,1,300
433,49,168966,1,0
432,200,169536,2,0,B|432:280,1,50
432,304,169915,2,0,B|432:368,1,50,0|4
344,304,170485,6,0,B|280:304,2,50,2|0|2
344,200,171244,1,0
344,200,171434,2,0,B|200:200,2,100,2|2|0
344,96,172574,2,0,B|288:96,3,50,0|2|0|2
192,96,173523,6,0,B|128:96|64:160,1,100,2|0
48,216,174282,2,0,B|48:288,2,50,2|0|0
152,216,175042,2,0,B|264:216,1,100,0|2
352,216,175801,2,0,B|464:216,1,100,0|4
408,128,176561,6,0,B|304:80|192:136,1,200,0|2
128,168,177700,1,0
128,168,177890,2,0,B|72:200|80:256,2,100,2|2|0
176,256,179029,2,0,B|240:304,1,50,0|2
312,296,179599,5,0
272,208,179979,2,0,B|272:152|216:120,4,100,2|0|2|2|2
256,208,181877,12,4,185295
256,192,185675,6,0,B|256:296,1,100
352,328,186434,2,0,B|352:208,1,100,0|0
448,192,187194,2,0,B|448:304,1,100
448,192,187953,6,0,B|424:136|360:128,1,100
280,160,188713,2,0,B|224:152|184:104,1,100
120,48,189472,2,0,B|72:56|16:96,1,100
80,176,190232,6,0,B|56:232|80:288,1,100
168,232,190991,2,0,B|216:272|272:248,1,100
336,320,191751,2,0,B|376:288|368:224,1,100
368,128,192510,6,0,B|232:40|64:128,2,300
456,248,195358,5,0
456,248,195548,1,0
456,248,195738,2,0,B|456:320,4,50
387,160,196877,6,0,B|307:160|243:80,1,150,0|4
256,96,197827,2,0,B|200:96|160:144,1,100
167,135,198586,2,0,B|128:184|128:232,1,100
128,225,199346,2,0,B|128:288|144:328,1,100
142,323,200105,6,0,B|191:287|207:239,1,100
204,247,200865,2,0,B|232:192|232:144,1,100
231,151,201624,2,0,B|240:96|208:48,1,100
232,152,202384,6,0,B|336:152,1,100
304,248,203143,2,0,B|200:248,1,100
176,344,203903,2,0,B|288:344,4,100
120,264,205801,5,0
120,264,205991,1,0
120,264,206181,1,0
64,184,206561,6,0,B|64:72,1,100
160,48,207320,2,0,B|272:48,1,100
360,48,208080,2,0,B|464:48,1,100
456,152,208839,2,0,B|456:256,1,100,0|0
