osu file format v6

[General]
AudioFilename: DYE.mp3
AudioLeadIn: 0
PreviewTime: 13080
Countdown: 0
SampleSet: Normal
StackLeniency: 0.7
Mode: 0
LetterboxInBreaks: 0
UseSkinSprites: 1

[Editor]
DistanceSpacing: 1
BeatDivisor: 4
GridSize: 8

[Metadata]
Title:DYE
Artist:Megurine Luka
Creator:Shinxyn
Version:Hard
Source:AVTechNO
Tags:AVTechZO Vocaloid Vocaloid2

[Difficulty]
HPDrainRate:6
CircleSize:4
OverallDifficulty:8
SliderMultiplier:1.6
SliderTickRate:1

[Events]
//Background and Video events
0,0,"503.png"
//Break Periods
2,37963,41760
2,91318,94925
2,146001,157203
2,182267,183975
//Storyboard Layer 0 (Background)
//Storyboard Layer 1 (Fail)
//Storyboard Layer 2 (Pass)
//Storyboard Layer 3 (Foreground)
Sprite,Foreground,Centre,"hitcircle.png",384,352 F,0,208744,208839,0,0.5 S,0,208744,209219,0.63 C,0,208744,209219,255,119,204
Sprite,Foreground,Centre,"hitcircleoverlay.png",384,352 F,0,208744,208839,0,1 S,0,209219,,0.57
Sprite,Foreground,Centre,"approachcircle.png",384,352 F,0,208650,209219,0,0.375 S,0,208744,209219,2.08544,1.002926 C,0,208744,209219,255,119,204 S,0,209219,,1.002926
Sprite,Foreground,Centre,"hitcircle.png",256,351 F,0,208839,208934,0,0.5 C,0,208839,209219,255,119,204 S,0,209219,,0.63
Sprite,Foreground,Centre,"hitcircleoverlay.png",256,351 F,0,208839,208934,0,1 S,0,209219,,0.57
Sprite,Foreground,Centre,"default-8.png",256,351 F,0,208839,208934,0,1 S,0,209219,,0.45
Sprite,Foreground,Centre,"default-7.png",384,352 F,0,208744,208839,0,1 S,0,209219,,0.45
Sprite,Foreground,Centre,"approachcircle.png",256,351 C,0,208744,209219,255,119,204 F,0,208839,209219,0,0.25 S,0,208934,209219,2.08544,1.422766
//Storyboard Sound Samples
//Background Colour Transformations
3,100,0,0,0

[TimingPoints]
13650,379.746835443038,4,1,0,60,1,0
42320,-100,4,1,0,40,0,0
47447,-100,4,1,0,45,0,0
47827,-100,4,1,0,50,0,0
48206,-100,4,1,0,55,0,0
48586,-100,4,1,0,60,0,0
48776,-100,4,1,0,40,0,0
51624,-100,4,1,0,50,0,0
54757,-100,4,1,0,60,0,0
78871,-100,4,2,0,80,0,0
84947,-100,4,1,0,60,0,0
90168,-100,4,1,0,50,0,0
90548,-100,4,1,0,40,0,0
90928,-100,4,1,0,30,0,0
96055,-100,4,1,0,60,0,0
96624,-100,4,1,0,80,0,0
97004,-100,4,1,0,100,0,0
97384,-100,4,1,0,60,0,0
120738,-100,4,2,0,60,0,0
121308,-100,4,1,0,60,0,0
170295,-100,4,2,0,80,0,0
180643,-100,4,2,0,60,0,0
181403,-100,4,2,0,40,0,0
184536,-100,4,1,0,60,0,0
185295,-100,4,1,0,60,0,1
196687,-100,4,1,0,60,0,0
197447,-100,4,1,0,60,0,1
209219,-100,4,1,0,0,0,0

[Colours]
Combo1 : 249,0,6
Combo2 : 255,119,204
Combo3 : 168,112,169
Combo4 : 239,124,239

[HitObjects]
416,208,13080,1,0
336,184,13270,1,0
376,112,13460,1,4
376,112,13839,5,0
296,128,14029,1,0
256,48,14219,1,0
256,48,14599,5,0
216,128,14789,1,0
136,112,14979,1,0
136,112,15358,5,0
176,184,15548,1,0
96,208,15738,1,0
96,208,16118,5,0
160,248,16308,1,0
232,216,16498,1,0
232,216,16877,5,0
208,288,17067,1,0
136,312,17257,1,0
136,312,17637,5,0
208,344,17827,1,0
272,296,18017,1,0
272,296,18396,5,0
224,232,18586,1,0
144,240,18776,1,0
144,240,19156,5,0
224,232,19346,1,0
272,168,19536,1,0
272,168,19915,5,0
352,168,20105,1,0
400,232,20295,1,0
400,232,20675,5,0
352,168,20865,1,0
272,168,21055,1,0
224,232,21244,1,0
272,296,21434,1,0
352,296,21624,1,0
400,232,21814,1,0
400,232,22194,5,0
472,192,22384,1,0
512,120,22574,1,0
480,48,22763,1,0
400,32,22953,1,0
344,88,23143,1,0
352,168,23333,1,0
352,168,23713,5,0
296,224,23903,1,0
216,232,24093,1,0
144,192,24282,1,0
136,112,24472,1,0
192,56,24662,1,0
272,48,24852,1,0
416,112,25232,5,0
416,192,25422,1,0
416,272,25612,1,4
256,272,25991,5,0
256,192,26181,1,0
256,112,26371,1,0
96,112,26751,5,0
96,192,26941,1,0
96,272,27131,1,0
256,272,27510,5,0
336,272,27700,1,0
416,272,27890,1,0
416,112,28270,5,0
336,112,28460,1,0
256,112,28649,1,0
256,272,29029,5,0
176,272,29219,1,0
96,272,29409,1,0
96,112,29789,5,0
176,112,29979,1,0
256,112,30168,1,0
392,192,30548,5,0
336,248,30738,1,0
256,240,30928,1,0
120,192,31308,5,0
176,136,31498,1,0
256,152,31687,1,0
264,312,32067,5,0
192,272,32257,1,0
248,216,32447,1,0
232,296,32637,5,0
160,256,32827,1,0
216,200,33017,1,0
192,272,33206,5,0
120,232,33396,1,0
176,176,33586,1,0
160,256,33776,5,0
88,216,33966,1,0
144,160,34156,1,0
120,232,34346,5,0
48,192,34536,1,0
104,136,34725,1,0
248,72,35105,5,0
320,112,35295,1,0
264,168,35485,1,0
280,88,35675,5,0
352,128,35865,1,0
296,184,36055,1,0
320,112,36244,5,0
392,152,36434,1,0
336,208,36624,1,0
352,128,36814,5,0
424,168,37004,1,0
368,224,37194,1,0
392,152,37384,5,0
464,192,37574,1,0
408,248,37763,1,0
112,288,42510,6,0,B|80:320,2,40
136,216,42890,2,0,B|192:168,1,40
224,136,43175,2,0,B|272:120,1,40
336,144,43460,2,0,B|384:152|440:96,1,80
410,121,43744,1,0
488,128,43934,6,0,B|472:164,3,40
424,232,44409,1,0
360,280,44599,1,0
320,288,44694,1,0
280,288,44789,1,0
200,288,44979,1,0
120,288,45168,2,0,B|72:288,3,40
120,288,45548,6,0,B|120:360,2,40
120,208,45928,2,0,B|120:144,1,40
120,88,46213,2,0,B|120:32,1,40
200,48,46498,1,0
280,48,46687,1,0
360,48,46877,1,0
408,112,47067,5,0
400,120,47162,1,0
392,128,47257,1,0
384,136,47352,1,0
376,144,47447,1,0
368,152,47542,1,0
360,160,47637,1,0
352,168,47732,1,0
344,176,47827,1,0
352,184,47922,1,0
360,192,48017,1,0
368,200,48112,1,0
376,208,48206,1,0
384,216,48301,1,0
392,224,48396,1,0
400,232,48491,1,0
408,240,48586,1,0
256,312,48966,5,0
192,264,49156,1,0
128,216,49346,2,0,B|88:184|104:136,1,80
184,152,49725,2,0,B|192:104|144:72,1,80
80,64,50105,5,0
101,145,50295,1,0
156,81,50485,1,0
184,152,50675,2,0,B|168:200|216:240,1,80
272,256,51055,1,0
344,280,51244,1,0
344,104,52004,5,0
272,136,52194,1,0
336,184,52384,2,0,B|400:184|416:128,1,80
416,72,52763,2,0,B|400:32|344:24,1,80
280,56,53143,5,0
344,104,53333,1,0
272,136,53523,1,0
208,88,53713,2,0,B|160:80,2,40
200,168,54093,2,0,B|168:248,1,80,0|0
240,280,54472,2,0,B|272:192,1,80
344,176,54852,6,0,L|384:192|448:176,2,80
392,112,55422,2,0,L|352:96|304:104,1,80
240,128,55801,1,0
160,120,55991,1,0
88,152,56181,2,0,L|48:160|24:208,1,80
104,232,56561,2,0,L|104:336,1,80
104,312,56846,5,0
104,312,56941,1,0
240,224,57131,1,0
312,368,57320,1,0
464,312,57510,1,0
464,312,57700,1,0
464,232,57890,6,0,L|464:192|424:144,1,80
384,216,58270,2,0,L|360:184|320:168,1,80
240,168,58650,1,0
240,168,58744,1,0
240,168,58839,1,0
160,160,59029,6,0,B|72:144|48:48,1,160
128,56,59599,1,0
208,56,59789,2,0,B|186:143|97:162,1,160
128,320,60358,5,0
288,336,60548,1,0
224,184,60738,1,0
376,232,60928,6,0,L|416:208|424:152,1,80
344,152,61308,1,0
264,136,61498,2,0,L|272:96|320:72,1,80
344,152,61877,2,0,L|232:288,1,160
192,336,62447,5,0
128,192,62637,1,0
192,336,62827,2,0,L|304:200,1,160
392,88,63396,5,0
256,168,63586,1,0
120,88,63776,1,0
120,88,63966,6,0,L|196:116|272:183,1,160
256,248,64536,1,0
416,248,64915,1,0
256,248,65295,1,0
176,248,65485,5,0
56,248,65675,1,0
176,176,65865,1,0
56,176,66055,2,0,L|56:80,2,80
216,176,66814,5,0
256,104,67004,1,0
296,176,67194,2,0,L|320:144|352:184,1,80
400,240,67574,5,0
280,352,67763,1,0
168,240,67953,1,0
280,352,68143,1,0
315,280,68333,6,0,L|279:264|240:281,1,80,0|0
241,199,68713,2,0,L|278:182|314:198,1,80,0|0
320,120,69093,5,0
240,120,69282,1,0
280,48,69472,1,0
368,184,69662,1,0
192,184,69852,1,0
280,336,70232,5,0
192,184,70612,1,0
368,184,70991,1,0
280,48,71371,6,0,L|307:79|299:127,1,80
224,96,71751,2,0,L|184:80|144:96,1,80
80,128,72131,1,0
40,200,72320,2,0,L|64:232|120:248,1,80
141,252,72605,1,0
179,261,72700,1,0
280,192,72890,5,0
440,192,73270,1,0
360,56,73649,1,0
360,216,74029,2,0,L|360:320,2,80
280,80,74789,5,0
440,80,75168,1,0
360,216,75548,2,0,L|360:312,2,80
200,216,76308,5,0
120,72,76687,1,0
64,128,76877,1,0
64,208,77067,1,0
120,264,77257,2,0,L|176:296,2,40
200,128,77827,2,0,L|304:128,1,80
280,128,78112,1,0
384,64,78396,5,0
480,192,78586,1,0
384,320,78776,1,0
288,192,78966,6,0,B|256:224|192:208,1,80,0|0
136,192,79346,2,0,B|96:176|80:120,1,80,2|0
72,56,79725,2,0,B|128:56|160:112,1,80
200,144,80105,2,0,B|248:160|280:120,1,80,2|0
304,56,80485,6,0,B|352:88|344:144,1,80
344,121,80865,2,0,B|346:169|292:200,1,80,2|0
309,189,81244,2,0,B|272:200|256:256,1,80
258,247,81624,2,0,B|240:288|272:344,1,80,2|0
262,324,82004,6,0,B|296:232|211:186,1,160,0|2
215,188,82574,1,0
136,184,82763,1,2
136,184,82953,1,0
56,184,83143,6,0,B|56:264,1,80,0|0
136,264,83523,1,2
136,264,83713,1,0
136,184,83903,2,0,B|136:104,1,80
56,104,84282,5,2
216,104,84472,1,2
136,104,84662,5,2
296,104,84852,1,4
376,104,85042,5,4
376,264,85422,1,0
216,264,85801,1,0
56,264,86181,2,0,B|56:176,1,80
88,264,86561,2,0,B|88:168,1,80
88,184,86941,1,0
328,184,87320,6,0,B|248:184,2,80
168,184,87890,1,0
129,334,88080,6,0,B|168:264,2,80
168,184,88649,1,0
206,33,88839,6,0,B|168:104,2,80
168,184,89409,1,0
248,184,89599,1,0
408,184,89979,5,0
88,184,90358,1,0
480,184,90738,1,0
16,184,91118,1,0
256,208,95675,12,4,97194
480,352,97574,5,0
320,336,97953,1,0
240,328,98143,2,0,B|144:320,2,80
400,312,98903,5,0
349,249,99093,1,0
247,125,99472,1,0
247,125,99662,2,0,B|195:63,2,80
184,272,100422,5,0
246,221,100612,1,0
370,119,100991,1,0
432,68,101181,2,0,B|493:16,2,80
312,168,101941,1,0
152,192,102320,1,0
256,320,102700,5,0
312,168,102890,1,0
152,192,103080,1,0
216,48,103460,5,0
184,120,103649,1,0
264,104,103839,2,0,B|264:160|224:200,1,80
224,256,104219,2,0,B|264:240|320:272,1,80
352,328,104599,2,0,B|416:272|368:176|312:192,1,160
340,193,105168,1,0
184,192,105548,5,0
104,192,105738,1,0
144,120,105928,1,0
184,192,106118,2,0,B|168:256|120:288|48:248,1,160
24,192,106687,5,0
104,192,106877,2,0,B|120:104|200:104|240:136,1,160
264,192,107447,5,0
184,192,107637,2,0,B|192:264|256:288|312:256,1,160
344,192,108206,5,0
264,192,108396,2,0,B|280:120|336:104|392:128,1,160
424,192,108966,1,0
424,192,109156,1,0
224,320,109725,5,0
144,320,109915,1,0
184,248,110105,1,0
104,248,110295,2,0,B|56:232|40:184,1,80
104,136,110675,5,0
184,112,110865,1,0
264,136,111055,1,0
344,112,111244,2,0,B|464:112,2,80,0|0|0
328,192,111814,1,0
352,224,111909,1,0
360,264,112004,1,0
360,344,112194,1,0
152,344,112574,5,0
184,272,112763,1,0
136,208,112953,1,0
104,280,113143,5,0
184,272,113333,1,0
216,200,113523,1,0
136,208,113713,5,0
184,272,113903,1,0
264,264,114093,1,0
216,200,114282,5,0
184,272,114472,1,0
232,336,114662,1,0
264,264,114852,5,0
184,272,115042,1,0
152,344,115232,1,0
56,216,115612,5,0
88,144,115801,1,0
160,120,115991,2,0,B|192:96|240:96|280:120|320:88,1,160
384,56,116561,1,0
384,136,116751,2,0,B|408:168|408:216|384:256|416:296,1,160
344,336,117320,5,0
264,352,117510,2,0,B|224:368|168:352,2,80
288,272,118080,2,0,B|240:288|200:280,1,80
200,120,118649,5,0
272,152,118839,1,0
344,184,119029,1,0
344,184,119409,5,0
272,152,119599,1,0
200,120,119789,2,0,B|120:80,1,80
88,152,120168,2,0,B|184:200,1,80
232,224,120548,5,0
232,224,120928,1,0
232,224,121118,1,0
232,224,121498,5,4
432,56,121877,5,0
432,136,122067,1,0
400,208,122257,2,0,B|352:224|336:272,1,80
416,288,122637,2,0,B|464:272|480:224,1,80
80,328,123396,5,0
80,248,123586,1,0
112,176,123776,2,0,B|160:160|176:112,1,80
96,96,124156,2,0,B|48:112|32:160,2,80
170,126,124725,5,0
240,160,124915,2,0,B|216:200|152:224,1,80
184,296,125295,2,0,B|240:280|264:248,2,80
112,256,125865,5,0
112,256,126055,1,0
104,176,126244,1,0
104,176,126434,1,0
168,128,126624,2,0,B|200:160|256:160,1,80
168,128,127004,1,0
232,80,127194,2,0,B|272:104|336:72,1,80
472,80,127763,5,0
440,152,127953,1,0
472,224,128143,2,0,B|396:249|304:224,1,160
344,152,128713,5,0
312,80,128903,2,0,B|236:54|144:80,1,160
120,152,129472,5,0
152,224,129662,2,0,B|228:249|248:200,1,80
152,224,130042,1,0
72,208,130232,2,0,B|32:176|48:112,1,80
392,152,130801,5,0
320,112,130991,1,0
320,192,131181,2,0,B|341:235|416:240,1,80
456,208,131561,2,0,B|488:168|464:104,1,80
392,152,131941,1,0
120,152,132320,5,0
256,152,132510,1,0
392,152,132700,1,0
296,280,133080,5,0
256,280,133270,1,0
216,280,133460,1,0
256,352,133649,5,4
256,192,134029,5,0
216,120,134219,1,0
296,120,134409,1,0
336,192,134599,1,0
376,120,134789,1,0
336,48,134979,1,0
256,192,135358,5,0
296,120,135548,1,0
216,120,135738,2,0,B|176:168|168:224|232:280,1,160
296,264,136308,1,0
336,192,136498,2,0,B|328:141|290:100|205:123,1,160
176,56,137067,5,0
120,112,137257,1,0
176,56,137447,1,0
128,120,137637,1,0
176,56,137827,1,0
136,128,138017,1,0
64,272,138396,5,0
144,272,138586,1,0
64,272,138776,1,0
176,280,138966,1,0
64,272,139156,1,0
208,288,139346,1,0
64,272,139536,1,0
448,272,139915,6,0,B|448:168,1,80
448,272,140295,2,0,B|336:272,1,80
368,192,140675,6,0,B|272:192,1,80
368,192,141055,2,0,B|368:96,1,80
288,112,141434,6,0,B|192:112,1,80
288,112,141814,1,0
128,112,142194,6,0,B|240:112,1,80
128,112,142574,1,0
288,112,142953,6,0,B|384:112,1,80
288,112,143333,1,0
128,112,143713,6,0,B|32:112,1,80
128,112,144093,1,0
208,248,144472,1,0
368,248,144852,1,0
288,112,145232,5,0
208,248,145422,1,4
368,248,145612,1,0
288,200,145801,5,4
256,192,157953,5,4
416,192,158333,5,0
384,264,158523,1,0
320,312,158713,2,0,B|240:280|136:320,1,160
96,264,159282,2,0,B|136:176|96:88,1,160
176,80,159852,5,0
248,112,160042,1,0
320,144,160232,1,0
464,208,160612,1,0
248,112,161181,5,0
184,160,161371,1,0
120,208,161561,1,0
248,112,161941,5,0
256,192,162131,1,0
264,272,162320,1,0
248,112,162700,5,0
320,144,162890,1,0
392,176,163080,2,0,B|440:200|464:248,2,80
392,176,163555,1,0
392,176,163650,1,0
168,280,164219,5,0
128,208,164409,2,0,B|120:152|160:128,1,80
216,184,164789,2,0,B|272:160|296:104,1,80
240,64,165168,2,0,B|288:40|328:48,1,80
456,128,165738,5,0
360,256,165928,1,0
408,192,166118,5,0
312,320,166308,1,0
256,88,166687,5,0
256,248,166877,1,0
184,128,167067,5,0
328,208,167257,1,0
184,200,167447,5,0
328,128,167637,1,0
256,168,168017,5,0
256,168,168206,1,0
256,168,168396,1,0
256,248,168776,5,0
256,288,168966,1,0
256,328,169156,1,0
176,184,169536,6,0,B|168:128|208:104,1,80
336,184,169915,2,0,B|344:128|304:104,1,80,0|4
472,104,170485,5,2
456,184,170675,1,0
424,256,170865,2,0,B|400:304|336:304,1,80,2|0
280,312,171244,5,2
208,272,171434,2,0,B|160:240|112:240,1,80,0|0
56,224,171814,2,2,B|16:256|32:312,1,80,0|2
104,320,172194,2,0,B|144:352|192:344,1,80,0|0
208,272,172574,1,0
280,240,172763,5,2
376,112,172953,1,2
216,96,173143,1,2
280,240,173333,1,0
352,208,173523,6,0,B|328:160|272:160,1,80,2|0
216,192,173903,2,0,B|176:280|240:320|280:320,1,160,0|2
344,288,174472,2,0,B|432:224,1,80
472,192,174852,5,0
376,112,175042,1,2
288,192,175232,2,0,B|232:192|208:128,1,80,0|2
288,112,175612,5,0
288,272,175801,1,2
160,192,175991,1,2
32,112,176181,1,4
160,32,176371,1,0
88,192,176561,6,0,B|80:232|144:272,1,80,2|0
232,192,176941,2,0,B|240:224|192:264,1,80,0|0
160,192,177320,1,2
160,112,177510,6,0,B|169:86|206:69|208:40,1,80,0|2
160,112,177890,2,0,B|148:87|162:49|143:27,1,80,0|0
159,111,178270,2,0,B|134:102|117:65|87:63,1,80,0|2
160,112,178650,5,2
256,240,178839,1,2
408,200,179029,1,2
312,72,179219,1,2
280,160,179409,6,0,B|320:192|328:240,1,80
280,160,179789,2,0,B|240:128|248:64,1,80,0|2
280,160,180168,5,0
200,176,180358,1,2
256,240,180548,1,0
312,72,180738,5,2
160,112,180928,1,0
256,240,181118,1,2
408,200,181308,1,0
248,80,181498,5,2
216,184,181687,1,2
320,224,181877,1,2
360,120,182067,1,2
248,352,184725,5,0
280,272,184915,1,0
256,192,185105,1,0
99,225,185485,5,0
184,235,185675,1,0
256,192,185865,1,0
182,49,186244,5,0
195,134,186434,1,0
256,192,186624,1,0
374,84,187004,5,0
295,118,187194,1,0
256,192,187384,1,0
390,278,187763,5,0
337,211,187953,1,0
256,192,188143,1,0
256,192,188523,5,0
280,272,188713,1,0
248,352,188903,1,0
256,192,189282,5,0
195,134,189472,1,0
182,49,189662,1,0
256,192,190042,5,0
337,211,190232,1,0
390,278,190422,1,0
256,192,190801,5,0
176,216,190991,1,0
95,184,191181,1,0
256,192,191561,5,0
313,131,191751,1,0
398,118,191941,1,0
464,264,192320,5,0
416,200,192510,2,0,B|368:208|320:256,1,80
264,208,192890,2,0,B|264:160|224:128,1,80
264,64,193270,2,0,B|312:48|352:16,2,80
184,72,193839,6,0,B|112:72|80:96,1,80
232,136,194219,2,0,B|280:144|320:128,1,80
160,144,194599,2,0,B|112:152|80:184,1,80
200,208,194979,2,0,B|240:216|296:208,1,80
320,280,195358,6,0,B|376:208,1,80
320,280,195738,2,0,B|224:280,1,80
320,280,196118,2,0,B|384:360,1,80
424,280,196498,1,0
424,280,196687,1,0
424,112,196877,5,0
344,112,197067,2,0,B|256:112,2,80
424,112,197637,5,0
376,176,197827,1,0
296,176,198017,2,0,B|200:176|152:256,1,160
215,301,198586,1,0
160,245,198776,2,0,B|64:245|16:165,1,160,0|0
88,128,199346,5,0
160,96,199536,2,0,B|200:112|216:160,1,80
144,184,199915,5,0
88,128,200105,2,0,B|64:72|120:32,1,80
256,56,200675,5,0
312,112,200865,1,0
336,192,201055,1,0
336,32,201434,5,0
400,136,201624,1,0
400,256,201814,1,0
416,8,202194,5,0
488,152,202384,1,0
472,312,202574,1,0
112,256,202953,5,0
112,256,203143,1,0
112,256,203333,1,0
256,192,203713,6,0,B|296:208|288:272,1,80
208,258,204093,2,0,B|160:226|176:162,1,80
208,120,204472,2,0,B|264:96|320:128,1,80
352,160,204852,6,0,B|392:208|360:264,1,80
344,312,205232,2,0,B|296:344|240:336,2,80
416,272,205801,2,0,B|456:232|456:184,1,80
440,128,206181,5,0
384,72,206371,1,0
312,48,206561,1,0
232,40,206751,2,0,B|176:48|144:72,1,80
88,104,207131,2,0,B|48:144|32:192,1,80
32,248,207510,2,0,B|32:304|80:344,1,80
128,352,207890,1,0
208,360,208080,1,0
192,280,208270,5,0
128,216,208460,1,0
136,120,208650,1,0
216,56,208839,1,0
328,72,209029,1,0
392,176,209219,1,0
