osu file format v12

[General]
AudioFilename: Megurine Luka - Cry.mp3
AudioLeadIn: 0
PreviewTime: 74259
Countdown: 0
SampleSet: Normal
StackLeniency: 0.7
Mode: 0
LetterboxInBreaks: 1
WidescreenStoryboard: 1

[Editor]
Bookmarks: 132680
DistanceSpacing: 1.2
BeatDivisor: 4
GridSize: 8
TimelineZoom: 1

[Metadata]
Title:Cry
TitleUnicode:Cry
Artist:Megurine Luka
ArtistUnicode:Megurine Luka
Creator:Shimakazore
Version:Suicide
Source:
Tags:Aka Simon
BeatmapID:388258
BeatmapSetID:158781

[Difficulty]
HPDrainRate:7
CircleSize:5
OverallDifficulty:8
ApproachRate:9
SliderMultiplier:1.8
SliderTickRate:1

[Events]
//Background and Video events
0,0,"CRYPLZ.jpg",0,0
//Break Periods
2,48879,53764
2,57880,116606
2,119458,123869
2,125143,131448
2,140459,195396
//Storyboard Layer 0 (Background)
//Storyboard Layer 1 (Fail)
//Storyboard Layer 2 (Pass)
//Storyboard Layer 3 (Foreground)
//Storyboard Sound Samples
//Background Colour Transformations
3,100,163,162,255

[TimingPoints]
1312,315.789473684211,4,1,1,45,1,0
11417,-83.3333333333333,4,1,1,60,0,1
21443,-100,4,1,1,55,0,0
21522,-100,4,1,1,60,0,1
31627,-166.666666666667,4,1,1,50,0,0
32890,-100,4,1,1,50,0,0
34154,-90.9090909090909,4,1,1,55,0,1
34233,-100,4,1,1,80,0,0
74575,-100,4,1,1,80,0,1
84364,-100,4,1,1,80,0,0
84680,-100,4,1,1,80,0,1
94785,-142.857142857143,4,1,1,35,0,0
120048,-166.666666666667,4,1,1,35,0,0
125101,-142.857142857143,4,1,1,35,0,0
135206,-111.111111111111,4,1,1,40,0,0
155417,-100,4,1,1,80,0,1
165443,-100,4,1,1,80,0,0
165522,-100,4,1,1,80,0,1
185733,-100,4,1,1,80,0,0
204996,-100,4,1,1,5,0,0

[Colours]
Combo1 : 0,0,255
Combo2 : 255,0,0
Combo3 : 255,0,0
Combo4 : 0,0,255

[HitObjects]
200,136,1312,6,0,B|168:96|168:96|120:72,1,90,4|0,0:0|0:0,0:0:0:0:
136,184,1627,2,0,B|104:224|104:224|56:248,1,90,4|0,0:0|0:0,0:0:0:0:
152,280,1943,1,8,0:0:0:0:
240,224,2101,1,0,0:0:0:0:
240,224,2180,1,0,0:0:0:0:
240,224,2259,1,4,0:0:0:0:
296,128,2417,5,2,3:0:0:0:
384,176,2575,2,0,B|416:144|416:144|440:88,1,90,4|0,0:0|0:0,0:0:0:0:
424,224,2890,2,0,B|392:256|392:256|368:312,1,90,4|0,0:0|0:0,0:0:0:0:
328,192,3206,5,8,0:0:0:0:
309,178,3284,1,0,0:0:0:0:
290,166,3363,1,0,0:0:0:0:
271,155,3442,1,0,0:0:0:0:
250,146,3521,5,4,0:0:0:0:
229,137,3600,1,0,0:0:0:0:
208,131,3679,1,0,0:0:0:0:
186,126,3758,1,0,0:0:0:0:
164,122,3838,6,0,B|144:160|144:160|128:160|128:160|96:208,2,90,8|0|0,0:0|0:0|0:0,0:0:0:0:
256,80,4312,2,0,B|304:80|304:80|352:120,1,90,4|0,0:0|0:0,0:0:0:0:
264,168,4627,1,4,0:0:0:0:
160,200,4785,1,0,0:0:0:0:
160,200,4864,1,0,0:0:0:0:
160,200,4943,2,6,B|171:211|171:211|188:216|188:216|182:233|182:233|199:228|199:228|205:245|205:245|227:267,2,90,6|0|6,0:0|0:0|0:0,0:0:0:0:
160,88,5417,6,0,B|208:128|208:128|256:120,1,90,8|0,0:0|0:0,0:0:0:0:
304,224,5733,1,4,0:0:0:0:
368,128,5890,2,0,B|362:65|362:65|322:37,2,90,4|8|2,0:0|0:0|0:0,0:0:0:0:
408,240,6364,5,4,0:0:0:0:
408,240,6522,1,0,0:0:0:0:
312,288,6680,2,0,L|208:336,1,90,8|0,0:0|0:0,0:0:0:0:
128,280,6996,6,0,L|112:232,1,45,2|0,0:0|0:0,0:0:0:0:
168,232,7154,2,0,L|184:184,1,45,2|0,0:0|0:0,0:0:0:0:
128,184,7312,2,0,L|112:136,1,45,2|0,0:0|0:0,0:0:0:0:
168,136,7470,2,0,L|184:88,1,45,2|0,0:0|0:0,0:0:0:0:
136,64,7627,2,4,B|144:40|144:40|216:8|296:40,1,180,8|4,0:0|0:0,0:0:0:0:
232,128,8101,5,0,0:0:0:0:
328,176,8259,2,0,B|352:224|352:224|328:272,1,90,8|0,0:0|0:0,0:0:0:0:
240,312,8575,2,0,L|176:336,2,45
144,216,8890,6,8,L|208:216,2,45,8|2|4,0:0|0:0|0:0,0:0:0:0:
296,216,9206,1,4,0:0:0:0:
184,128,9364,1,2,0:0:0:0:
224,112,9443,1,0,0:0:0:0:
264,96,9522,2,0,B|264:72|264:72|352:40,1,90,8|0,0:0|0:0,0:0:0:0:
400,128,9838,5,8,0:0:0:0:
400,128,9917,1,0,0:0:0:0:
400,128,9996,1,0,0:0:0:0:
344,248,10154,1,8,0:0:0:0:
344,248,10233,1,0,0:0:0:0:
344,248,10312,1,0,0:0:0:0:
248,120,10469,6,0,L|256:64,2,45,8|2|0,0:0|0:0|0:0,0:0:0:0:
176,288,10785,1,0,0:0:0:0:
176,288,10864,1,0,0:0:0:0:
176,288,10943,1,0,0:0:0:0:
128,184,11101,5,6,0:0:0:0:
136,192,11417,2,0,B|152:128|152:128|188:107,1,107.999996704102,8|0,0:0|0:0,0:0:0:0:
256,192,11733,1,0,0:0:0:0:
376,192,11890,2,0,B|409:249|409:249|397:289,2,107.999996704102,4|10|4,0:0|0:0|0:0,0:0:0:0:
264,264,12364,5,0,0:0:0:0:
224,136,12522,1,0,0:0:0:0:
224,136,12601,1,0,0:0:0:0:
224,136,12680,2,0,P|168:120|104:136,1,107.999996704102,12|0,0:0|0:0,0:0:0:0:
119,255,12996,2,0,P|172:263|224:248,1,107.999996704102,4|0,0:0|0:0,0:0:0:0:
264,216,13233,5,0,0:0:0:0:
264,216,13312,2,0,B|296:160|296:160|344:144,2,107.999996704102,10|4|2,0:0|0:0|0:0,0:0:0:0:
160,272,13785,5,4,0:0:0:0:
72,192,13943,2,0,P|152:112|280:80,1,215.999993408203,8|0,0:0|0:0,0:0:0:0:
352,144,14417,1,4,0:0:0:0:
248,200,14575,2,0,P|208:240|144:255,2,107.999996704102,8|2|0,0:0|0:0|0:0,0:0:0:0:
312,112,15048,5,2,0:0:0:0:
408,160,15206,2,0,B|448:208|448:208|496:232,1,107.999996704102,8|0,0:0|0:0,0:0:0:0:
360,256,15522,2,0,B|320:208|320:208|272:184,1,107.999996704102,4|0,0:0|0:0,0:0:0:0:
152,192,15838,2,2,B|88:160|88:160|152:96|224:152,1,215.999993408203,8|2,0:0|0:0,0:0:0:0:
248,192,16312,5,0,0:0:0:0:
232,168,16390,1,0,0:0:0:0:
217,147,16469,2,0,B|240:96|240:96|328:144|384:48,1,215.999993408203,8|4,0:0|0:0,0:0:0:0:
384,192,16943,2,0,B|320:192|320:192|272:240,2,107.999996704102,2|8|2,0:0|0:0|0:0,0:0:0:0:
344,304,17417,2,0,B|312:328|312:328|216:328|184:224,2,215.999993408203,4|8|6,0:0|0:0|0:0,0:0:0:0:
288,232,18206,1,4,0:0:0:0:
184,208,18364,6,0,B|191:157|191:157|255:101,1,107.999996704102,8|2,0:0|0:0,0:0:0:0:
304,200,18680,1,2,0:0:0:0:
304,200,18838,1,4,0:0:0:0:
351,109,18996,2,2,B|399:77|399:77|415:125|415:125|407:141|407:141|416:168|416:168|440:208,2,161.999995056153,2|0|14,0:0|0:0|0:0,0:0:0:0:
256,56,19627,2,2,B|264:104|264:104|248:120|248:120|256:176,1,107.999996704102,10|2,0:0|0:0,0:0:0:0:
161,109,19943,2,2,B|113:77|113:77|97:125|97:125|105:141|105:141|97:197|97:197|64:232,2,215.999993408203,2|0|14,0:0|0:0|0:0,0:0:0:0:
256,160,20733,5,4,0:0:0:0:
168,280,20890,1,2,0:0:0:0:
168,280,20969,1,0,0:0:0:0:
168,280,21048,1,0,0:0:0:0:
344,280,21206,1,2,0:0:0:0:
344,280,21285,1,0,0:0:0:0:
344,280,21364,1,0,0:0:0:0:
392,192,21522,6,0,B|436:148|436:148|404:100|404:100|376:104|332:92,1,180,8|0,0:0|0:0,0:0:0:0:
256,140,21996,2,4,B|256:84|256:84|222:70|222:70|176:112|128:104,1,180
100,196,22469,2,0,B|160:232|160:232|144:292|192:344,1,180,0|8,0:0|0:0,0:0:0:0:
256,264,22943,1,4,0:0:0:0:
327,334,23101,2,0,B|368:292|352:232|352:232|412:196,1,180,0|8,0:0|0:0,0:0:0:0:
348,120,23575,5,4,0:0:0:0:
252,148,23733,2,0,B|264:120|264:120|232:104|216:76,1,90,2|0,0:0|0:0,0:0:0:0:
128,84,24048,2,0,P|84:120|60:188,1,90,8|0,0:0|0:0,0:0:0:0:
108,248,24364,1,4,0:0:0:0:
216,232,24522,2,0,P|260:196|284:128,2,90,0|8|0,0:0|0:0|0:0,0:0:0:0:
184,264,24917,5,0,0:0:0:0:
184,264,24996,2,0,B|216:320|216:320|248:296|280:304|280:304|304:324|336:320,1,180,0|8,0:0|0:0,0:0:0:0:
360,236,25469,2,0,B|360:196|360:196|356:188|356:188|360:180|360:180|360:124,1,90,0|4,0:0|0:0,0:0:0:0:
276,116,25785,1,0,0:0:0:0:
256,132,25864,1,0,0:0:0:0:
232,148,25943,2,0,B|208:164|208:164|192:184|192:232,1,90,8|0,0:0|0:0,0:0:0:0:
264,292,26259,5,4,0:0:0:0:
295,275,26337,1,0,0:0:0:0:
331,271,26416,1,2,0:0:0:0:
366,280,26495,1,0,0:0:0:0:
395,300,26575,2,0,P|432:256|392:144,1,180,8|2,0:0|0:0,0:0:0:0:
352,224,27048,2,0,B|296:224|296:224|256:288|188:288,1,180
204,197,27522,2,0,B|205:126|205:126|250:78|250:78|322:78,1,180,0|8,0:0|0:0,0:0:0:0:
293,159,27996,5,2,0:0:0:0:
350,216,28154,2,0,L|437:257,1,90,4|0,0:0|0:0,0:0:0:0:
328,286,28469,2,0,L|241:245,1,90,8|0,0:0|0:0,0:0:0:0:
152,280,28785,6,0,B|88:256|88:256|144:216|144:152,1,180,0|8,0:0|0:0,0:0:0:0:
160,136,29180,1,0,0:0:0:0:
187,112,29258,1,0,0:0:0:0:
219,97,29337,1,0,0:0:0:0:
255,91,29416,1,2,0:0:0:0:
290,95,29495,1,0,0:0:0:0:
323,109,29575,2,0,B|368:88|368:88|392:48,2,90,2|8|2,0:0|0:0|0:0,0:0:0:0:
240,168,30048,5,2,0:0:0:0:
231,202,30127,1,0,0:0:0:0:
235,238,30206,1,0,0:0:0:0:
247,272,30285,1,0,0:0:0:0:
269,301,30364,1,2,0:0:0:0:
297,323,30443,1,0,0:0:0:0:
330,336,30522,1,0,0:0:0:0:
365,340,30601,1,0,0:0:0:0:
401,335,30680,6,0,B|432:320|432:320|448:296|448:256,1,90,8|4,0:0|0:0,0:0:0:0:
384,192,30996,5,0,0:0:0:0:
373,211,31074,1,0,0:0:0:0:
363,231,31153,1,0,0:0:0:0:
352,251,31232,1,0,0:0:0:0:
342,271,31312,2,0,L|304:328,1,45,2|0,0:0|0:0,0:0:0:0:
280,344,31469,2,0,L|241:287,1,45,2|0,0:0|0:0,0:0:0:0:
200,312,31627,2,0,B|152:304|152:304|128:280|136:240,1,107.999996704102,8|4,0:0|0:0,0:0:0:0:
256,216,32259,5,0,0:0:0:0:
144,248,32733,5,0,0:0:0:0:
72,192,32890,1,4,0:0:0:0:
112,176,32969,1,0,0:0:0:0:
152,160,33048,2,4,L|216:152,1,45
248,272,33364,1,4,0:0:0:0:
291,269,33443,1,0,0:0:0:0:
334,267,33522,2,4,L|392:239,1,45
296,120,33838,5,4,0:0:0:0:
336,136,33917,1,0,0:0:0:0:
376,152,33996,1,2,0:0:0:0:
416,168,34075,1,0,0:0:0:0:
456,184,34154,6,0,B|392:256,1,90,8|0,0:0|0:0,0:0:0:0:
280,280,34469,2,0,B|339:212,1,90,8|0,0:0|0:0,0:0:0:0:
232,216,34785,2,0,L|136:176,1,90,8|0,0:0|0:0,0:0:0:0:
256,136,35101,2,0,L|339:170,1,90,8|0,0:0|0:0,0:0:0:0:
320,280,35417,5,8,0:0:0:0:
216,256,35575,1,0,0:0:0:0:
144,336,35733,1,8,0:0:0:0:
80,248,35890,1,0,0:0:0:0:
80,248,36048,2,0,B|80:200|80:200|120:168,2,90,8|4|8,0:0|0:0|0:0,0:0:0:0:
256,40,36680,6,0,L|288:128,1,90,8|0,0:0|0:0,0:0:0:0:
384,184,36996,2,0,L|353:99,1,90,8|0,0:0|0:0,0:0:0:0:
312,200,37312,2,0,L|344:288,2,90,8|2|8,0:0|0:0|0:0,0:0:0:0:
256,112,37785,1,4,0:0:0:0:
256,112,37943,2,8,B|200:144|200:144|152:112|88:120,1,180,8|8,0:0|0:0,0:0:0:0:
152,192,38417,1,4,0:0:0:0:
89,264,38575,2,8,B|152:272|200:240|200:240|256:272,1,180,8|8,0:0|0:0,0:0:0:0:
328,320,39048,5,4,0:0:0:0:
368,336,39127,1,0,0:0:0:0:
408,352,39206,2,0,B|432:312|432:312|432:256,1,90,8|0,0:0|0:0,0:0:0:0:
360,192,39522,2,0,B|348:146|348:146|318:116,1,90,8|0,0:0|0:0,2:0:0:0:
208,128,39838,2,0,B|167:104|167:104|124:104,2,90,8|2|8,0:0|0:0|0:0,0:0:0:0:
424,264,40469,6,8,B|392:296|352:288|352:288|320:248|248:240,1,180
344,152,40943,1,2,0:0:0:0:
312,136,41022,1,0,0:0:0:0:
280,120,41101,2,8,B|272:176|208:192|208:192|264:240,1,180
208,120,41575,1,4,0:0:0:0:
104,144,41733,6,8,B|96:160|96:160|136:304|136:304|112:336,1,180
208,272,42206,1,4,0:0:0:0:
256,192,42364,2,0,B|304:232|304:232|320:272,1,90,8|0,0:0|0:0,0:0:0:0:
408,280,42680,1,8,0:0:0:0:
448,192,42838,6,0,L|360:152,1,90,0|8,0:0|0:0,0:0:0:0:
240,176,43154,2,0,L|321:213,1,90,0|8,0:0|0:0,0:0:0:0:
232,256,43469,1,4,0:0:0:0:
152,192,43627,5,8,0:0:0:0:
152,176,43706,1,0,0:0:0:0:
152,160,43785,1,2,0:0:0:0:
152,144,43864,1,0,0:0:0:0:
152,128,43943,1,8,0:0:0:0:
152,112,44022,1,0,0:0:0:0:
152,96,44101,1,2,0:0:0:0:
152,80,44180,1,0,0:0:0:0:
152,64,44259,6,8,B|200:64|200:64|256:120|224:192,2,180
280,160,48048,6,8,B|312:144|336:120|336:120|352:152|376:168|376:168|352:200|360:248,2,180
136,128,54364,5,4,0:0:0:0:
141,149,54442,1,0,0:0:0:0:
147,171,54521,1,0,0:0:0:0:
153,193,54600,1,0,0:0:0:0:
159,214,54679,5,0,0:0:0:0:
165,236,54758,1,0,0:0:0:0:
171,258,54837,1,0,0:0:0:0:
177,279,54916,1,0,0:0:0:0:
184,304,54995,5,8,0:0:0:0:
288,240,55154,1,4,0:0:0:0:
431,244,55627,5,4,0:0:0:0:
409,233,55705,1,0,0:0:0:0:
389,222,55784,1,0,0:0:0:0:
367,210,55863,1,0,0:0:0:0:
345,199,55942,5,0,0:0:0:0:
323,186,56021,1,0,0:0:0:0:
301,175,56100,1,0,0:0:0:0:
279,163,56179,1,0,0:0:0:0:
257,152,56258,5,8,0:0:0:0:
168,192,56417,1,4,0:0:0:0:
248,272,56575,1,2,0:0:0:0:
144,288,56733,1,4,0:0:0:0:
64,216,56890,5,4,0:0:0:0:
85,208,56968,1,0,0:0:0:0:
106,201,57047,1,0,0:0:0:0:
127,193,57126,1,0,0:0:0:0:
148,186,57205,5,0,0:0:0:0:
170,178,57284,1,0,0:0:0:0:
191,171,57363,1,0,0:0:0:0:
212,164,57442,1,0,0:0:0:0:
236,155,57521,5,8,0:0:0:0:
168,80,57680,1,4,0:0:0:0:
144,160,117206,5,0,0:0:0:0:
144,160,117285,1,0,0:0:0:0:
144,160,117364,1,0,0:0:0:0:
144,160,117443,1,0,0:0:0:0:
144,160,117522,1,2,0:0:0:0:
128,192,118469,6,0,P|160:232|208:248,1,94.499997116089
232,232,118785,2,0,B|232:200|232:200|240:168|240:168|240:120,2,94.499997116089,0|2|4,0:0|0:0|0:0,0:0:0:0:
368,144,124469,5,4,0:0:0:0:
344,200,124627,1,0,0:0:0:0:
256,168,124785,1,4,0:0:0:0:
208,280,124943,1,0,0:0:0:0:
168,240,132048,5,0,0:0:0:0:
175,241,132127,1,0,0:0:0:0:
183,243,132206,1,0,0:0:0:0:
191,244,132285,1,0,0:0:0:0:
199,246,132364,1,2,0:0:0:0:
144,168,132522,1,4,0:0:0:0:
248,128,132680,1,2,0:0:0:0:
256,192,133312,12,8,135206,0:0:0:0:
256,192,135522,5,8,0:0:0:0:
256,352,135838,2,0,B|256:328|256:328|264:320|264:320|248:320|248:320|256:312|256:312|256:176,1,161.999995056153,4|0,0:0|0:0,0:0:0:0:
200,232,136469,5,8,0:0:0:0:
312,232,136785,1,8,0:0:0:0:
256,352,137101,2,0,B|256:328|256:328|260:320|260:320|252:320|252:320|256:312|256:312|256:176,1,161.999995056153,4|0,0:0|0:0,0:0:0:0:
172,252,137733,5,8,0:0:0:0:
340,252,138049,1,8,0:0:0:0:
256,352,138364,2,0,L|256:176,1,161.999995056153,4|0,0:0|0:0,0:0:0:0:
144,272,138996,5,8,0:0:0:0:
368,272,139312,1,8,0:0:0:0:
256,120,139627,5,0,0:0:0:0:
256,120,139706,1,0,0:0:0:0:
256,120,139785,1,0,0:0:0:0:
256,120,139864,1,0,0:0:0:0:
256,120,139943,5,0,0:0:0:0:
256,120,140022,1,0,0:0:0:0:
256,120,140101,1,0,0:0:0:0:
256,120,140180,1,0,0:0:0:0:
256,120,140259,5,0,0:0:0:0:
256,192,195996,12,0,204996,0:0:0:0:
