osu file format v12

[General]
AudioFilename: Megurine Luka - Cry.mp3
AudioLeadIn: 0
PreviewTime: 74259
Countdown: 0
SampleSet: Normal
StackLeniency: 0.7
Mode: 0
LetterboxInBreaks: 1
WidescreenStoryboard: 1

[Editor]
Bookmarks: 132680
DistanceSpacing: 1
BeatDivisor: 4
GridSize: 8
TimelineZoom: 1

[Metadata]
Title:Cry
TitleUnicode:Cry
Artist:Megurine Luka
ArtistUnicode:Megurine Luka
Creator:Shimakazore
Version:Midana style
Source:
Tags:Aka Simon
BeatmapID:388256
BeatmapSetID:158781

[Difficulty]
HPDrainRate:5
CircleSize:4
OverallDifficulty:8
ApproachRate:9
SliderMultiplier:1.8
SliderTickRate:1

[Events]
//Background and Video events
0,0,"CRYPLZ.jpg",0,0
//Break Periods
2,64511,73659
//Storyboard Layer 0 (Background)
//Storyboard Layer 1 (Fail)
//Storyboard Layer 2 (Pass)
//Storyboard Layer 3 (Foreground)
//Storyboard Sound Samples
//Background Colour Transformations
3,100,163,162,255

[TimingPoints]
1312,315.789473684211,4,1,1,45,1,0
11417,-83.3333333333333,4,1,1,60,0,1
16469,-83.3333333333333,4,1,1,60,0,0
21443,-100,4,1,1,55,0,0
21522,-100,4,1,1,60,0,1
26733,-100,4,1,1,60,0,0
31627,-166.666666666667,4,1,1,50,0,0
32890,-100,4,1,1,50,0,0
34154,-90.9090909090909,4,1,1,55,0,1
34233,-100,4,1,1,80,0,0
34469,-66.6666666666667,4,1,1,60,0,0
52785,-100,4,1,1,60,0,0
55154,-100,4,1,1,60,0,0
55943,-66.6666666666667,4,1,1,60,0,0
61154,-100,4,1,1,60,0,0
62575,-66.6666666666667,4,1,1,60,0,0
74259,-66.6666666666667,4,1,1,80,0,1
79627,-100,4,1,1,80,0,1
80259,-100,4,1,1,80,0,0
84364,-100,4,1,1,80,0,0
84680,-66.6666666666667,4,1,1,80,0,1
89733,-100,4,1,1,80,0,0
94785,-142.857142857143,4,1,1,35,0,0
120048,-166.666666666667,4,1,1,35,0,0
125101,-142.857142857143,4,1,1,35,0,0
135206,-111.111111111111,4,1,1,40,0,1
145312,-100,4,1,1,40,0,1
150996,-100,4,1,1,40,0,0
155417,-66.6666666666667,4,1,1,80,0,1
160627,-100,4,1,1,80,0,0
165443,-100,4,1,1,80,0,0
165522,-66.6666666666667,4,1,1,80,0,1
170575,-100,4,1,1,80,0,0
175621,-142.857142857143,4,1,1,80,0,1
185733,-125,4,1,1,80,0,0
204996,-100,4,1,1,5,0,0

[Colours]
Combo1 : 0,0,255
Combo2 : 255,0,0
Combo3 : 255,0,0
Combo4 : 0,0,255

[HitObjects]
208,160,1312,6,0,B|176:112|128:120|128:120|120:80|192:64,1,180
272,56,1785,1,0,0:0:0:0:
360,96,1943,1,0,0:0:0:0:
392,128,2022,1,0,0:0:0:0:
424,160,2101,1,0,0:0:0:0:
352,256,2259,5,0,0:0:0:0:
248,312,2417,1,0,0:0:0:0:
152,264,2575,1,0,0:0:0:0:
112,160,2733,2,0,B|144:120|192:120|224:136,1,90
400,224,3048,2,0,B|368:264|320:264|288:248,1,90
256,352,3364,1,0,0:0:0:0:
256,32,3522,5,0,0:0:0:0:
256,72,3601,1,0,0:0:0:0:
256,112,3680,1,0,0:0:0:0:
256,152,3759,1,0,0:0:0:0:
256,192,3838,1,0,0:0:0:0:
328,304,3996,6,0,P|360:272|368:216,1,90
320,128,4312,2,0,P|376:104|416:120,2,90
184,112,4785,1,0,0:0:0:0:
96,40,4943,1,0,0:0:0:0:
64,152,5101,1,0,0:0:0:0:
120,272,5259,5,0,0:0:0:0:
120,272,5338,1,0,0:0:0:0:
120,272,5417,1,0,0:0:0:0:
232,304,5575,2,0,P|296:296|352:288,1,90
408,208,5890,5,0,0:0:0:0:
376,192,5969,1,0,0:0:0:0:
344,176,6048,1,0,0:0:0:0:
312,160,6127,1,0,0:0:0:0:
272,144,6206,1,0,0:0:0:0:
184,112,6364,1,0,0:0:0:0:
64,152,6522,5,0,0:0:0:0:
104,64,6680,1,0,0:0:0:0:
216,56,6838,1,0,0:0:0:0:
304,80,6996,2,0,P|360:80|400:112,1,90
424,168,7312,2,0,P|368:168|328:136,1,90
240,184,7627,5,0,0:0:0:0:
144,240,7785,1,0,0:0:0:0:
88,136,7943,1,0,0:0:0:0:
88,136,8022,1,0,0:0:0:0:
88,136,8101,1,0,0:0:0:0:
184,96,8259,5,0,0:0:0:0:
312,48,8417,1,0,0:0:0:0:
328,288,8575,1,0,0:0:0:0:
200,336,8733,1,0,0:0:0:0:
72,272,8890,1,0,0:0:0:0:
72,272,8969,1,0,0:0:0:0:
72,272,9048,1,0,0:0:0:0:
168,208,9206,5,0,0:0:0:0:
112,72,9364,1,0,0:0:0:0:
144,96,9443,1,0,0:0:0:0:
176,128,9522,1,0,0:0:0:0:
248,184,9680,1,0,0:0:0:0:
376,208,9838,6,0,B|440:176|440:96|368:72,1,180
272,96,10312,1,0,0:0:0:0:
176,32,10469,1,0,0:0:0:0:
88,112,10627,1,0,0:0:0:0:
240,288,10785,1,0,0:0:0:0:
336,352,10942,1,0,0:0:0:0:
424,272,11100,1,0,0:0:0:0:
256,40,11259,5,0,0:0:0:0:
256,148,11417,2,0,L|256:36,2,107.999996704102
168,232,11890,1,0,0:0:0:0:
72,184,12048,2,0,P|80:128|136:96,1,107.999996704102
440,200,12364,2,0,P|432:256|376:288,1,107.999996704102
296,280,12680,1,0,0:0:0:0:
288,184,12838,5,0,0:0:0:0:
384,144,12996,1,0,0:0:0:0:
424,224,13154,2,0,L|328:280,1,107.999996704102
88,160,13469,2,0,L|184:104,1,107.999996704102
256,64,13785,5,0,0:0:0:0:
256,192,13943,1,0,0:0:0:0:
256,320,14101,1,0,0:0:0:0:
176,248,14259,6,0,P|136:200|152:160,1,107.999996704102
336,136,14575,2,0,P|376:184|360:224,1,107.999996704102
112,280,14890,2,0,P|72:232|88:192,1,107.999996704102
400,104,15206,2,0,P|440:152|424:192,1,107.999996704102
256,320,15522,5,0,0:0:0:0:
256,192,15680,1,0,0:0:0:0:
256,64,15838,1,0,0:0:0:0:
152,224,15996,5,0,0:0:0:0:
256,64,16154,1,0,0:0:0:0:
360,224,16312,1,0,0:0:0:0:
204,208,16469,5,0,0:0:0:0:
256,127,16627,1,0,0:0:0:0:
308,208,16785,1,0,0:0:0:0:
192,112,16943,6,0,P|128:88|80:96,1,107.999996704102
320,272,17259,2,0,P|384:296|432:288,1,107.999996704102
416,136,17575,1,0,0:0:0:0:
308,208,17733,1,0,0:0:0:0:
160,224,17890,1,0,0:0:0:0:
80,320,18048,6,0,L|80:208,1,107.999996704102
80,112,18364,2,0,L|160:192,1,107.999996704102
264,280,18680,2,0,L|144:280,1,107.999996704102
72,208,18996,1,0,0:0:0:0:
208,200,19154,1,0,0:0:0:0:
216,64,19312,1,0,0:0:0:0:
440,176,19469,5,0,0:0:0:0:
304,184,19627,1,0,0:0:0:0:
296,320,19785,1,0,0:0:0:0:
144,232,19943,2,0,P|168:184|136:144,1,107.999996704102
368,152,20259,2,0,P|344:200|376:240,1,107.999996704102
96,104,20575,5,0,0:0:0:0:
224,168,20733,1,0,0:0:0:0:
264,192,20812,1,0,0:0:0:0:
312,184,20890,1,0,0:0:0:0:
384,88,21048,1,0,0:0:0:0:
192,72,21206,5,0,0:0:0:0:
160,104,21285,1,0,0:0:0:0:
152,152,21364,1,0,0:0:0:0:
168,192,21443,1,0,0:0:0:0:
200,216,21522,1,0,0:0:0:0:
416,232,21680,6,0,P|352:248|312:240,1,90
248,176,21996,2,0,P|312:160|352:168,1,90
384,88,22312,5,0,0:0:0:0:
128,296,22469,5,0,0:0:0:0:
256,56,22627,5,0,0:0:0:0:
376,280,22785,5,0,0:0:0:0:
64,216,22943,6,0,P|40:152|72:112,1,90
136,64,23259,1,0,0:0:0:0:
224,144,23417,2,0,L|352:144,1,90
376,64,23733,1,0,0:0:0:0:
465,135,23890,2,0,P|472:179|448:216,1,90
184,280,24206,6,0,L|184:168,1,90
328,280,24522,2,0,L|328:190,1,90
184,280,24838,1,0,0:0:0:0:
328,190,24996,1,0,0:0:0:0:
184,104,25154,1,0,0:0:0:0:
351,189,25312,5,0,0:0:0:0:
160,308,25469,1,0,0:0:0:0:
160,75,25627,1,0,0:0:0:0:
351,189,25785,6,2,L|288:264,1,90
256,320,26101,1,0,0:0:0:0:
256,280,26180,1,0,0:0:0:0:
256,240,26259,1,0,0:0:0:0:
256,200,26338,1,0,0:0:0:0:
256,160,26417,1,0,0:0:0:0:
256,120,26496,1,0,0:0:0:0:
256,80,26575,1,0,0:0:0:0:
88,192,26733,6,0,P|112:232|160:248,2,90
152,248,27206,1,0,0:0:0:0:
256,280,27364,1,0,0:0:0:0:
361,247,27522,1,0,0:0:0:0:
424,192,27680,2,0,P|400:232|352:248,2,90
256,80,28154,5,0,0:0:0:0:
256,192,28312,1,0,0:0:0:0:
256,304,28469,1,0,0:0:0:0:
120,192,28627,2,0,P|136:240|184:272,1,90
392,192,28943,2,0,P|376:144|328:112,1,90
168,80,29259,5,0,0:0:0:0:
136,104,29338,1,0,0:0:0:0:
104,80,29417,1,0,0:0:0:0:
344,304,29575,5,0,0:0:0:0:
376,280,29654,1,0,0:0:0:0:
408,304,29733,1,0,0:0:0:0:
256,304,29890,5,0,0:0:0:0:
256,192,30048,1,0,0:0:0:0:
256,80,30205,1,0,0:0:0:0:
120,192,30364,5,0,0:0:0:0:
152,224,30443,1,0,0:0:0:0:
184,248,30522,2,0,L|240:288,1,45
392,192,30680,5,0,0:0:0:0:
360,160,30759,1,0,0:0:0:0:
328,136,30838,2,0,L|272:96,1,45
256,80,30996,5,0,0:0:0:0:
152,112,31154,1,8,0:0:0:0:
104,144,31233,1,8,0:0:0:0:
152,168,31312,1,8,0:0:0:0:
104,192,31390,1,8,0:0:0:0:
152,216,31469,1,8,0:0:0:0:
104,240,31548,1,8,0:0:0:0:
152,264,31627,1,8,0:0:0:0:
256,192,31785,12,0,32890,0:0:0:0:
152,96,33048,5,0,0:0:0:0:
184,120,33127,1,0,0:0:0:0:
216,144,33206,1,0,0:0:0:0:
168,208,33364,1,0,0:0:0:0:
200,232,33443,1,0,0:0:0:0:
232,256,33522,1,0,0:0:0:0:
336,304,33680,6,0,L|400:240,1,90
432,144,33996,1,0,0:0:0:0:
392,144,34075,1,0,0:0:0:0:
344,144,34154,1,0,0:0:0:0:
80,112,34469,6,0,L|224:112,1,135.000005149842
432,272,34785,2,0,L|288:272,1,135.000005149842
215,112,35101,1,0,0:0:0:0:
297,272,35259,1,0,0:0:0:0:
112,176,35417,2,0,B|128:168|128:168|128:192|128:192|168:184|168:184|184:200|232:176|232:176|248:192|248:192|296:160|360:184,1,270.000010299683
144,56,35890,6,0,B|200:80|200:80|256:72|288:120|288:120|328:136,2,202.500007724762
256,336,36996,2,0,L|384:248,1,135.000005149842
128,160,37312,2,0,L|272:160,1,135.000005149842
392,56,37627,1,0,0:0:0:0:
176,272,37785,1,0,0:0:0:0:
256,64,37943,2,0,B|272:88|272:88|240:128|240:128|272:160|272:160|264:200|264:200|320:192|352:256,1,270.000010299683
368,328,38417,2,0,B|312:304|312:304|256:312|224:264|224:264|184:248,2,202.500007724762
168,240,39364,5,0,0:0:0:0:
344,144,39522,1,0,0:0:0:0:
88,144,39680,5,0,0:0:0:0:
424,240,39838,1,0,0:0:0:0:
40,240,39996,5,0,0:0:0:0:
472,144,40154,1,0,0:0:0:0:
128,328,40312,5,0,0:0:0:0:
384,56,40469,1,0,0:0:0:0:
256,192,40785,12,0,41417,0:0:0:0:
96,168,41733,6,0,B|144:192|144:192|184:168|232:192|232:192|280:160|352:192,1,270.000010299683
216,104,42206,2,0,P|304:80|344:96,2,135.000005149842
392,304,42838,2,0,B|376:272|376:272|344:280|344:280|320:248|272:256|272:256|248:240|248:240|200:248|168:192,2,270.000010299683
408,136,43785,5,0,0:0:0:0:
360,112,43864,1,0,0:0:0:0:
304,96,43943,1,0,0:0:0:0:
256,80,44022,1,0,0:0:0:0:
208,96,44101,1,0,0:0:0:0:
152,112,44180,1,0,0:0:0:0:
104,128,44259,1,0,0:0:0:0:
104,208,44575,6,0,P|144:272|200:288,1,135.000005149842
408,176,44890,2,0,P|368:112|312:96,1,135.000005149842
160,224,45206,1,0,0:0:0:0:
352,160,45364,1,0,0:0:0:0:
112,320,45522,1,0,0:0:0:0:
400,64,45680,1,0,0:0:0:0:
256,192,45838,12,0,46627,0:0:0:0:
120,104,47101,6,0,P|144:168|208:192,1,135.000005149842
392,280,47417,2,0,P|368:216|304:192,1,135.000005149842
184,288,47733,1,0,0:0:0:0:
328,96,47890,1,0,0:0:0:0:
416,216,48048,2,0,B|360:208|360:208|304:192|256:224|256:224|208:184|152:200,1,270.000010299683
144,56,48522,6,0,B|200:80|200:80|256:72|288:120|288:120|328:136,2,202.500007724762
104,152,49627,6,0,B|128:136|128:136|144:160|144:160|184:144|184:144|208:160|208:160|264:168|288:144,2,202.500007724762
347,286,50259,2,0,P|405:256|416:192,1,135.000005149842
164,286,50575,2,0,P|106:256|96:192,1,135.000005149842
328,128,50890,1,0,0:0:0:0:
184,256,51048,1,0,0:0:0:0:
96,96,51206,6,0,P|152:160|208:184,1,135.000005149842
352,232,51522,2,0,L|352:88,1,135.000005149842
240,80,51838,2,0,B|208:96|208:96|224:120|224:120|144:176|184:256|184:256|128:320,2,270.000010299683
120,72,52785,5,0,0:0:0:0:
160,72,52864,1,0,0:0:0:0:
200,72,52943,1,0,0:0:0:0:
240,72,53022,1,0,0:0:0:0:
280,72,53101,1,2,0:0:0:0:
320,72,53180,1,2,0:0:0:0:
360,72,53259,1,2,0:0:0:0:
80,296,53417,5,0,0:0:0:0:
80,240,53496,1,0,0:0:0:0:
80,184,53575,1,0,0:0:0:0:
80,128,53654,1,0,0:0:0:0:
80,72,53733,2,0,L|224:72,1,135.000005149842
392,120,54048,5,0,0:0:0:0:
392,120,54127,1,0,0:0:0:0:
392,120,54206,1,0,0:0:0:0:
392,120,54285,1,0,0:0:0:0:
392,120,54364,2,0,B|344:152|344:152|344:192|344:192|296:216,1,135.000005149842
176,280,54680,5,0,0:0:0:0:
256,192,54838,1,0,0:0:0:0:
336,104,54996,1,0,0:0:0:0:
120,72,55154,2,0,B|136:96|136:96|128:120|128:120|160:152|160:152|152:192|224:208,1,180
408,296,55627,5,0,0:0:0:0:
408,296,55706,1,0,0:0:0:0:
408,296,55785,1,0,0:0:0:0:
408,296,55864,1,0,0:0:0:0:
408,296,55943,2,0,B|312:288|384:248|280:224,1,135.000005149842
176,128,56259,1,0,0:0:0:0:
304,72,56417,5,0,0:0:0:0:
304,72,56496,1,0,0:0:0:0:
304,72,56575,1,0,0:0:0:0:
416,160,56733,1,0,0:0:0:0:
184,304,56890,5,0,0:0:0:0:
232,280,56969,1,0,0:0:0:0:
280,256,57048,1,0,0:0:0:0:
328,232,57127,1,0,0:0:0:0:
376,208,57206,1,0,0:0:0:0:
352,168,57285,1,0,0:0:0:0:
320,128,57364,1,0,0:0:0:0:
288,88,57443,1,0,0:0:0:0:
256,56,57522,2,0,B|176:64|168:144|240:144|80:216|80:80,1,270.000010299683
56,264,58154,5,0,0:0:0:0:
88,232,58233,1,0,0:0:0:0:
120,200,58312,1,0,0:0:0:0:
384,48,58469,1,0,0:0:0:0:
384,96,58548,5,0,0:0:0:0:
384,144,58627,1,0,0:0:0:0:
384,192,58706,1,0,0:0:0:0:
384,240,58785,2,0,L|288:336,1,135.000005149842
168,280,59101,1,0,0:0:0:0:
72,192,59259,1,0,0:0:0:0:
248,72,59417,5,0,0:0:0:0:
200,72,59496,1,0,0:0:0:0:
152,72,59575,1,0,0:0:0:0:
104,72,59654,1,0,0:0:0:0:
56,72,59733,1,0,0:0:0:0:
136,200,59890,6,0,P|168:256|248:272,1,135.000005149842
376,184,60206,2,0,P|344:128|264:112,1,135.000005149842
168,280,60680,5,0,0:0:0:0:
208,304,60759,1,0,0:0:0:0:
256,320,60838,1,0,0:0:0:0:
304,304,60917,1,0,0:0:0:0:
344,280,60996,1,0,0:0:0:0:
416,192,61154,6,0,L|336:128,1,90
256,88,61469,1,0,0:0:0:0:
256,88,61627,1,0,0:0:0:0:
166,135,61785,2,0,L|96:192,1,90
88,304,62101,5,0,0:0:0:0:
128,304,62180,1,0,0:0:0:0:
168,304,62259,1,0,0:0:0:0:
208,304,62338,1,0,0:0:0:0:
248,304,62417,1,0,0:0:0:0:
352,304,62575,2,0,P|416:272|416:208,2,135.000005149842
256,192,63048,5,0,0:0:0:0:
160,80,63206,2,0,P|96:112|96:176,2,135.000005149842
360,72,63680,1,0,0:0:0:0:
360,136,63759,1,0,0:0:0:0:
360,200,63838,1,0,0:0:0:0:
360,264,63917,1,0,0:0:0:0:
360,328,63996,2,0,B|304:312|304:312|248:344|216:320,2,135.000005149842
296,80,74259,6,0,P|368:88|432:136,1,135.000005149842
216,304,74575,2,0,P|144:296|80:248,1,135.000005149842
112,88,74890,1,0,0:0:0:0:
256,88,75048,1,0,0:0:0:0:
400,88,75206,1,0,0:0:0:0:
400,192,75364,6,2,B|375:230|400:256|400:256|344:304,1,135.000005149842
161,298,75680,2,2,B|112:256|112:256|136:230|112:192,1,135.000005149842
256,88,75996,1,0,0:0:0:0:
256,192,76154,1,0,0:0:0:0:
256,296,76312,1,0,0:0:0:0:
144,192,76469,5,0,0:0:0:0:
256,88,76627,1,0,0:0:0:0:
368,192,76785,1,0,0:0:0:0:
68,215,76943,5,0,0:0:0:0:
256,41,77101,1,0,0:0:0:0:
443,215,77259,1,0,0:0:0:0:
129,315,77417,6,0,B|201:283|201:283|256:296,1,135.000005149842
432,176,77733,2,0,B|377:163|377:163|305:195,1,135.000005149842
56,80,78048,2,2,B|96:144|144:144|144:144|128:104,1,135.000005149842
256,192,78364,1,0,0:0:0:0:
456,80,78522,2,2,B|416:144|368:144|368:144|375:124,1,135.000005149842
320,288,78838,5,0,0:0:0:0:
192,96,78996,1,0,0:0:0:0:
424,240,79154,1,0,0:0:0:0:
88,144,79312,1,0,0:0:0:0:
256,48,79469,5,0,0:0:0:0:
256,96,79548,1,0,0:0:0:0:
256,128,79627,2,2,B|248:184|304:224|256:256|256:256|216:224,2,180
392,88,80575,1,0,0:0:0:0:
120,296,80890,1,0,0:0:0:0:
160,88,81206,6,0,B|216:56|280:56|336:88,1,180
160,88,81680,1,0,0:0:0:0:
332,85,81838,1,0,0:0:0:0:
332,298,82154,6,0,B|280:328|216:328|160:296,1,180
332,298,82627,1,0,0:0:0:0:
160,296,82785,1,0,0:0:0:0:
88,192,83101,6,0,B|152:200|200:128|264:144,1,180
392,72,83733,2,0,B|368:112|368:112|392:152|400:184|368:240,1,180
264,304,84206,1,0,0:0:0:0:
240,280,84285,1,0,0:0:0:0:
216,256,84364,1,0,0:0:0:0:
192,232,84443,1,0,0:0:0:0:
168,208,84522,2,0,L|128:160,2,45
72,104,84838,1,0,0:0:0:0:
256,104,84996,6,0,P|336:144|368:192,1,135.000005149842
376,288,85312,2,0,P|296:248|264:200,1,135.000005149842
111,293,85627,2,2,B|104:240|104:240|128:192|87:170,1,135.000005149842
254,70,85943,2,2,B|209:129|305:145|257:191,2,135.000005149842
424,170,86417,2,2,B|384:192|408:240|408:240|400:293,1,135.000005149842
256,320,86733,1,0,0:0:0:0:
256,64,86890,1,0,0:0:0:0:
192,120,87048,6,0,P|128:160|120:216,1,135.000005149842
320,264,87364,2,0,P|384:224|392:168,1,135.000005149842
176,284,87680,2,2,B|104:244|104:244|104:192,1,135.000005149842
336,99,87996,2,2,B|408:139|408:139|408:192,1,135.000005149842
352,272,88312,5,8,0:0:0:0:
160,112,88469,1,8,0:0:0:0:
400,160,88627,1,8,0:0:0:0:
112,224,88785,1,8,0:0:0:0:
456,272,88943,1,8,0:0:0:0:
56,112,89101,1,8,0:0:0:0:
256,304,89259,6,0,B|296:232|200:176|248:112|248:112|312:152,1,270.000010299683
408,56,89733,2,0,P|360:80|304:72,1,90
172,120,90048,2,0,P|211:142|256:144,1,90
384,272,90364,1,0,0:0:0:0:
256,192,90522,1,0,0:0:0:0:
128,272,90680,1,0,0:0:0:0:
96,120,90838,6,0,P|63:149|61:193,2,90
184,56,91311,1,0,0:0:0:0:
256,120,91469,1,0,0:0:0:0:
328,56,91627,1,0,0:0:0:0:
416,120,91785,2,0,P|448:149|450:193,2,90
96,296,92259,5,0,0:0:0:0:
144,296,92338,1,0,0:0:0:0:
192,296,92417,1,0,0:0:0:0:
240,296,92496,1,0,0:0:0:0:
288,296,92575,1,0,0:0:0:0:
392,240,92733,5,0,0:0:0:0:
392,192,92812,1,0,0:0:0:0:
392,144,92890,1,0,0:0:0:0:
392,48,93048,2,0,L|312:96,1,90
184,104,93364,5,0,0:0:0:0:
104,192,93522,1,0,0:0:0:0:
184,280,93680,1,0,0:0:0:0:
292,265,93838,6,0,L|344:192,1,90
219,118,94154,2,0,L|168:192,1,90
168,191,94390,1,0,0:0:0:0:
168,191,94469,1,0,0:0:0:0:
168,191,94548,1,0,0:0:0:0:
168,191,94627,1,0,0:0:0:0:
168,191,94706,1,0,0:0:0:0:
168,191,94785,1,0,0:0:0:0:
368,96,94943,6,0,P|392:152|368:216,2,125.999996154785
144,288,95890,2,0,P|120:232|144:168,2,125.999996154785
104,96,96996,2,0,P|160:144|224:152,1,125.999996154785
408,288,97627,2,0,P|352:240|288:232,1,125.999996154785
256,192,98259,1,0,0:0:0:0:
384,120,98575,1,0,0:0:0:0:
256,48,98890,6,0,L|168:48,3,62.9999980773926
88,192,99838,2,0,P|104:256|160:280,1,125.999996154785
256,288,100469,1,0,0:0:0:0:
357,279,100785,2,0,P|411:251|424:192,1,125.999996154785
384,80,101417,5,0,0:0:0:0:
256,80,101733,1,0,0:0:0:0:
128,80,102048,1,0,0:0:0:0:
128,206,102364,2,0,L|128:80,1,125.999996154785
254,80,102996,2,0,L|128:80,1,125.999996154785
320,280,103627,6,0,P|376:248|376:192,2,125.999996154785
256,192,104575,1,0,0:0:0:0:
192,104,104890,2,0,P|136:136|136:192,2,125.999996154785
400,88,105838,6,0,L|272:88,1,125.999996154785
112,88,106469,2,0,L|240:88,1,125.999996154785
304,288,107101,6,0,B|352:248|352:248|352:208|376:192,1,125.999996154785
376,80,107733,1,0,0:0:0:0:
256,80,107890,1,0,0:0:0:0:
136,80,108048,1,0,0:0:0:0:
136,192,108364,2,0,B|159:208|159:248|159:248|207:288,1,125.999996154785
360,104,108996,6,0,B|360:168|424:200|424:200|368:232|368:312,1,251.999992309571
143,309,109943,2,0,B|144:232|88:200|88:200|152:168|152:104,1,251.999992309571
256,80,110890,5,0,0:0:0:0:
256,192,111048,1,0,0:0:0:0:
256,304,111206,1,0,0:0:0:0:
104,192,111522,1,0,0:0:0:0:
408,192,111838,1,0,0:0:0:0:
256,192,112154,6,0,B|328:160|368:208|440:184|440:184|424:152|384:160,1,251.999992309571
256,192,113101,2,0,B|184:224|144:176|72:200|72:200|88:232|128:224,1,251.999992309571
256,192,114048,12,0,114680,0:0:0:0:
256,192,114838,12,0,117048,0:0:0:0:
368,96,117206,5,0,0:0:0:0:
336,96,117285,1,0,0:0:0:0:
304,96,117364,1,0,0:0:0:0:
272,96,117443,1,0,0:0:0:0:
240,96,117522,2,0,B|192:72|168:120|112:96,2,125.999996154785
88,192,118312,5,0,0:0:0:0:
184,264,118469,1,8,0:0:0:0:
184,120,118627,1,0,0:0:0:0:
312,96,118785,2,0,P|360:128|360:192,1,125.999996154785
304,272,119259,1,0,0:0:0:0:
200,288,119417,2,12,P|152:256|152:192,1,125.999996154785
151,192,119890,1,0,0:0:0:0:
151,192,120048,1,0,0:0:0:0:
152,192,120206,6,0,L|264:192,1,107.999996704102
424,192,120680,1,0,0:0:0:0:
328,120,120837,1,8,0:0:0:0:
328,264,120995,1,0,0:0:0:0:
192,320,121154,2,0,L|192:200,1,107.999996704102
192,212,121627,1,0,0:0:0:0:
152,120,121785,6,0,L|224:120,1,53.9999983520508
360,120,122101,2,0,L|288:120,1,53.9999983520508
384,288,122417,1,0,0:0:0:0:
256,328,122575,1,0,0:0:0:0:
128,288,122732,1,0,0:0:0:0:
64,192,122890,6,0,B|48:160|80:128,1,53.9999983520508
136,48,123206,2,0,L|176:88,1,53.9999983520508
256,192,123522,2,0,L|256:128,1,53.9999983520508
376,48,123838,2,0,L|336:88,1,53.9999983520508
443,141,124154,2,0,B|464:160|448:192,1,53.9999983520508
360,288,124469,5,0,0:0:0:0:
360,288,124627,1,0,0:0:0:0:
152,96,124785,5,0,0:0:0:0:
152,96,124943,1,0,0:0:0:0:
96,192,125101,2,0,P|120:248|144:264,1,62.9999980773926
256,328,125417,1,0,0:0:0:0:
256,328,125496,1,0,0:0:0:0:
256,328,125575,2,0,L|256:256,1,62.9999980773926
256,192,125890,1,0,0:0:0:0:
256,192,125969,1,0,0:0:0:0:
256,192,126048,1,0,0:0:0:0:
391,248,126206,2,0,P|409:222|416:192,1,62.9999980773926
408,80,126521,5,0,0:0:0:0:
256,40,126679,1,0,0:0:0:0:
104,80,126837,1,0,0:0:0:0:
104,80,126916,1,0,0:0:0:0:
104,80,126995,1,0,0:0:0:0:
48,192,127153,1,0,0:0:0:0:
104,304,127312,1,0,0:0:0:0:
256,344,127469,1,0,0:0:0:0:
408,304,127627,1,0,0:0:0:0:
464,192,127785,1,0,0:0:0:0:
464,192,127864,1,0,0:0:0:0:
464,192,127943,2,0,L|384:192,1,62.9999980773926
208,152,128259,5,0,0:0:0:0:
208,152,128338,1,0,0:0:0:0:
208,152,128417,2,2,P|240:112|272:104,1,62.9999980773926
368,72,128733,1,0,0:0:0:0:
368,72,128890,1,0,0:0:0:0:
144,312,129048,5,0,0:0:0:0:
144,312,129205,1,0,0:0:0:0:
96,192,129364,1,0,0:0:0:0:
152,88,129522,2,0,L|224:88,3,62.9999980773926
336,136,130154,1,0,0:0:0:0:
384,256,130312,5,0,0:0:0:0:
384,256,130390,1,0,0:0:0:0:
384,256,130469,1,0,0:0:0:0:
256,312,130627,1,0,0:0:0:0:
128,256,130785,1,0,0:0:0:0:
128,256,130864,1,0,0:0:0:0:
128,256,130943,1,0,0:0:0:0:
128,72,131101,6,0,L|176:112,1,62.9999980773926
256,192,131417,1,0,0:0:0:0:
256,192,131496,1,0,0:0:0:0:
256,192,131575,2,0,L|256:120,1,62.9999980773926
256,48,131890,1,0,0:0:0:0:
384,72,132048,2,0,L|336:112,1,62.9999980773926
384,240,132364,5,0,0:0:0:0:
128,144,132522,1,0,0:0:0:0:
328,344,132680,6,0,L|256:328,1,62.9999980773926
104,264,132996,2,0,L|120:192,1,62.9999980773926
184,40,133312,2,0,L|256:56,1,62.9999980773926
408,120,133627,2,0,L|392:192,1,62.9999980773926
256,192,133943,12,0,134733,0:0:0:0:
136,136,134890,6,0,L|96:104,3,31.4999990386963
136,136,135206,1,0,0:0:0:0:
256,72,135364,1,0,0:0:0:0:
376,136,135522,1,0,0:0:0:0:
376,248,135680,1,0,0:0:0:0:
256,312,135838,6,0,L|256:208,1,80.9999975280763
128,72,136154,2,0,L|192:144,1,80.9999975280763
384,72,136469,2,0,L|320:144,1,80.9999975280763
56,192,136785,2,0,L|144:192,1,80.9999975280763
456,192,137101,2,0,L|368:192,1,80.9999975280763
128,312,137417,5,0,0:0:0:0:
256,192,137575,1,0,0:0:0:0:
256,192,137654,1,0,0:0:0:0:
256,192,137733,2,0,L|256:104,1,80.9999975280763
256,111,138048,1,0,0:0:0:0:
384,312,138206,1,0,0:0:0:0:
172,284,138364,6,0,P|137:230|164:213,1,80.9999975280763
339,99,138680,2,0,P|374:153|347:170,1,80.9999975280763
80,176,138996,2,0,P|101:115|131:126,1,80.9999975280763
432,208,139312,2,0,P|410:268|380:257,1,80.9999975280763
256,80,139627,5,0,0:0:0:0:
256,128,139706,1,0,0:0:0:0:
256,176,139785,1,0,0:0:0:0:
256,224,139864,1,0,0:0:0:0:
256,272,139943,1,0,0:0:0:0:
256,320,140022,1,0,0:0:0:0:
256,320,140101,1,0,0:0:0:0:
256,320,140180,1,0,0:0:0:0:
256,320,140259,1,0,0:0:0:0:
72,192,140575,6,0,B|112:160|112:160|168:168,1,80.9999975280763
256,80,140890,1,0,0:0:0:0:
370,164,141048,2,0,B|400:160|400:160|440:192,1,80.9999975280763
416,320,141364,2,0,L|328:320,1,80.9999975280763
96,320,141680,2,0,L|184:320,1,80.9999975280763
256,80,141996,2,2,L|256:184,2,80.9999975280763
136,80,142469,5,0,0:0:0:0:
136,304,142627,1,0,0:0:0:0:
40,192,142785,2,0,B|72:168|72:168|88:200|88:200|136:144|168:216|208:160|208:160|232:96|296:128|248:184|287:238|208:256|208:256|280:288|304:240|368:304,2,566.999982696534
384,104,145312,6,0,L|384:200,1,90
384,288,145627,1,0,0:0:0:0:
256,288,145785,1,0,0:0:0:0:
128,288,145943,1,0,0:0:0:0:
128,194,146101,2,0,L|128:104,1,90
232,32,146417,6,0,B|288:64|288:64|280:104,1,90
416,168,146733,2,0,B|384:224|384:224|344:216,1,90
280,352,147048,2,0,B|224:320|224:320|232:280,1,90
96,216,147364,2,0,B|128:160|128:160|168:168,1,90
256,192,147680,1,0,0:0:0:0:
256,192,147759,1,0,0:0:0:0:
256,192,147838,1,0,0:0:0:0:
152,48,147996,6,0,P|112:72|104:120,1,90
112,296,148312,2,0,P|136:336|184:344,1,90
360,336,148627,2,0,P|400:312|408:264,1,90
400,88,148943,2,0,P|376:48|328:40,1,90
56,144,149259,6,0,L|131:192,1,90
456,144,149575,2,0,L|380:192,1,90
256,112,149890,1,0,0:0:0:0:
256,112,149969,1,0,0:0:0:0:
256,112,150048,1,0,0:0:0:0:
256,112,150127,1,0,0:0:0:0:
256,112,150206,2,0,B|216:152|288:152|248:208,1,90
256,272,150522,1,0,0:0:0:0:
112,264,150996,6,0,P|112:168|136:168,2,135
112,264,151627,1,0,0:0:0:0:
256,192,151785,1,0,0:0:0:0:
400,264,151943,2,0,P|400:168|376:168,2,135
400,264,152575,1,0,0:0:0:0:
88,192,152733,6,2,B|128:160|128:160|120:128|160:112,1,90
256,32,153048,2,2,B|288:80|224:80|264:128,1,90
373,124,153364,2,2,B|392:128|384:160|384:160|424:192,1,90
448,304,153680,2,2,P|416:336|360:336,1,90
256,352,153996,1,0,0:0:0:0:
256,352,154075,1,0,0:0:0:0:
256,352,154154,2,2,B|288:304|224:304|264:256,1,90
138,340,154470,1,0,0:0:0:0:
138,340,154548,1,0,0:0:0:0:
138,340,154627,2,2,P|94:335|63:304,1,90
48,192,154943,2,0,B|96:208|96:208|168:176|256:192,1,180
312,72,155417,6,0,P|360:144|328:184,1,135.000005149842
200,312,155733,2,0,P|152:240|184:200,1,135.000005149842
152,104,156048,1,0,0:0:0:0:
256,48,156206,1,0,0:0:0:0:
360,280,156364,1,0,0:0:0:0:
256,336,156522,1,0,0:0:0:0:
72,256,156680,6,2,B|48:192|48:192|88:136,1,135.000005149842
256,48,156996,1,0,0:0:0:0:
256,192,157154,1,0,0:0:0:0:
256,336,157312,1,0,0:0:0:0:
256,48,157469,1,0,0:0:0:0:
256,336,157627,1,0,0:0:0:0:
256,48,157785,1,0,0:0:0:0:
425,137,157943,2,2,B|464:192|464:192|440:256,1,135.000005149842
128,224,158259,6,0,P|200:168|264:168,1,135.000005149842
288,64,158575,2,0,P|344:136|344:200,1,135.000005149842
448,224,158890,2,0,P|376:280|312:280,1,135.000005149842
216,256,159206,1,0,0:0:0:0:
112,192,159364,1,0,0:0:0:0:
216,128,159522,1,0,0:0:0:0:
216,128,159601,1,0,0:0:0:0:
216,128,159680,1,0,0:0:0:0:
395,92,159838,6,2,P|381:155|320:176,1,135.000005149842,2|0,0:0|0:0,0:0:0:0:
244,259,160154,1,0,0:0:0:0:
244,259,160233,1,0,0:0:0:0:
244,259,160312,2,2,P|305:239|320:176,1,135.000005149842,0|0,0:0|0:0,0:0:0:0:
56,112,160627,6,0,B|40:160|88:192,1,90
152,264,160943,1,0,0:0:0:0:
256,328,161101,1,0,0:0:0:0:
360,264,161259,1,0,0:0:0:0:
427,189,161417,2,0,B|472:160|456:112,2,90
256,192,161890,5,0,0:0:0:0:
176,192,162048,2,0,B|120:184|120:184|80:200,1,90
256,272,162364,2,0,B|248:328|248:328|264:368,1,90
336,192,162680,2,0,B|392:200|392:200|432:184,1,90
256,112,162996,2,0,B|264:56|264:56|248:16,1,90
136,104,163312,5,0,0:0:0:0:
376,280,163469,1,0,0:0:0:0:
56,176,163627,1,0,0:0:0:0:
456,208,163785,1,0,0:0:0:0:
48,72,163943,1,0,0:0:0:0:
464,312,164101,1,0,0:0:0:0:
256,304,164259,6,0,B|304:272|304:272|304:216|304:216|368:168,1,180
392,80,164733,1,0,0:0:0:0:
256,80,164890,1,0,0:0:0:0:
256,80,164969,1,0,0:0:0:0:
256,80,165048,1,0,0:0:0:0:
256,304,165206,1,0,0:0:0:0:
256,304,165285,1,0,0:0:0:0:
256,304,165364,1,0,0:0:0:0:
112,272,165522,6,2,B|88:192|56:176|56:176|80:152,1,135.000005149842
256,192,165838,1,0,0:0:0:0:
400,112,165996,2,2,B|424:192|456:208|456:208|432:232,1,135.000005149842
400,304,166312,6,0,P|320:320|264:272,1,135.000005149842
208,208,166627,2,0,P|288:192|344:240,1,135.000005149842
408,192,166943,2,0,P|336:112|288:120,1,135.000005149842
104,192,167259,2,0,P|176:272|224:264,1,135.000005149842
256,64,167575,1,0,0:0:0:0:
256,192,167733,1,0,0:0:0:0:
256,320,167890,1,0,0:0:0:0:
93,294,168048,6,2,B|141:254|141:254|133:206|133:206|152:192,1,135.000005149842
360,192,168364,2,2,B|378:206|378:206|370:254|370:254|418:294,1,135.000005149842
256,320,168680,2,0,B|208:240|304:240|240:168,1,135.000005149842
56,112,168996,2,0,P|104:64|192:64,1,135.000005149842
343,56,169312,2,0,P|409:64|456:112,1,135.000005149842
176,240,169627,5,0,0:0:0:0:
336,144,169785,1,0,0:0:0:0:
80,176,169943,1,0,0:0:0:0:
432,208,170101,1,0,0:0:0:0:
256,328,170259,5,0,0:0:0:0:
256,264,170338,1,0,0:0:0:0:
256,200,170417,1,0,0:0:0:0:
256,136,170496,1,0,0:0:0:0:
256,88,170575,2,0,L|152:88,1,90
72,264,170890,6,0,L|152:312,1,90
440,120,171206,2,0,L|360:72,1,90
152,56,171522,1,0,0:0:0:0:
80,192,171680,1,0,0:0:0:0:
152,328,171838,1,0,0:0:0:0:
360,328,171996,2,0,L|432:256,1,90
432,192,172312,2,0,L|360:120,1,90
152,152,172627,6,0,P|144:216|184:232,1,90
360,232,172943,2,0,P|368:168|328:152,1,90
112,72,173259,5,0,0:0:0:0:
152,88,173338,1,0,0:0:0:0:
192,72,173417,1,0,0:0:0:0:
400,312,173575,5,0,0:0:0:0:
360,296,173654,1,0,0:0:0:0:
320,312,173733,1,0,0:0:0:0:
152,280,173890,5,0,0:0:0:0:
360,104,174048,1,0,0:0:0:0:
120,192,174206,2,2,L|224:192,1,90
256,328,174522,1,0,0:0:0:0:
256,328,174601,1,0,0:0:0:0:
256,328,174680,2,2,L|256:224,1,90
392,192,174996,1,0,0:0:0:0:
392,192,175075,1,0,0:0:0:0:
392,192,175154,1,0,0:0:0:0:
392,192,175233,1,0,0:0:0:0:
392,192,175312,2,2,L|288:192,1,90
256,192,175627,12,0,178154,0:0:0:0:
128,112,179101,6,0,B|208:80|296:80|384:120,1,251.999992309571
256,192,180048,1,0,0:0:0:0:
373,268,180364,2,0,B|296:304|208:304|128:272,1,251.999992309571
72,160,181312,5,0,0:0:0:0:
144,80,181469,1,0,0:0:0:0:
248,120,181627,1,0,0:0:0:0:
320,208,181785,2,0,P|360:168|392:168,1,62.9999980773926
464,192,182101,2,0,P|424:232|392:232,1,62.9999980773926
368,312,182417,5,0,0:0:0:0:
256,312,182575,1,0,0:0:0:0:
144,312,182733,1,0,0:0:0:0:
58,238,182890,2,0,P|70:209|96:192,1,62.9999980773926
256,80,183206,1,0,0:0:0:0:
256,80,183364,1,0,0:0:0:0:
415,191,183522,2,0,P|441:209|453:238,1,62.9999980773926
216,224,183838,6,0,P|160:216|152:192,1,62.9999980773926
176,128,184154,2,0,P|149:112|119:119,1,62.9999980773926,0|0,0:0|0:0,0:0:0:0:
72,304,184469,2,0,B|104:288|104:288|144:296,1,62.9999980773926
360,208,184785,2,0,B|328:224|328:224|288:216,1,62.9999980773926
128,192,185101,5,0,0:0:0:0:
240,88,185259,1,0,0:0:0:0:
240,88,185338,1,0,0:0:0:0:
240,88,185417,1,0,0:0:0:0:
400,96,185575,1,0,0:0:0:0:
400,96,185654,1,0,0:0:0:0:
400,96,185733,2,0,P|440:152|440:168,1,72
432,256,186048,5,0,0:0:0:0:
312,288,186206,1,0,0:0:0:0:
256,192,186364,1,8,0:0:0:0:
136,112,186522,2,0,P|184:88|232:88,1,72
288,144,186838,2,0,P|322:136|353:117,1,72
448,144,187154,6,0,P|448:208|384:272,2,144
64,144,187943,2,0,P|64:208|128:272,2,144
152,80,188733,1,0,0:0:0:0:
256,48,188890,1,0,0:0:0:0:
360,80,189048,1,8,0:0:0:0:
408,192,189206,6,0,B|392:240|392:240|344:256,1,72
256,304,189522,1,0,0:0:0:0:
256,192,189680,1,0,0:0:0:0:
256,304,189838,1,0,0:0:0:0:
140,246,189996,2,0,B|120:240|120:240|104:192,1,72
256,192,190312,1,0,0:0:0:0:
88,112,190469,5,0,0:0:0:0:
88,112,190548,1,0,0:0:0:0:
88,112,190627,2,0,P|128:96|160:120,1,72,0|0,0:0|0:0,0:0:0:0:
424,112,190943,2,0,P|384:96|352:120,1,72
256,192,191259,2,0,B|304:120|216:120|256:56,2,144
128,304,192048,5,0,0:0:0:0:
256,192,192206,1,0,0:0:0:0:
384,304,192364,1,0,0:0:0:0:
128,304,192522,2,0,P|128:256|160:240,1,72
384,304,192838,2,0,P|384:256|352:240,1,72
128,80,193154,6,0,P|128:128|160:144,1,72
384,80,193469,2,0,P|384:128|352:144,1,72
256,192,193785,1,0,0:0:0:0:
256,192,193943,1,0,0:0:0:0:
104,160,194101,6,0,B|136:120|136:120|184:120,1,72
224,344,194417,2,0,B|184:312|184:312|184:264,1,72
408,224,194733,2,0,B|376:264|376:264|328:264,1,72
288,40,195048,2,0,B|328:72|328:72|328:120,1,72
256,272,195364,5,0,0:0:0:0:
256,272,195443,1,0,0:0:0:0:
256,272,195522,1,0,0:0:0:0:
256,272,195601,1,0,0:0:0:0:
256,272,195680,2,0,L|256:192,1,72
256,192,195996,12,0,200890,0:0:0:0:
