osu file format v9

[General]
AudioFilename: Megurine Luka - Corruption Garden.mp3
AudioLeadIn: 0
PreviewTime: 40599
Countdown: 0
SampleSet: Soft
StackLeniency: 0.6
Mode: 0
LetterboxInBreaks: 1

[Editor]
DistanceSpacing: 1
BeatDivisor: 4
GridSize: 4

[Metadata]
Title:Corruption Garden
Artist:Megurine Luka
Creator:Garven
Version:Normal
Source:Caz
Tags:Vocaloid IKEDA val0108

[Difficulty]
HPDrainRate:3
CircleSize:3
OverallDifficulty:4
ApproachRate:4
SliderMultiplier:0.7
SliderTickRate:2

[Events]
//Background and Video events
Video,-33510,"CORRUPTIONGARDEN.avi.AVI"
0,0,"lukakawaiidesuyo.jpg"
//Break Periods
2,119424,119904
//Storyboard Layer 0 (Background)
//Storyboard Layer 1 (Fail)
//Storyboard Layer 2 (Pass)
//Storyboard Layer 3 (Foreground)
//Storyboard Sound Samples
//Background Colour Transformations
3,100,192,192,192

[TimingPoints]
11099.2166333426,250,4,1,0,100,1,0
13974,-100,4,1,1,100,0,0
14349,-100,4,2,1,100,0,0
14849,-100,4,1,0,100,0,0
15474,-100,4,1,1,100,0,0
18349,-100,4,2,1,100,0,0
18849,-100,4,1,0,100,0,0
19474,-100,4,1,1,100,0,0
22349,-100,4,2,1,100,0,0
22849,-100,4,1,0,100,0,0
23661,-100,4,2,1,100,0,0
23974,-100,4,1,1,100,0,0
25036,-100,4,1,0,100,0,0
25411,-100,4,1,1,100,0,0
26036,-100,4,2,1,100,0,0
26349,-100,4,1,1,100,0,0
27036,-100,4,1,0,75,0,0
33349,-100,4,1,1,75,0,0
35349,-100,4,1,0,75,0,0
40849,-100,4,1,1,100,0,0
41286,-100,4,1,1,75,0,0
43224,250,4,1,1,100,1,1
43324,-100,4,1,0,100,0,0
49974,-100,4,1,1,100,0,0
50474,-100,4,2,1,100,0,0
50974,-100,4,1,0,100,0,0
54474,-100,4,1,1,100,0,0
54974,-100,4,1,0,100,0,0
57161,-100,4,1,1,80,0,0
59099,-100,4,1,0,100,0,1
59974,-100,4,1,1,100,0,1
61724,-100,4,1,0,100,0,1
62974,-100,4,2,1,100,0,1
63224,-100,4,1,0,100,0,1
64974,-100,4,2,0,100,0,1
65161,-100,4,1,0,100,0,1
68974,-100,4,1,1,100,0,1
69599,-100,4,1,0,100,0,1
71036,-100,4,2,0,100,0,1
72224,-100,4,1,0,100,0,1
72974,-100,4,2,1,100,0,1
73224,-100,4,1,0,100,0,1
73849,-100,4,1,1,100,0,1
75099,250,4,1,0,100,1,1
75099,-100,4,1,0,100,0,1
79099,-100,4,1,0,100,0,0
89224,-100,4,1,1,100,0,0
91099,-100,4,1,0,100,0,0
97224,-100,4,1,1,100,0,0
98599,-100,4,1,1,51,0,0
99099,-100,4,1,0,100,0,1
99224,250,4,1,1,100,1,1
102849,-100,4,2,1,100,0,1
103161,-100,4,1,1,100,0,1
106974,-100,4,1,0,100,0,1
107974,-100,4,1,1,100,0,1
110849,-100,4,2,1,100,0,1
111349,-100,4,1,1,100,0,1
113974,-100,4,2,1,100,0,1
114474,-100,4,1,1,100,0,1
114974,-100,4,1,0,100,0,1
115286,-100,4,2,0,100,0,0
120849,-100,4,1,0,100,0,0
122349,-100,4,2,0,100,0,0
123224,-100,4,1,1,100,0,0
127036,-100,4,1,1,60,0,0
127536,-100,4,1,1,75,0,0
128036,-100,4,1,1,90,0,0
128536,-100,4,1,1,100,0,0
133036,-100,4,2,1,100,0,0
133224,-100,4,1,1,100,0,0
135036,-100,4,1,0,100,0,0
135161,-100,4,1,1,100,0,0
137036,-100,4,2,1,100,0,0
137161,-100,4,1,1,100,0,0
138599,-100,4,2,1,0,0,0
138661,-100,4,1,2,100,0,0
139099,-100,4,1,0,100,0,1
139224,250,4,1,1,100,1,1
143036,-100,4,2,1,100,0,1
143224,-100,4,1,1,100,0,1
146974,-100,4,1,0,100,0,1
147224,-100,4,1,1,100,0,1
151036,-100,4,2,1,100,0,1
151224,-100,4,1,1,100,0,1
155099,-100,4,1,0,100,0,0
155974,-100,4,1,1,100,0,0
158974,-100,4,1,0,100,0,0
159474,-100,4,1,1,100,0,0
162974,-100,4,1,0,100,0,0
163224,-100,4,1,1,100,0,0
166849,-100,4,1,0,100,0,0
168224,-100,4,1,1,100,0,0
168974,-100,4,2,1,100,0,0
169161,-100,4,1,1,100,0,0
172974,-100,4,1,0,100,0,0
173474,-100,4,1,1,100,0,0
175218,250,4,1,0,100,1,0
178968,-100,4,1,1,100,0,0
179968,-100,4,2,1,100,0,0
180280,-100,4,1,1,100,0,0
181968,-100,4,2,1,100,0,0
182218,-100,4,1,1,100,0,0
182843,-100,4,2,1,0,0,0

[Colours]
Combo1 : 255,200,117
Combo2 : 57,196,196
Combo3 : 255,128,192
Combo4 : 187,4,4

[HitObjects]
144,64,11099,2,0,B|144:168|144:168|196:220,1,175,4|0
317,218,12099,2,0,B|368:168|368:168|368:64,1,175,0|0
256,12,13099,2,0,B|256:84|256:84|242:97|242:97|270:97|270:97|256:112|256:112|256:152,1,175,0|0
172,244,14099,1,4
340,244,14599,1,4
256,384,15099,6,0,B|132:384|132:384|88:336,1,175,4|0
96,220,16099,2,0,B|166:220|166:220|208:276|208:276|256:276,1,175,0|0
256,152,17099,2,0,B|324:168|324:168|324:284,1,175,0|0
428,344,18099,1,4
428,176,18599,1,4
320,48,19099,6,0,B|320:152|320:152|268:204,1,175,4|8
212,92,20099,2,0,B|161:142|161:142|161:246,1,175,0|8
256,332,21099,2,0,B|360:332|360:332|408:280,1,175,0|8
408,153,22099,1,4
256,228,22599,1,4
108,308,23099,6,0,B|44:280|44:280|44:176,1,175,4|4
44,48,24099,2,0,B|112:28|112:28|216:28,1,175,0|4
344,28,25099,1,4
496,104,25599,1,4
496,272,26099,1,4
344,356,26599,1,4
200,272,27099,6,0,B|140:192|196:108,1,175,0|8
300,40,28099,2,0,B|332:24|332:24|368:44,1,70,0|8
472,360,29474,6,0,B|423:330|423:330|440:312|440:312|356:256,1,175
220,168,30599,1,0
188,244,30849,1,8
156,324,31099,1,0
52,252,31474,6,0,B|16:168|64:72,1,175
256,152,32724,1,8
360,80,33099,6,0,B|296:0|200:40,1,175,4|8
130,200,34224,2,0,B|160:280|244:280,1,140,0|8
256,152,35099,1,0
356,72,35474,6,0,B|408:120|408:120|408:224|408:224|460:276,1,245,0|8
80,312,37474,6,0,B|40:232|84:140,1,175,0|8
160,292,38599,2,0,B|116:232|164:156,1,140,8|0
268,228,39474,6,0,B|356:276|436:228,1,175,0|8
348,36,40724,1,0
224,36,41099,6,0,B|44:36,1,175,4|8
192,124,42224,2,0,B|336:124,1,140,0|0
484,196,43224,6,0,B|476:376|316:462|156:376|148:196,1,560,4|4
404,36,46224,5,0
236,36,46724,1,0
76,92,47224,2,0,B|24:140|24:140|24:288,1,210,4|0
192,92,48724,1,0
356,120,49224,5,0
500,208,49724,1,0
356,296,50224,1,4
192,332,50724,1,4
24,344,51224,6,0,B|24:288|24:232|84:156|240:184|240:184|348:204|412:144|412:52,1,560,4|4
208,316,54224,5,0
305,178,54724,1,0
428,64,55224,2,0,B|524:128|532:256|400:384|288:332|200:232|224:140,1,560,4|8
308,0,57724,5,8
360,160,58224,1,8
416,320,58724,2,0,B|372:368|320:328,1,105,8|4
56,60,60224,6,0,B|216:60|216:60|280:124,1,245,0|4
56,316,61974,1,8
140,316,62224,2,0,B|244:316|244:316|336:208,1,245,0|4
176,92,64474,6,0,B|256:28|336:92,1,175,0|4
172,224,65724,1,0
340,224,66224,1,0
256,368,66724,2,0,B|256:264,1,105,0|4
408,68,68224,6,0,B|408:172|408:172|336:296,1,245,0|4
148,68,69974,1,0
96,132,70224,2,0,B|28:212|28:212|28:356,1,245,0|4
388,64,72474,6,0,B|436:148|388:232,1,175,0|4
216,352,73724,1,0
68,276,74224,1,8
68,108,74724,1,8
216,32,75224,1,4
256,192,75474,12,4,79099
96,40,83099,6,0,B|44:64|24:148|64:196,1,175,0|8
132,304,84099,1,0
184,364,84349,1,8
416,44,85474,6,0,B|492:116|424:200,1,175,0|0
316,312,86599,1,8
152,344,87099,1,0
84,236,87474,6,0,B|188:236|188:236|244:188,1,175,0|8
392,44,88724,1,0
268,32,89099,6,0,B|180:-8|96:32,1,175,4|8
252,108,90224,2,0,B|176:68|116:108,1,140,0|8
40,204,91099,1,0
100,316,91474,5,0
308,336,92099,2,0,B|312:376|380:372|384:336,1,105,0|8
316,60,93474,6,0,B|256:124|256:124|196:60,1,175
172,228,94599,1,8
340,228,95099,1,0
256,320,95474,6,0,B|164:372|164:372|96:372,1,175,0|8
28,172,96724,1,0
112,80,97099,5,4
316,32,97724,2,0,B|456:64,1,140,8|0
296,124,98724,2,0,B|400:148,1,105,8|4
272,332,100224,6,0,B|132:332|132:332|52:252,1,245,0|4
256,44,101974,2,0,B|384:172,1,175,0|8
492,44,103099,2,0,B|492:156,1,105,4|8
196,304,104474,6,0,B|152:360|88:360|48:308,1,175,0|4
120,212,105474,2,0,B|172:148|244:148|300:216,1,210,8|0
384,308,106599,2,0,B|456:272|436:192,1,140,8|4
72,96,108224,6,0,B|176:96|176:96|188:60|228:40|272:60|280:96,1,245,0|4
480,312,109974,2,0,B|416:320|348:276|328:232,1,175,0|8
256,88,111099,1,4
72,336,112474,6,0,B|72:232|72:232|124:184,1,175,0|4
276,36,113724,1,8
428,108,114224,1,4
428,276,114724,1,8
276,348,115224,1,4
256,192,115474,12,4,119224
256,16,121224,5,4
296,180,121724,2,0,B|280:144|232:140|216:180,1,105
92,140,123099,6,0,B|140:280|256:316|372:280|420:140,1,455,4|8
320,64,125099,2,0,B|320:112|256:136|200:112|200:64,1,175,4|8
32,44,126224,1,0
32,212,126724,1,0
136,344,127224,6,0,B|208:344,1,70,0|8
180,264,127724,2,0,B|252:260,1,70,0|8
224,180,128224,2,0,B|292:172,1,70,0|8
264,92,128724,6,0,B|368:76,1,105,0|4
472,260,129724,2,0,B|472:332|472:332|444:356,1,105
36,352,131099,6,0,B|76:252,1,105,4|0
152,288,131724,2,0,B|180:220,1,70
252,268,132224,2,0,B|280:200,1,70
352,244,132724,6,0,B|392:144,1,105,0|4
200,56,133724,1,0
76,28,134099,2,2,B|-8:40|-24:96|4:152,1,175,2|0
20,280,135099,6,0,B|104:304|200:292,1,175,4|8
104,204,136099,2,0,B|212:220|280:208,1,175,4|8
184,124,137099,2,0,B|272:140|372:120,1,175,4|8
268,36,138099,1,0
436,28,138599,6,0,B|468:96|440:164,1,140,0|4
88,300,140224,6,0,B|88:192|88:192|184:96,1,245,0|4
256,380,141974,1,8
320,328,142224,2,0,B|396:256|396:256|396:108,1,245,0|4
128,48,144474,6,0,B|76:96|76:96|76:200,1,175,0|4
208,364,145724,1,8
208,196,146224,1,0
356,276,146724,2,0,B|460:276,1,105,8|4
124,104,148224,6,0,B|208:40|208:40|348:40,1,245,0|4
464,336,150224,1,8
352,276,150599,2,0,B|284:248|284:248|228:280,1,140,0|4
396,56,152474,6,0,B|440:152|440:152|416:228,1,175,0|4
256,348,153724,1,8
104,276,154224,1,0
104,108,154724,2,0,B|156:64|156:64|200:64,1,105,8|4
416,288,156224,5,0
392,152,156724,2,0,B|372:44,1,105,8|4
92,80,158224,2,0,B|168:120|168:120|252:88|252:88|312:128,1,245,0|4
44,296,160224,6,0,B|44:228|44:228|16:192,2,105,0|8|4
256,304,161724,1,8
348,200,162224,1,0
428,264,162599,2,0,B|472:208|472:208|472:136,1,140,8|4
312,72,163724,5,8
172,72,164224,1,0
100,148,164599,2,0,B|144:216|224:212,1,140,8|4
392,204,165724,5,8
320,324,166224,2,0,B|272:360|224:324,2,105,0|8|4
104,68,168724,5,8
208,68,169099,2,0,B|372:80|412:200|372:320|208:332,1,455,4|8
104,332,171099,1,4
256,56,172224,5,0
256,196,172724,2,0,B|256:300,1,105,8|4
336,56,174224,5,4
176,56,174724,1,4
256,192,175218,1,4
256,192,175468,12,4,179093
460,44,180093,5,4
460,340,181093,1,4
256,104,182093,5,4
144,192,182593,1,4
256,276,183093,1,4
