osu file format v13

[General]
AudioFilename: Megurine Luka Atama No Taisou.mp3
AudioLeadIn: 0
PreviewTime: 2026
Countdown: 1
SampleSet: None
StackLeniency: 0.7
Mode: 2
LetterboxInBreaks: 1
WidescreenStoryboard: 1

[Editor]
DistanceSpacing: 1
BeatDivisor: 2
GridSize: 8
TimelineZoom: 3.199999

[Metadata]
Title:Atama No Taisou
TitleUnicode:Atama No Taisou
Artist:Megurine Luka
ArtistUnicode:Megurine Luka
Creator:Litepastistime
Version:Salad
Source:Vocaloid
Tags:
BeatmapID:470290
BeatmapSetID:198273

[Difficulty]
HPDrainRate:2
CircleSize:2.5
OverallDifficulty:4
ApproachRate:6.5
SliderMultiplier:1.4
SliderTickRate:2

[Events]
//Background and Video events
0,0,"luka-megurine-hatsune-miku-vocaloid-hi-179905.jpg",0,0
//Break Periods
2,72226,77051
//Storyboard Layer 0 (Background)
//Storyboard Layer 1 (Fail)
//Storyboard Layer 2 (Pass)
//Storyboard Layer 3 (Foreground)
//Storyboard Sound Samples
//Background Colour Transformations
3,100,163,162,255

[TimingPoints]
2026.08152012071,500,4,2,0,100,1,0
62026,250,4,2,0,100,1,0

[HitObjects]
256,200,9276,6,0,L|186:200,2,70,0|0|0,0:0|0:0|0:0,0:0:0:0:
328,200,10026,1,0,0:0:0:0:
360,200,10276,1,0,0:0:0:0:
392,200,10526,1,0,0:0:0:0:
424,200,10776,1,0,0:0:0:0:
308,200,11526,6,0,L|228:200,1,70
136,200,12276,2,0,L|48:200,2,70,0|0|0,0:0|0:0|0:0,0:0:0:0:
180,200,13026,1,0,0:0:0:0:
304,200,13526,6,0,L|384:200,2,70,0|0|0,0:0|0:0|0:0,0:0:0:0:
256,200,14276,1,0,0:0:0:0:
112,200,14776,1,0,0:0:0:0:
200,240,15276,6,0,L|328:240,1,70
336,240,15776,1,0,0:0:0:0:
432,240,16026,1,0,0:0:0:0:
256,240,16526,1,0,0:0:0:0:
384,240,16776,1,0,0:0:0:0:
256,208,17276,6,0,L|152:208,2,70,0|0|0,0:0|0:0|0:0,0:0:0:0:
340,208,18026,1,0,0:0:0:0:
416,208,18276,1,0,0:0:0:0:
272,208,18526,1,0,0:0:0:0:
120,208,18776,1,0,0:0:0:0:
376,128,19526,5,0,0:0:0:0:
192,128,19776,1,0,0:0:0:0:
72,216,20276,1,0,0:0:0:0:
208,216,20526,1,0,0:0:0:0:
328,216,20776,1,0,0:0:0:0:
456,216,21026,1,0,0:0:0:0:
256,112,21526,6,0,L|184:112,2,70,0|0|0,0:0|0:0|0:0,0:0:0:0:
352,112,22276,1,0,0:0:0:0:
264,176,22526,2,0,L|168:176,2,70,0|0|0,0:0|0:0|0:0,0:0:0:0:
120,168,23276,1,0,0:0:0:0:
64,168,23526,1,0,0:0:0:0:
176,168,23776,1,0,0:0:0:0:
296,160,24026,1,0,0:0:0:0:
448,208,24526,5,0,0:0:0:0:
248,216,25026,1,0,0:0:0:0:
72,216,26026,5,0,0:0:0:0:
224,216,26276,1,0,0:0:0:0:
360,216,26526,1,0,0:0:0:0:
168,216,26776,1,0,0:0:0:0:
320,216,27276,6,0,L|424:216,2,70,0|0|0,0:0|0:0|0:0,0:0:0:0:
320,216,28026,1,0,0:0:0:0:
208,216,28276,1,0,0:0:0:0:
88,216,28526,1,0,0:0:0:0:
272,216,28776,1,0,0:0:0:0:
184,208,29276,6,0,L|184:128,1,70
312,216,29776,1,0,0:0:0:0:
384,216,30026,2,0,L|480:216,2,70,0|0|0,0:0|0:0|0:0,0:0:0:0:
208,224,30776,1,0,0:0:0:0:
96,208,31276,5,0,0:0:0:0:
216,208,31526,1,0,0:0:0:0:
328,208,31776,1,0,0:0:0:0:
160,208,32026,1,0,0:0:0:0:
464,200,32526,5,0,0:0:0:0:
168,200,33026,1,0,0:0:0:0:
400,200,33526,1,0,0:0:0:0:
336,272,34026,6,0,L|160:272,1,140
248,272,34776,1,0,0:0:0:0:
416,208,35276,2,0,L|336:208,2,70,0|0|0,0:0|0:0|0:0,0:0:0:0:
208,208,36026,1,0,0:0:0:0:
80,208,36276,1,0,0:0:0:0:
144,208,36526,1,0,0:0:0:0:
16,208,36776,1,0,0:0:0:0:
304,208,37276,5,0,0:0:0:0:
408,208,37526,1,0,0:0:0:0:
304,208,37776,1,0,0:0:0:0:
304,208,38026,5,0,0:0:0:0:
192,208,38276,1,0,0:0:0:0:
80,208,38526,1,0,0:0:0:0:
304,208,38776,1,0,0:0:0:0:
408,136,39276,6,0,L|444:197,1,70
344,128,39776,2,0,L|288:216,1,70
208,128,40276,2,0,L|247:187,1,70,0|0,0:0|0:0,0:0:0:0:
144,128,40776,2,0,L|96:200,1,70
400,240,41526,6,0,L|304:240,1,70
192,240,42026,1,0,0:0:0:0:
144,240,42276,1,0,0:0:0:0:
96,240,42526,1,0,0:0:0:0:
288,240,42776,2,0,L|512:240,1,210,0|0,0:0|0:0,0:0:0:0:
288,240,44026,5,0,0:0:0:0:
136,240,44276,1,0,0:0:0:0:
240,240,44526,1,0,0:0:0:0:
88,240,44776,1,0,0:0:0:0:
192,240,45026,1,0,0:0:0:0:
280,240,45526,6,0,L|392:240,1,70
472,240,46026,2,0,L|384:240,1,70
224,240,46776,1,0,0:0:0:0:
56,240,47276,2,0,L|136:240,1,70,0|0,0:0|0:0,0:0:0:0:
264,240,47776,2,0,L|152:240,1,70
224,184,48526,1,0,0:0:0:0:
224,184,48776,1,0,0:0:0:0:
408,192,49276,6,0,L|320:192,2,70,0|0|0,0:0|0:0|0:0,0:0:0:0:
240,192,50026,1,0,0:0:0:0:
80,192,50276,2,0,L|160:192,2,70,0|0|0,0:0|0:0|0:0,0:0:0:0:
288,192,51526,1,0,0:0:0:0:
144,192,52026,6,0,L|56:192,2,70,0|0|0,0:0|0:0|0:0,0:0:0:0:
248,192,52776,1,0,0:0:0:0:
408,192,53026,1,0,0:0:0:0:
64,296,53526,6,0,L|176:296,2,70,0|0|0,0:0|0:0|0:0,0:0:0:0:
232,296,54276,1,0,0:0:0:0:
400,296,54526,2,0,L|296:296,2,70,0|0|0,0:0|0:0|0:0,0:0:0:0:
272,296,55276,1,0,0:0:0:0:
160,296,55526,1,0,0:0:0:0:
64,296,55776,2,0,L|192:296,1,70
256,192,57026,5,0,0:0:0:0:
48,200,58026,1,0,0:0:0:0:
256,200,58526,1,0,0:0:0:0:
464,200,59026,1,0,0:0:0:0:
256,192,60026,12,0,61526,0:0:0:0:
360,320,62026,5,0,0:0:0:0:
240,320,62276,1,0,0:0:0:0:
120,320,62526,1,0,0:0:0:0:
304,320,62776,1,0,0:0:0:0:
176,264,63026,1,0,0:0:0:0:
112,264,63276,1,0,0:0:0:0:
352,264,63526,1,0,0:0:0:0:
248,184,63776,6,0,L|368:184,1,70,0|0,0:0|0:0,0:0:0:0:
440,184,64026,1,0,0:0:0:0:
368,136,64276,1,0,0:0:0:0:
248,136,64526,5,0,0:0:0:0:
128,136,64776,1,0,0:0:0:0:
248,136,65026,1,0,0:0:0:0:
368,136,65276,1,0,0:0:0:0:
464,136,65526,6,0,L|394:136,1,70,0|0,0:0|0:0,0:0:0:0:
208,136,65901,6,0,L|278:136,1,70,0|0,0:0|0:0,0:0:0:0:
464,224,66276,1,0,0:0:0:0:
256,224,66526,1,0,0:0:0:0:
56,224,66776,1,0,0:0:0:0:
160,304,67026,5,0,0:0:0:0:
352,304,67276,1,0,0:0:0:0:
160,304,67526,1,0,0:0:0:0:
360,304,67776,1,0,0:0:0:0:
312,304,67901,1,0,0:0:0:0:
432,304,68026,1,0,0:0:0:0:
240,216,68276,5,0,0:0:0:0:
360,216,68526,1,0,0:0:0:0:
464,216,68776,1,0,0:0:0:0:
432,160,69026,2,0,L|272:160,1,140
208,160,69526,2,0,L|56:160,1,140
352,128,70026,5,0,0:0:0:0:
208,128,70276,1,0,0:0:0:0:
288,128,70526,1,0,0:0:0:0:
408,128,70776,1,0,0:0:0:0:
248,128,71026,1,0,0:0:0:0:
136,128,71276,1,0,0:0:0:0:
32,128,71526,1,0,0:0:0:0:
160,216,71776,5,0,0:0:0:0:
256,216,71901,1,0,0:0:0:0:
360,216,72026,1,0,0:0:0:0:
64,200,78026,6,0,L|216:200,1,140
64,256,78526,2,0,L|216:256,1,140
256,200,79026,1,0,0:0:0:0:
408,200,79276,1,0,0:0:0:0:
192,200,79526,1,0,0:0:0:0:
288,248,80026,5,0,0:0:0:0:
408,248,80276,1,0,0:0:0:0:
288,248,80526,1,0,0:0:0:0:
160,240,80776,1,0,0:0:0:0:
64,160,81026,6,0,L|120:160,14,35,0|0|0|0|0|0|0|0|0|0|0|0|0|0|0,0:0|0:0|0:0|0:0|0:0|0:0|0:0|0:0|0:0|0:0|0:0|0:0|0:0|0:0|0:0,0:0:0:0:
184,96,82026,1,0,0:0:0:0:
272,96,82151,1,0,0:0:0:0:
232,96,82276,1,0,0:0:0:0:
312,96,82401,1,0,0:0:0:0:
