osu file format v13

[General]
AudioFilename: Megurine Luka Atama No Taisou.mp3
AudioLeadIn: 0
PreviewTime: 2276
Countdown: 0
SampleSet: None
StackLeniency: 0.7
Mode: 2
LetterboxInBreaks: 1
WidescreenStoryboard: 1

[Editor]
DistanceSpacing: 1
BeatDivisor: 2
GridSize: 8
TimelineZoom: 3.799999

[Metadata]
Title:Atama No Taisou
TitleUnicode:Atama No Taisou
Artist:Megurine Luka
ArtistUnicode:Megurine Luka
Creator:Litepastistime
Version:Rain
Source:Vocaloid
Tags:
BeatmapID:470289
BeatmapSetID:198273

[Difficulty]
HPDrainRate:6.2
CircleSize:3
OverallDifficulty:9
ApproachRate:9
SliderMultiplier:1.8
SliderTickRate:2

[Events]
//Background and Video events
0,0,"luka-megurine-hatsune-miku-vocaloid-hi-179905.jpg",0,0
//Break Periods
//Storyboard Layer 0 (Background)
//Storyboard Layer 1 (Fail)
//Storyboard Layer 2 (Pass)
//Storyboard Layer 3 (Foreground)
//Storyboard Sound Samples
//Background Colour Transformations
3,100,56,48,211

[TimingPoints]
2026.08152012071,500,4,2,0,100,1,0
9151,-50,4,2,0,100,0,0
62026,250,4,2,0,100,1,0

[HitObjects]
112,224,9276,5,0,0:0:0:0:
256,224,9526,1,0,0:0:0:0:
400,224,9776,1,0,0:0:0:0:
56,96,10026,6,0,L|248:96,1,180
480,96,10526,6,2,L|280:96,1,180
48,192,11526,1,0,0:0:0:0:
216,192,11776,1,0,0:0:0:0:
352,304,12026,1,2,0:0:0:0:
240,304,12276,1,0,0:0:0:0:
392,304,12526,1,0,0:0:0:0:
192,304,12776,1,0,0:0:0:0:
432,304,13026,1,2,0:0:0:0:
416,176,13526,6,0,L|216:176,1,180,0|0,0:0|0:0,0:0:0:0:
344,176,14026,1,2,0:0:0:0:
80,64,14276,2,0,L|336:320,1,360
440,256,15276,5,0,0:0:0:0:
304,256,15526,1,0,0:0:0:0:
168,256,15776,1,0,0:0:0:0:
400,256,16026,1,2,0:0:0:0:
88,256,16526,1,2,0:0:0:0:
336,256,16776,1,0,0:0:0:0:
256,280,17276,5,0,0:0:0:0:
112,272,17526,1,0,0:0:0:0:
392,280,17776,1,0,0:0:0:0:
292,96,18026,6,0,L|472:96,1,180
228,96,18526,6,2,L|48:96,1,180
72,208,19526,1,0,0:0:0:0:
272,216,19776,1,0,0:0:0:0:
432,216,20026,1,2,0:0:0:0:
272,216,20276,1,0,0:0:0:0:
432,216,20526,1,0,0:0:0:0:
272,216,20776,1,0,0:0:0:0:
112,216,21026,1,2,0:0:0:0:
256,56,21526,5,0,0:0:0:0:
112,56,21776,1,0,0:0:0:0:
256,56,22026,1,2,0:0:0:0:
400,56,22276,1,0,0:0:0:0:
288,56,22526,1,0,0:0:0:0:
192,56,22776,1,0,0:0:0:0:
400,56,23026,1,2,0:0:0:0:
336,120,23276,5,0,0:0:0:0:
208,120,23526,1,0,0:0:0:0:
80,120,23776,1,0,0:0:0:0:
336,120,24026,1,2,0:0:0:0:
80,120,24526,1,8,0:0:0:0:
448,128,25026,1,8,0:0:0:0:
64,256,26026,6,2,L|328:248,2,180,0|0|0,0:0|0:0|0:0,0:0:0:0:
456,248,26776,2,0,L|80:144,1,360
456,176,27526,2,2,L|256:176,1,180
112,312,28026,6,0,L|304:312,1,180,0|0,0:0|0:0,0:0:0:0:
40,312,28526,1,0,0:0:0:0:
424,256,28776,2,0,L|112:64,1,360
40,216,29526,2,0,L|224:216,1,180
472,224,30026,6,0,L|280:224,2,180,0|0|0,0:0|0:0|0:0,0:0:0:0:
120,224,30776,1,2,0:0:0:0:
56,160,31276,5,0,0:0:0:0:
304,152,31526,1,0,0:0:0:0:
128,160,31776,1,0,0:0:0:0:
400,152,32026,1,0,0:0:0:0:
480,200,32526,5,0,0:0:0:0:
40,208,33026,1,0,0:0:0:0:
480,200,33526,1,2,0:0:0:0:
408,272,34026,6,0,L|32:272,1,360
248,272,34776,1,2,0:0:0:0:
416,208,35276,2,2,L|224:208,2,180,0|0|0,0:0|0:0|0:0,0:0:0:0:
416,208,36026,1,0,0:0:0:0:
56,208,36276,1,0,0:0:0:0:
120,208,36526,1,0,0:0:0:0:
472,208,36776,1,2,0:0:0:0:
360,208,37276,5,2,0:0:0:0:
176,208,37526,1,0,0:0:0:0:
304,208,37776,1,0,0:0:0:0:
120,208,38026,1,2,0:0:0:0:
424,208,38276,1,0,0:0:0:0:
56,208,38526,1,0,0:0:0:0:
480,208,38776,1,2,0:0:0:0:
352,48,39276,6,2,L|512:176,1,180
200,216,39776,2,2,L|294:62,1,180
64,64,40276,2,2,L|280:168,1,180,0|0,0:0|0:0,0:0:0:0:
464,56,40776,2,2,L|362:204,1,180
288,296,41526,6,0,L|64:296,1,180
448,280,42026,1,0,0:0:0:0:
216,240,42276,1,0,0:0:0:0:
336,216,42526,1,0,0:0:0:0:
64,384,42776,2,2,L|464:8,1,540,0|0,0:0|0:0,0:0:0:0:
432,240,44026,5,0,0:0:0:0:
136,240,44276,1,0,0:0:0:0:
328,240,44526,1,0,0:0:0:0:
48,240,44776,1,0,0:0:0:0:
432,240,45026,1,0,0:0:0:0:
128,240,45526,6,2,L|320:240,1,180
48,288,46026,2,0,L|228:288,1,180
224,240,46776,1,0,0:0:0:0:
416,136,47276,2,0,L|236:136,1,180,0|0,0:0|0:0,0:0:0:0:
496,72,47776,2,2,L|304:72,1,180
184,208,48526,1,2,0:0:0:0:
352,200,48776,1,0,0:0:0:0:
40,64,49276,5,0,0:0:0:0:
360,64,49526,1,0,0:0:0:0:
208,64,49776,1,0,0:0:0:0:
480,64,50026,1,0,0:0:0:0:
80,128,50276,2,2,L|272:128,2,180,0|0|0,0:0|0:0|0:0,0:0:0:0:
400,128,51526,1,8,0:0:0:0:
216,200,52026,6,0,L|24:200,4,180,0|0|0|0|0,0:0|0:0|0:0|0:0|0:0,0:0:0:0:
120,304,53526,5,0,0:0:0:0:
368,304,53776,1,0,0:0:0:0:
120,304,54026,1,2,0:0:0:0:
248,304,54276,1,0,0:0:0:0:
488,200,54526,2,2,L|288:200,2,180,0|0|0,0:0|0:0|0:0,0:0:0:0:
272,296,55276,1,0,0:0:0:0:
160,296,55526,1,0,0:0:0:0:
40,184,55776,5,8,0:0:0:0:
352,184,56026,1,8,0:0:0:0:
256,192,57026,5,0,0:0:0:0:
256,240,58026,1,8,0:0:0:0:
488,176,58526,1,8,0:0:0:0:
40,176,59026,1,8,0:0:0:0:
256,192,60026,12,0,61526,0:0:0:0:
464,256,62026,5,0,0:0:0:0:
192,256,62276,1,0,0:0:0:0:
360,256,62526,1,0,0:0:0:0:
360,336,62776,1,0,0:0:0:0:
280,336,63026,1,0,0:0:0:0:
48,336,63276,1,0,0:0:0:0:
432,336,63526,1,0,0:0:0:0:
216,216,63776,6,8,L|146:216,1,70,0|0,0:0|0:0,0:0:0:0:
256,64,64026,1,8,0:0:0:0:
360,72,64276,1,0,0:0:0:0:
472,72,64526,5,0,0:0:0:0:
184,128,64776,1,0,0:0:0:0:
304,136,65026,1,0,0:0:0:0:
88,128,65276,1,0,0:0:0:0:
88,184,65526,1,8,0:0:0:0:
480,152,65651,1,8,0:0:0:0:
480,208,65901,5,8,0:0:0:0:
88,240,66026,1,8,0:0:0:0:
288,320,66276,5,0,0:0:0:0:
448,288,66526,1,0,0:0:0:0:
232,240,66776,1,0,0:0:0:0:
56,240,67026,1,0,0:0:0:0:
128,328,67276,1,0,0:0:0:0:
344,320,67526,1,0,0:0:0:0:
416,208,67776,1,8,0:0:0:0:
224,200,67901,1,8,0:0:0:0:
416,208,68026,1,8,0:0:0:0:
208,96,68276,5,0,0:0:0:0:
384,96,68526,1,0,0:0:0:0:
104,96,68776,1,0,0:0:0:0:
312,176,69026,6,2,L|512:80,1,180
32,104,69526,2,2,L|216:184,1,180
448,232,70026,1,0,0:0:0:0:
272,232,70276,1,0,0:0:0:0:
88,232,70526,1,0,0:0:0:0:
272,312,70776,5,0,0:0:0:0:
88,312,71026,1,0,0:0:0:0:
272,384,71276,1,0,0:0:0:0:
472,208,71526,1,0,0:0:0:0:
48,184,71776,1,8,0:0:0:0:
256,184,71901,1,8,0:0:0:0:
480,192,72026,1,8,0:0:0:0:
128,96,72276,5,0,0:0:0:0:
456,96,72526,1,0,0:0:0:0:
456,96,72776,1,0,0:0:0:0:
32,96,73026,1,0,0:0:0:0:
336,96,73276,1,0,0:0:0:0:
104,96,73526,1,8,0:0:0:0:
456,96,73651,1,8,0:0:0:0:
456,160,73901,5,8,0:0:0:0:
104,160,74026,1,8,0:0:0:0:
368,224,74276,1,0,0:0:0:0:
200,224,74526,1,0,0:0:0:0:
368,224,74776,1,0,0:0:0:0:
200,224,75026,1,0,0:0:0:0:
368,224,75276,1,0,0:0:0:0:
200,224,75526,1,0,0:0:0:0:
472,224,75776,5,8,0:0:0:0:
56,224,75901,1,8,0:0:0:0:
472,224,76026,1,8,0:0:0:0:
280,232,76276,1,0,0:0:0:0:
192,152,76526,1,0,0:0:0:0:
344,152,76651,1,0,0:0:0:0:
192,152,76776,1,0,0:0:0:0:
344,152,76901,1,0,0:0:0:0:
192,152,77026,1,0,0:0:0:0:
344,152,77151,1,0,0:0:0:0:
104,208,77276,6,8,L|160:208,4,45,0|0|0|0|0,0:0|0:0|0:0|0:0|0:0,0:0:0:0:
224,216,77651,1,0,0:0:0:0:
312,216,77776,2,8,L|360:216,3,45,0|0|0|0,0:0|0:0|0:0|0:0,0:0:0:0:
456,304,78026,6,2,L|256:304,1,180
32,56,78526,2,2,L|216:56,1,180
96,176,79026,1,0,0:0:0:0:
368,176,79276,1,0,0:0:0:0:
96,176,79526,1,2,0:0:0:0:
248,184,80026,5,0,0:0:0:0:
248,184,80276,1,0,0:0:0:0:
248,184,80526,1,0,0:0:0:0:
248,184,80776,1,0,0:0:0:0:
256,192,81026,12,0,81401,0:0:0:0:
208,272,81651,5,0,0:0:0:0:
368,272,81776,1,0,0:0:0:0:
288,272,81901,1,0,0:0:0:0:
448,272,82026,5,2,0:0:0:0:
256,184,82151,1,0,0:0:0:0:
160,184,82276,1,2,0:0:0:0:
56,184,82401,1,2,0:0:0:0:
424,192,82776,2,0,L|312:192,1,90
256,192,83026,1,8,0:0:0:0:
128,192,83151,5,0,0:0:0:0:
304,192,83276,1,0,0:0:0:0:
128,192,83401,1,0,0:0:0:0:
304,192,83526,1,2,0:0:0:0:
64,104,83776,6,0,L|184:104,1,90
64,104,84026,1,2,0:0:0:0:
240,96,84151,1,2,0:0:0:0:
416,96,84401,1,8,0:0:0:0:
240,104,84651,2,0,L|336:104,2,90,0|0|0,0:0|0:0|0:0,0:0:0:0:
416,96,85026,1,2,0:0:0:0:
432,192,85276,2,8,L|264:192,1,90
56,184,85651,5,0,0:0:0:0:
160,184,85776,1,0,0:0:0:0:
256,184,85901,1,0,0:0:0:0:
448,272,86026,5,8,0:0:0:0:
288,272,86151,1,8,0:0:0:0:
368,272,86276,1,0,0:0:0:0:
208,272,86401,1,2,0:0:0:0:
56,112,86776,6,0,L|152:112,1,90,0|0,0:0|0:0,0:0:0:0:
264,112,87026,1,8,0:0:0:0:
144,112,87151,1,8,0:0:0:0:
264,112,87276,1,2,0:0:0:0:
368,112,87401,1,8,0:0:0:0:
264,112,87526,1,2,0:0:0:0:
224,288,87776,6,2,L|128:224,1,90,0|0,0:0|0:0,0:0:0:0:
96,200,88026,1,2,0:0:0:0:
280,296,88151,1,8,0:0:0:0:
344,288,88276,6,2,L|440:224,1,90,0|0,0:0|0:0,0:0:0:0:
472,208,88526,1,8,0:0:0:0:
440,88,88651,2,0,L|344:88,1,90,0|0,0:0|0:0,0:0:0:0:
72,80,88901,2,0,L|168:80,1,90
256,144,89276,1,0,0:0:0:0:
216,144,89526,1,8,0:0:0:0:
272,304,90026,6,0,L|168:304,1,90
374,232,90276,2,0,L|464:232,1,90
96,176,90526,2,0,L|-8:176,1,90
312,88,90776,2,0,L|402:88,1,90
64,32,91026,6,0,L|154:32,1,90
456,104,91276,2,0,L|366:104,1,90
192,184,91526,2,0,L|282:184,1,90
96,240,91776,2,0,L|186:240,1,90
344,312,92026,6,0,L|254:312,1,90,0|0,0:0|0:0,0:0:0:0:
488,280,92276,2,0,L|376:280,1,90
152,112,92526,2,0,L|256:112,1,90
24,40,92776,2,0,L|144:40,1,90
256,296,93026,6,0,L|256:16,2,270,0|0|0,0:0|0:0|0:0,0:0:0:0:
176,200,94026,6,0,L|80:200,1,90
472,208,94276,2,0,L|368:208,1,90
216,120,94526,2,0,L|320:120,1,90
120,56,94776,2,0,L|224:56,1,90
456,56,95026,6,0,L|352:56,1,90
120,56,95276,2,0,L|232:56,1,90
24,136,95526,2,0,L|128:136,1,90,0|0,0:0|0:0,0:0:0:0:
464,144,95776,2,0,L|352:144,1,90
160,240,96026,6,0,L|264:240,1,90
432,288,96276,2,0,L|328:288,1,90,0|0,0:0|0:0,0:0:0:0:
144,296,96526,2,0,L|248:296,1,90
24,232,96776,2,0,L|128:232,1,90
400,224,97026,6,0,L|304:224,1,90
48,136,97276,2,0,L|152:136,1,90
456,88,97651,6,0,L|312:88,2,90,0|0|0,0:0|0:0|0:0,0:0:0:0:
256,88,98026,1,0,0:0:0:0:
344,88,98151,1,0,0:0:0:0:
176,88,98276,1,0,0:0:0:0:
80,88,98401,1,2,0:0:0:0:
352,208,98776,6,2,L|208:208,1,90
472,208,99026,2,8,L|360:208,2,90,0|0|0,0:0|0:0|0:0,0:2:0:0:
120,256,99526,2,8,L|216:256,2,90,0|0|0,0:0|0:0|0:0,0:0:0:0:
456,296,100026,5,0,0:0:0:0:
320,296,100151,1,0,0:0:0:0:
200,296,100276,1,0,0:0:0:0:
72,296,100401,1,2,0:0:0:0:
368,84,100776,6,0,L|482:84,1,90
294,146,101026,2,0,L|393:147,1,90
222,210,101276,2,0,L|323:210,1,90
160,272,101526,2,0,L|257:271,1,90
92,328,101776,2,0,L|188:327,1,90,0|0,0:0|0:0,0:0:0:0:
472,320,102026,5,0,0:0:0:0:
336,320,102151,1,0,0:0:0:0:
192,320,102276,1,0,0:0:0:0:
48,320,102401,1,2,0:0:0:0:
432,160,102776,6,0,L|320:160,1,90
96,208,103026,2,8,L|208:208,2,90,0|0|0,0:0|0:0|0:0,0:0:0:0:
400,248,103526,2,8,L|296:248,2,90,0|0|0,0:0|0:0|0:0,0:0:0:0:
72,328,104026,5,0,0:0:0:0:
224,328,104151,1,0,0:0:0:0:
352,328,104276,1,0,0:0:0:0:
488,328,104401,1,2,0:0:0:0:
64,176,104776,6,2,L|192:176,1,90
464,80,105026,2,2,L|360:80,1,90
200,112,105276,2,2,L|320:112,1,90
56,112,105526,1,2,0:0:0:0:
200,312,106026,6,0,L|80:312,1,90
360,312,106276,2,0,L|480:312,1,90
200,312,106526,1,8,0:0:0:0:
264,200,106776,5,0,0:0:0:0:
256,160,107026,2,0,L|144:160,2,90,0|0|0,0:0|0:0|0:0,0:0:0:0:
48,160,107401,1,0,0:0:0:0:
472,168,107526,1,2,0:0:0:0:
264,320,107776,5,2,0:0:0:0:
208,264,108026,1,2,0:0:0:0:
336,272,108151,1,2,0:0:0:0:
144,264,108276,1,2,0:0:0:0:
416,272,108401,1,8,0:0:0:0:
80,264,108526,1,8,0:0:0:0:
264,160,108776,5,2,0:0:0:0:
184,160,109026,1,2,0:0:0:0:
320,160,109151,1,2,0:0:0:0:
128,160,109276,1,2,0:0:0:0:
64,160,109401,1,0,0:0:0:0:
384,160,109526,1,8,0:0:0:0:
264,160,109776,5,2,0:0:0:0:
360,160,110026,1,0,0:0:0:0:
152,160,110151,1,8,0:0:0:0:
424,160,110276,1,8,0:0:0:0:
200,160,110401,1,0,0:0:0:0:
360,160,110526,1,2,0:0:0:0:
328,304,110776,6,2,L|424:304,1,90,0|0,0:0|0:0,0:0:0:0:
464,304,111026,1,0,0:0:0:0:
376,304,111151,1,0,0:0:0:0:
280,304,111276,1,0,0:0:0:0:
328,304,111401,1,0,0:0:0:0:
216,304,111526,1,2,0:0:0:0:
80,256,111776,5,2,0:0:0:0:
144,256,112026,1,2,0:0:0:0:
288,256,112151,1,2,0:0:0:0:
176,256,112276,1,2,0:0:0:0:
320,256,112401,1,0,0:0:0:0:
208,256,112526,1,0,0:0:0:0:
352,256,112651,5,0,0:0:0:0:
248,256,112776,1,0,0:0:0:0:
384,256,112901,1,8,0:0:0:0:
256,256,113026,1,8,0:0:0:0:
488,168,113276,1,0,0:0:0:0:
48,160,113526,1,2,0:0:0:0:
240,160,114026,6,0,L|368:160,2,90,0|0|0,0:0|0:0|0:0,0:0:0:0:
448,160,114401,1,0,0:0:0:0:
360,160,114526,1,8,0:0:0:0:
240,160,114776,1,0,0:0:0:0:
38,160,115026,2,0,L|128:160,4,90,0|0|0|0|0,0:0|0:0|0:0|0:0|0:0,0:0:0:0:
320,256,115776,5,0,0:0:0:0:
94,264,116026,2,0,L|184:264,2,90,0|0|0,0:0|0:0|0:0,0:0:0:0:
232,256,116401,1,0,0:0:0:0:
368,256,116526,1,8,0:0:0:0:
464,176,116776,6,0,L|256:176,1,180
384,176,117151,1,0,0:0:0:0:
280,176,117276,1,0,0:0:0:0:
384,176,117401,1,2,0:0:0:0:
488,176,117526,1,2,0:0:0:0:
48,160,117776,6,2,L|248:160,1,180
136,160,118151,1,2,0:0:0:0:
216,160,118276,1,2,0:0:0:0:
288,160,118401,1,8,0:0:0:0:
48,160,118526,1,2,0:0:0:0:
280,64,118776,6,0,L|176:64,2,90,0|0|0,0:0|0:0|0:0,0:0:0:0:
136,64,119151,1,0,0:0:0:0:
40,64,119276,1,0,0:0:0:0:
224,64,119401,1,8,0:0:0:0:
328,64,119526,1,2,0:0:0:0:
448,248,119776,6,2,L|232:248,1,180
120,248,120151,1,2,0:0:0:0:
256,248,120276,1,8,0:0:0:0:
120,248,120401,1,2,0:0:0:0:
256,248,120526,1,8,0:0:0:0:
192,248,120651,5,2,0:0:0:0:
48,248,120776,1,8,0:0:0:0:
192,248,120901,1,2,0:0:0:0:
48,248,121026,1,8,0:0:0:0:
48,152,121276,1,8,0:0:0:0:
464,160,121526,1,2,0:0:0:0:
80,192,121776,5,0,0:0:0:0:
256,192,121901,1,2,0:0:0:0:
384,192,122026,1,8,0:0:0:0:
400,280,122401,5,0,0:0:0:0:
216,280,122526,1,2,0:0:0:0:
400,280,122651,1,2,0:0:0:0:
56,280,122901,1,2,0:0:0:0:
320,72,123526,6,8,L|112:72,2,180,0|0|0,0:0|0:0|0:0,0:0:0:0:
448,80,124401,1,0,0:0:0:0:
208,80,124526,1,2,0:0:0:0:
328,80,124651,1,2,0:0:0:0:
40,80,124901,1,0,0:0:0:0:
192,288,125151,5,0,0:0:0:0:
144,288,125276,1,2,0:0:0:0:
240,288,125401,1,8,0:0:0:0:
96,288,125526,1,2,0:0:0:0:
304,288,125651,1,8,0:0:0:0:
128,224,125776,1,2,0:0:0:0:
272,232,125901,1,8,0:0:0:0:
200,224,126026,1,2,0:0:0:0:
312,144,126276,5,0,0:0:0:0:
144,144,126401,1,0,0:0:0:0:
448,144,126651,1,8,0:0:0:0:
88,224,126901,6,0,L|208:224,1,90
280,232,127276,1,0,0:0:0:0:
32,224,127401,1,2,0:0:0:0:
216,224,127651,1,8,0:0:0:0:
376,232,127901,6,0,L|472:232,1,90
224,232,128276,1,0,0:0:0:0:
448,232,128401,1,2,0:0:0:0:
32,232,128651,1,8,0:0:0:0:
312,168,128901,6,0,L|200:168,1,90
496,168,129276,1,0,0:0:0:0:
352,168,129401,1,2,0:0:0:0:
160,160,129651,5,8,0:0:0:0:
240,384,129901,2,0,L|240:16,1,360
136,208,131026,1,2,0:0:0:0:
312,208,131151,1,2,0:0:0:0:
136,208,131276,1,2,0:0:0:0:
312,208,131401,1,2,0:0:0:0:
136,208,131526,1,2,0:0:0:0:
112,240,131651,5,8,0:0:0:0:
216,240,131776,1,8,0:0:0:0:
312,240,131901,1,8,0:0:0:0:
456,320,132026,5,2,0:0:0:0:
296,320,132151,1,8,0:0:0:0:
376,320,132276,1,2,0:0:0:0:
216,320,132401,1,8,0:0:0:0:
32,168,132776,6,0,L|136:168,1,90
200,176,133026,1,8,0:0:0:0:
344,176,133151,1,0,0:0:0:0:
144,176,133276,1,0,0:0:0:0:
272,176,133401,1,0,0:0:0:0:
416,176,133526,1,0,0:0:0:0:
64,272,133776,6,2,L|176:272,1,90
368,272,134026,2,0,L|272:272,1,90
480,272,134401,5,8,0:0:0:0:
480,272,134651,1,8,0:0:0:0:
240,272,134776,1,8,0:0:0:0:
24,272,134901,1,2,0:0:0:0:
320,272,135026,1,2,0:0:0:0:
72,272,135276,6,0,L|168:272,1,90,0|0,0:0|0:0,0:0:0:0:
152,88,135651,5,0,0:0:0:0:
296,88,135776,1,0,0:0:0:0:
456,88,135901,1,2,0:0:0:0:
296,152,136026,1,0,0:0:0:0:
456,152,136151,1,2,0:0:0:0:
296,208,136276,1,0,0:0:0:0:
152,208,136401,1,2,0:0:0:0:
344,304,136776,6,0,L|200:304,1,90
472,304,137026,1,0,0:0:0:0:
280,304,137151,1,2,0:0:0:0:
376,304,137276,1,0,0:0:0:0:
144,304,137401,1,0,0:0:0:0:
280,304,137526,1,2,0:0:0:0:
48,208,137776,6,2,L|152:208,2,90,0|0|0,0:0|0:0|0:0,0:0:0:0:
240,208,138151,1,0,0:0:0:0:
416,216,138276,2,2,L|320:216,2,90,0|0|0,0:0|0:0|0:0,0:0:0:0:
240,208,138651,1,0,0:0:0:0:
408,216,138776,2,2,L|272:216,2,90,0|0|0,0:0|0:0|0:0,0:0:0:0:
240,216,139276,1,8,0:0:0:0:
48,216,139526,1,8,0:0:0:0:
112,216,139651,5,0,0:0:0:0:
224,216,139776,1,0,0:0:0:0:
344,216,139901,1,0,0:0:0:0:
224,264,140026,1,2,0:0:0:0:
368,272,140151,1,0,0:0:0:0:
192,312,140276,1,2,0:0:0:0:
416,312,140401,1,2,0:0:0:0:
96,296,140776,6,0,L|192:296,1,90,2|0,0:0|0:0,0:0:0:0:
24,296,141026,1,2,0:0:0:0:
208,296,141151,1,2,0:0:0:0:
360,296,141276,1,2,0:0:0:0:
144,296,141401,1,0,0:0:0:0:
472,296,141526,1,8,0:0:0:0:
208,128,141776,6,2,L|304:128,1,90
72,128,142026,1,0,0:0:0:0:
256,128,142151,1,0,0:0:0:0:
440,136,142276,1,2,0:0:0:0:
72,128,142401,1,2,0:0:0:0:
32,208,142651,5,2,0:0:0:0:
464,216,142776,1,2,0:0:0:0:
32,208,142901,1,2,0:0:0:0:
464,216,143026,1,2,0:0:0:0:
464,216,143276,1,8,0:0:0:0:
32,208,143401,1,8,0:0:0:0:
408,184,143651,5,0,0:0:0:0:
256,184,143776,1,0,0:0:0:0:
112,184,143901,1,2,0:0:0:0:
328,184,144026,1,0,0:0:0:0:
184,184,144151,1,0,0:0:0:0:
328,184,144276,1,2,0:0:0:0:
184,184,144401,1,2,0:0:0:0:
472,304,144776,6,2,L|368:304,1,90
136,304,145026,2,0,L|232:304,4,90,0|0|0|0|0,0:0|0:0|0:0|0:0|0:0,0:0:0:0:
184,224,145776,5,0,0:0:0:0:
360,224,145901,1,2,0:0:0:0:
184,224,146026,1,2,0:0:0:0:
360,216,146151,1,0,0:0:0:0:
272,224,146276,1,2,0:0:0:0:
456,224,146401,1,2,0:0:0:0:
272,224,146526,1,2,0:0:0:0:
104,224,146651,1,0,0:0:0:0:
272,224,146776,1,2,0:0:0:0:
456,224,146901,1,2,0:0:0:0:
104,224,147026,1,2,0:0:0:0:
272,224,147276,5,0,0:0:0:0:
272,224,147526,1,0,0:0:0:0:
272,224,147776,1,2,0:0:0:0:
32,160,148026,6,0,L|128:160,1,90,0|0,0:0|0:0,0:0:0:0:
384,120,148276,2,0,L|272:120,1,90
480,176,148526,2,0,L|400:240,1,90
32,160,148776,2,0,L|104:216,1,90
312,96,149026,6,0,L|192:96,1,90
480,96,149276,2,0,L|352:96,1,90
112,80,149526,2,0,L|24:136,1,90
320,88,149776,2,0,L|416:88,1,90
16,176,150026,6,0,L|120:176,1,90,0|0,0:0|0:0,0:0:0:0:
424,176,150276,2,0,L|520:176,1,90,0|0,0:0|0:0,0:0:0:0:
184,288,150526,2,0,L|72:288,1,90
272,288,150776,2,0,L|368:288,1,90
224,336,151026,6,0,B|296:240|296:240|168:144|168:144|296:64|296:64|224:-32,1,540
456,176,152026,6,0,L|328:176,1,90
40,176,152276,2,0,L|136:176,1,90
416,56,152526,2,0,L|288:56,1,90
96,48,152776,2,0,L|0:48,1,90
32,272,153026,6,0,L|128:272,1,90,0|0,0:0|0:0,0:0:0:0:
472,272,153276,2,0,L|376:272,1,90
240,208,153526,2,0,L|344:208,1,90
32,200,153776,2,0,L|128:200,1,90
480,152,154026,6,0,L|360:152,1,90
152,144,154276,2,0,L|256:144,1,90
16,88,154526,2,0,L|120:88,1,90,0|0,0:0|0:0,0:0:0:0:
480,80,154776,2,0,L|376:80,1,90
80,256,155026,6,0,L|184:256,1,90,0|0,0:0|0:0,0:0:0:0:
392,256,155276,2,0,L|280:256,1,90
256,248,155526,2,0,L|256:144,1,90
352,208,156026,6,0,L|216:208,1,90
200,208,156276,1,2,0:0:0:0:
448,144,156401,2,0,L|336:144,1,90
288,144,156651,1,0,0:0:0:0:
448,144,156776,2,2,L|184:144,1,180
160,144,157151,5,2,0:0:0:0:
288,144,157276,1,2,0:0:0:0:
96,144,157401,1,0,0:0:0:0:
288,144,157526,1,0,0:0:0:0:
280,320,157776,5,2,0:0:0:0:
184,320,158026,1,0,0:0:0:0:
112,320,158151,1,2,0:0:0:0:
40,320,158276,1,2,0:0:0:0:
160,320,158401,1,0,0:0:0:0:
8,320,158526,1,2,0:0:0:0:
136,320,158651,1,2,0:0:0:0:
280,320,158776,1,0,0:0:0:0:
288,248,159026,5,2,0:0:0:0:
384,248,159151,1,0,0:0:0:0:
192,248,159276,1,8,0:0:0:0:
384,248,159401,1,0,0:0:0:0:
192,248,159526,1,8,0:0:0:0:
96,176,159776,5,2,0:0:0:0:
272,184,160026,1,2,0:0:0:0:
336,184,160151,1,0,0:0:0:0:
392,184,160276,1,0,0:0:0:0:
448,184,160401,1,0,0:0:0:0:
96,176,160526,2,8,L|192:176,1,90
96,176,160776,5,2,0:0:0:0:
456,96,161026,1,2,0:0:0:0:
296,96,161151,1,2,0:0:0:0:
376,96,161276,1,2,0:0:0:0:
216,96,161401,1,0,0:0:0:0:
40,96,161526,1,0,0:0:0:0:
228,256,161776,6,2,L|48:256,1,180
168,256,162151,1,2,0:0:0:0:
296,256,162276,1,2,0:0:0:0:
400,256,162401,1,0,0:0:0:0:
352,256,162526,1,0,0:0:0:0:
232,256,162651,1,2,0:0:0:0:
456,256,162776,1,0,0:0:0:0:
376,256,162901,1,2,0:0:0:0:
264,256,163026,1,0,0:0:0:0:
64,256,163276,5,8,0:0:0:0:
456,256,163526,1,2,0:0:0:0:
424,152,164026,6,0,L|320:152,3,90,0|0|0|0,0:0|0:0|0:0|0:0,0:0:0:0:
216,152,164526,1,2,0:0:0:0:
48,152,164776,1,0,0:0:0:0:
64,264,165026,5,2,0:0:0:0:
224,264,165151,1,0,0:0:0:0:
144,264,165276,1,2,0:0:0:0:
320,264,165401,1,0,0:0:0:0:
464,264,165526,1,2,0:0:0:0:
464,112,165776,6,0,L|272:112,1,180
384,112,166151,1,2,0:0:0:0:
256,112,166276,1,2,0:0:0:0:
144,112,166401,1,0,0:0:0:0:
320,112,166526,1,8,0:0:0:0:
48,208,166776,5,0,0:0:0:0:
336,256,167026,2,2,L|224:256,2,90,0|0|0,0:0|0:0|0:0,0:0:0:0:
160,256,167401,1,0,0:0:0:0:
32,256,167526,1,8,0:0:0:0:
464,144,167776,6,2,L|272:144,1,180
368,144,168151,1,0,0:0:0:0:
272,144,168276,1,8,0:0:0:0:
168,144,168401,1,0,0:0:0:0:
80,144,168526,1,2,0:0:0:0:
128,144,168651,1,2,0:0:0:0:
224,144,168776,1,2,0:0:0:0:
320,144,169026,6,2,L|432:144,1,90
410,144,169276,1,2,0:0:0:0:
248,208,169401,1,0,0:0:0:0:
120,208,169526,1,0,0:0:0:0:
80,320,169776,6,2,L|288:320,1,180
168,320,170151,1,2,0:0:0:0:
376,320,170276,1,2,0:0:0:0:
280,320,170401,1,0,0:0:0:0:
472,320,170526,1,0,0:0:0:0:
336,320,170651,5,2,0:0:0:0:
224,320,170776,1,2,0:0:0:0:
80,320,170901,1,0,0:0:0:0:
80,256,171026,1,2,0:0:0:0:
328,256,171276,1,8,0:0:0:0:
80,256,171526,1,8,0:0:0:0:
88,200,171776,6,0,L|256:200,1,90
328,208,172026,1,8,0:0:0:0:
440,280,172401,2,0,L|336:280,2,90,0|0|0,0:0|0:0|0:0,0:0:0:0:
200,288,172901,1,2,0:0:0:0:
64,200,173526,5,8,0:0:0:0:
256,200,173776,1,0,0:0:0:0:
448,208,174026,1,2,0:0:0:0:
448,152,174526,5,0,0:0:0:0:
72,128,174651,1,2,0:0:0:0:
280,136,174901,1,8,0:0:0:0:
184,312,175151,5,2,0:0:0:0:
288,312,175276,1,0,0:0:0:0:
128,248,175401,1,2,0:0:0:0:
232,248,175526,1,2,0:0:0:0:
88,168,175651,5,0,0:0:0:0:
192,168,175776,1,8,0:0:0:0:
32,104,175901,1,8,0:0:0:0:
336,80,176026,5,0,0:0:0:0:
432,136,176276,1,0,0:0:0:0:
240,136,176401,1,2,0:0:0:0:
496,136,176651,1,8,0:0:0:0:
352,216,176901,5,0,0:0:0:0:
176,224,177026,1,2,0:0:0:0:
80,176,177276,1,0,0:0:0:0:
440,176,177401,1,2,0:0:0:0:
264,224,177651,1,0,0:0:0:0:
224,256,177901,5,0,0:0:0:0:
40,256,178026,1,2,0:0:0:0:
320,248,178276,1,0,0:0:0:0:
488,248,178401,1,2,0:0:0:0:
264,256,178651,1,0,0:0:0:0:
88,96,178901,6,0,L|192:96,1,90
424,88,179276,2,0,L|320:88,1,90
488,88,179651,1,2,0:0:0:0:
240,208,179901,1,2,0:0:0:0:
496,336,180026,2,2,L|-24:-24,1,630
16,40,181026,5,2,0:0:0:0:
192,40,181151,1,2,0:0:0:0:
16,96,181276,1,2,0:0:0:0:
192,96,181401,1,2,0:0:0:0:
16,152,181526,1,2,0:0:0:0:
416,176,181651,6,2,L|256:176,2,90,0|0|0,0:0|0:0|0:0,0:0:0:0:
248,176,182026,1,0,0:0:0:0:
120,176,182151,1,0,0:0:0:0:
184,176,182276,1,2,0:0:0:0:
320,176,182401,1,2,0:0:0:0:
448,264,182776,5,0,0:0:0:0:
176,264,182901,1,2,0:0:0:0:
240,264,183026,1,8,0:0:0:0:
304,264,183151,1,0,0:0:0:0:
368,264,183276,1,2,0:0:0:0:
240,264,183401,1,0,0:0:0:0:
104,264,183526,1,2,0:0:0:0:
112,88,183776,6,2,L|264:88,1,90
48,88,184026,1,2,0:0:0:0:
208,88,184151,1,2,0:0:0:0:
408,88,184401,1,8,0:0:0:0:
162,184,184651,6,0,L|72:184,1,90
278,184,184901,2,2,L|368:184,1,90
368,184,185276,1,0,0:0:0:0:
72,184,185401,1,8,0:0:0:0:
224,96,185651,6,0,L|344:96,2,90,0|0|0,0:0|0:0|0:0,0:0:0:0:
376,96,186026,1,0,0:0:0:0:
440,96,186151,1,0,0:0:0:0:
320,96,186276,1,2,0:0:0:0:
224,96,186401,1,2,0:0:0:0:
336,160,186776,5,0,0:0:0:0:
296,160,186901,1,0,0:0:0:0:
368,160,187026,1,0,0:0:0:0:
264,160,187151,1,0,0:0:0:0:
400,160,187276,1,0,0:0:0:0:
224,160,187401,1,0,0:0:0:0:
440,160,187526,1,0,0:0:0:0:
128,216,187776,6,0,L|256:216,2,90,0|0|0,0:0|0:0|0:0,0:0:0:0:
16,216,188151,1,0,0:0:0:0:
176,216,188276,1,0,0:0:0:0:
72,216,188401,1,0,0:0:0:0:
232,216,188526,1,0,0:0:0:0:
376,216,188651,5,0,0:0:0:0:
304,216,188776,1,0,0:0:0:0:
440,216,188901,1,0,0:0:0:0:
248,216,189026,1,0,0:0:0:0:
440,296,189276,1,0,0:0:0:0:
72,288,189526,1,0,0:0:0:0:
224,296,189651,6,0,L|128:296,2,90,0|0|0,0:0|0:0|0:0,0:0:0:0:
72,288,190026,1,0,0:0:0:0:
168,288,190151,1,0,0:0:0:0:
280,288,190276,1,0,0:0:0:0:
120,288,190401,1,0,0:0:0:0:
448,224,190776,5,0,0:0:0:0:
176,200,190901,1,0,0:0:0:0:
392,208,191026,1,0,0:0:0:0:
224,208,191151,1,0,0:0:0:0:
360,208,191276,1,0,0:0:0:0:
248,208,191401,1,0,0:0:0:0:
304,208,191526,1,0,0:0:0:0:
272,128,191776,5,0,0:0:0:0:
80,128,191901,1,0,0:0:0:0:
208,128,192026,1,0,0:0:0:0:
328,128,192151,1,0,0:0:0:0:
440,128,192276,1,0,0:0:0:0:
272,128,192401,1,0,0:0:0:0:
72,216,192651,6,0,L|176:216,1,90
376,224,192901,2,0,L|264:224,1,90
16,144,193276,2,0,L|112:144,1,90
200,296,193651,5,0,0:0:0:0:
320,296,193776,1,0,0:0:0:0:
440,304,193901,1,0,0:0:0:0:
200,296,194026,1,0,0:0:0:0:
88,296,194151,1,0,0:0:0:0:
200,296,194276,1,0,0:0:0:0:
88,296,194401,1,0,0:0:0:0:
288,176,194776,5,0,0:0:0:0:
48,176,194901,1,0,0:0:0:0:
264,176,195026,1,0,0:0:0:0:
72,176,195151,1,0,0:0:0:0:
240,176,195276,1,0,0:0:0:0:
96,176,195401,1,0,0:0:0:0:
168,176,195526,1,0,0:0:0:0:
362,240,195776,6,0,L|272:240,2,90,0|0|0,0:0|0:0|0:0,0:0:0:0:
192,280,196151,1,0,0:0:0:0:
360,304,196276,2,0,L|264:304,2,90,0|0|0,0:0|0:0|0:0,0:0:0:0:
192,280,196651,1,0,0:0:0:0:
360,240,196776,2,0,L|248:240,2,90,0|0|0,0:0|0:0|0:0,0:0:0:0:
88,224,197276,1,0,0:0:0:0:
384,216,197526,1,0,0:0:0:0:
256,240,197776,1,0,0:0:0:0:
176,144,198026,6,0,L|176:24,1,90
416,320,198276,2,0,L|415:216,1,90
80,120,198526,2,0,L|79:232,1,90
360,16,198776,2,0,L|359:136,1,90,0|0,0:0|0:0,0:0:0:0:
144,304,199026,6,0,L|144:200,1,90
272,208,199276,2,0,L|272:104,1,90
152,152,199526,2,0,L|151:40,1,90
368,224,199776,2,0,L|367:128,1,90
192,48,200026,6,0,L|191:167,1,90,0|0,0:0|0:0,0:0:0:0:
256,311,200276,2,0,L|256:208,1,90
152,136,200526,2,0,L|152:240,1,90
304,40,200776,2,0,L|303:176,1,90,0|0,0:0|0:0,0:0:0:0:
256,192,201151,12,0,201776,0:0:0:0:
272,47,202026,6,0,L|272:144,1,90
72,208,202276,2,0,L|71:311,1,90
160,56,202526,2,0,L|160:176,1,90,0|0,0:0|0:0,0:0:0:0:
360,336,202776,2,0,L|360:224,1,90
232,8,203026,6,0,L|232:120,1,90
328,288,203276,2,0,L|327:167,1,90,0|0,0:0|0:0,0:0:0:0:
64,320,203526,2,0,L|63:208,1,90,0|0,0:0|0:0,0:0:0:0:
368,0,203776,2,0,L|368:80,1,90
112,208,204026,6,0,L|112:311,1,90
232,136,204276,2,0,L|232:32,1,90
304,272,204526,2,0,L|303:160,1,90
384,408,204776,2,0,L|384:287,1,90
256,192,205026,12,0,205776,0:0:0:0:
216,114,206026,6,0,L|216:24,1,90,0|0,0:0|0:0,0:0:0:0:
72,224,206276,2,0,L|72:133,1,90
328,192,206526,2,0,L|328:282,1,90
152,96,206776,2,0,L|152:6,1,90,0|0,0:0|0:0,0:0:0:0:
432,120,207026,6,0,L|432:210,1,90
224,232,207276,2,0,L|224:322,1,90
384,144,207526,2,0,L|384:234,1,90
144,214,207776,2,0,L|144:304,1,90
400,136,208026,6,0,L|400:46,1,90,0|0,0:0|0:0,0:0:0:0:
384,234,208276,2,0,L|384:144,1,90
240,248,208525,2,0,L|240:338,1,90
96,176,208776,2,0,L|96:266,1,90
256,192,209026,12,0,209776,0:0:0:0:
384,318,210026,6,0,L|384:408,1,90
304,182,210276,2,0,L|304:272,1,90
232,46,210526,2,0,L|232:136,1,90
64,320,210776,2,0,L|64:230,1,90
456,128,211026,6,0,L|456:38,1,90
136,208,211276,2,0,L|136:298,1,90,0|0,0:0|0:0,0:0:0:0:
368,208,211526,2,0,L|368:298,1,90,0|0,0:0|0:0,0:0:0:0:
232,98,211776,2,0,L|232:8,1,90
352,278,212026,6,0,L|352:368,1,90,0|0,0:0|0:0,0:0:0:0:
160,146,212277,2,0,L|160:56,1,90,0|0,0:0|0:0,0:0:0:0:
199,386,212526,2,0,L|199:296,1,90
272,138,212777,2,0,L|272:48,1,90
256,192,213026,12,0,213776,0:0:0:0:
144,224,214026,6,0,L|288:224,2,90,0|0|0,0:0|0:0|0:0,0:0:0:0:
336,224,214401,1,0,0:0:0:0:
464,216,214651,5,0,0:0:0:0:
344,216,214776,1,0,0:0:0:0:
232,216,214901,1,0,0:0:0:0:
392,144,215026,6,0,L|256:144,1,90,0|0,0:0|0:0,0:0:0:0:
464,144,215276,1,0,0:0:0:0:
216,136,215401,1,0,0:0:0:0:
56,104,215651,5,0,0:0:0:0:
192,104,215776,1,0,0:0:0:0:
56,104,215901,1,0,0:0:0:0:
192,104,216026,1,0,0:0:0:0:
296,104,216151,1,0,0:0:0:0:
416,104,216276,1,0,0:0:0:0:
232,96,216401,1,0,0:0:0:0:
400,256,216651,6,0,L|304:256,2,90,0|0|0,0:0|0:0|0:0,0:0:0:0:
208,256,217026,1,0,0:0:0:0:
64,256,217276,1,0,0:0:0:0:
272,256,217526,1,0,0:0:0:0:
448,256,217776,1,0,0:0:0:0:
248,152,218026,6,0,L|352:152,2,90,0|0|0,0:0|0:0|0:0,0:0:0:0:
440,152,218401,1,0,0:0:0:0:
168,80,218651,1,0,0:0:0:0:
304,80,218776,1,0,0:0:0:0:
168,80,218901,1,0,0:0:0:0:
384,80,219026,2,0,L|480:80,1,90,0|0,0:0|0:0,0:0:0:0:
248,216,219401,1,0,0:0:0:0:
64,216,219651,5,0,0:0:0:0:
216,216,219776,1,0,0:0:0:0:
352,216,219901,1,0,0:0:0:0:
272,216,220026,1,0,0:0:0:0:
432,216,220151,1,0,0:0:0:0:
272,216,220276,1,0,0:0:0:0:
144,216,220401,1,0,0:0:0:0:
80,296,220651,6,0,L|192:296,1,90
344,296,220901,2,0,L|248:296,1,90
432,216,221276,1,0,0:0:0:0:
144,208,221526,1,0,0:0:0:0:
272,216,221776,1,0,0:0:0:0:
72,112,222026,6,0,L|176:112,2,90,0|0|0,0:0|0:0|0:0,0:0:0:0:
240,112,222401,1,0,0:0:0:0:
440,112,222651,5,0,0:0:0:0:
288,104,222776,1,0,0:0:0:0:
160,104,222901,1,0,0:0:0:0:
344,104,223026,1,0,0:0:0:0:
224,104,223151,1,0,0:0:0:0:
104,104,223276,1,0,0:0:0:0:
288,104,223401,1,0,0:0:0:0:
56,216,223651,6,0,L|160:216,2,90,0|0|0,0:0|0:0|0:0,0:0:0:0:
208,216,224026,1,0,0:0:0:0:
272,216,224151,1,0,0:0:0:0:
144,216,224276,1,0,0:0:0:0:
336,216,224401,1,0,0:0:0:0:
328,304,224651,6,0,L|216:304,1,90
472,304,224901,2,0,L|360:304,1,90
136,296,225276,1,0,0:0:0:0:
384,312,225526,1,0,0:0:0:0:
208,304,225776,1,0,0:0:0:0:
256,168,226026,6,0,L|360:168,3,90,0|0|0|0,0:0|0:0|0:0|0:0,0:0:0:0:
464,192,226651,2,0,L|256:192,1,180
464,192,227026,1,0,0:0:0:0:
352,192,227151,1,0,0:0:0:0:
432,192,227276,1,0,0:0:0:0:
232,192,227401,1,0,0:0:0:0:
104,184,227651,6,0,L|208:184,1,90
8,112,227901,2,0,L|128:112,1,90
192,104,228151,1,0,0:0:0:0:
320,104,228276,1,0,0:0:0:0:
176,128,228401,1,0,0:0:0:0:
416,240,228651,6,0,L|320:240,1,90
264,256,228901,1,0,0:0:0:0:
168,256,229026,1,0,0:0:0:0:
240,256,229151,1,0,0:0:0:0:
160,208,229276,1,0,0:0:0:0:
256,208,229401,1,0,0:0:0:0:
136,208,229526,1,0,0:0:0:0:
256,288,229651,5,0,0:0:0:0:
336,288,229776,1,0,0:0:0:0:
272,296,229901,1,0,0:0:0:0:
208,296,230026,1,0,0:0:0:0:
336,296,230151,1,0,0:0:0:0:
384,296,230276,1,0,0:0:0:0:
456,152,230401,5,0,0:0:0:0:
352,144,230526,1,0,0:0:0:0:
288,144,230651,1,0,0:0:0:0:
400,152,230776,1,0,0:0:0:0:
240,144,230901,1,0,0:0:0:0:
208,96,231026,1,0,0:0:0:0:
328,64,231151,1,0,0:0:0:0:
224,168,231276,5,0,0:0:0:0:
160,176,231401,1,0,0:0:0:0:
272,192,231526,1,0,0:0:0:0:
120,208,231651,1,0,0:0:0:0:
264,144,231776,1,0,0:0:0:0:
112,160,231901,1,0,0:0:0:0:
64,160,232026,1,0,0:0:0:0:
216,168,232151,1,0,0:0:0:0:
288,336,232213,5,0,0:0:0:0:
264,336,232276,1,2,0:0:0:0:
240,336,232338,1,0,0:0:0:0:
216,336,232401,1,0,0:0:0:0:
192,336,232463,1,0,0:0:0:0:
168,336,232526,1,0,0:0:0:0:
144,336,232589,1,2,0:0:0:0:
120,336,232651,5,0,0:0:0:0:
96,336,232714,1,0,0:0:0:0:
72,336,232776,1,0,0:0:0:0:
48,336,232838,1,0,0:0:0:0:
24,336,232901,1,0,0:0:0:0:
8,336,232963,1,0,0:0:0:0:
232,144,233026,5,0,0:0:0:0:
272,144,233057,1,0,0:0:0:0:
248,144,233088,1,0,0:0:0:0:
296,144,233119,1,0,0:0:0:0:
272,144,233151,1,0,0:0:0:0:
320,144,233181,1,0,0:0:0:0:
296,144,233213,1,0,0:0:0:0:
344,144,233244,1,0,0:0:0:0:
320,144,233275,1,0,0:0:0:0:
368,144,233306,1,2,0:0:0:0:
344,144,233338,5,0,0:0:0:0:
392,144,233369,1,0,0:0:0:0:
368,144,233400,1,2,0:0:0:0:
416,144,233432,1,0,0:0:0:0:
392,144,233463,1,0,0:0:0:0:
440,144,233494,1,0,0:0:0:0:
416,144,233526,1,0,0:0:0:0:
464,144,233557,1,0,0:0:0:0:
440,144,233588,1,0,0:0:0:0:
248,240,233651,5,0,0:0:0:0:
200,240,233682,1,0,0:0:0:0:
224,240,233713,1,0,0:0:0:0:
176,240,233744,1,0,0:0:0:0:
200,240,233776,1,0,0:0:0:0:
152,240,233807,1,0,0:0:0:0:
176,240,233838,1,0,0:0:0:0:
128,240,233870,1,2,0:0:0:0:
152,240,233901,1,0,0:0:0:0:
104,240,233932,1,0,0:0:0:0:
128,240,233964,5,2,0:0:0:0:
80,240,233995,1,0,0:0:0:0:
104,240,234026,1,0,0:0:0:0:
56,240,234057,1,0,0:0:0:0:
72,128,234151,5,0,0:0:0:0:
160,128,234276,1,0,0:0:0:0:
256,128,234401,1,0,0:0:0:0:
464,136,234776,2,0,L|352:136,1,90
152,136,235026,2,0,L|264:136,2,90,0|0|0,0:0|0:0|0:0,0:0:0:0:
464,224,235526,2,0,L|352:224,2,90,0|0|0,0:0|0:0|0:0,0:0:0:0:
144,224,236026,6,0,L|54:224,1,90
248,224,236276,1,0,0:0:0:0:
392,224,236401,1,0,0:0:0:0:
56,160,236776,6,0,L|160:160,1,90
448,88,237026,2,0,L|336:88,1,90
56,88,237276,2,0,L|184:88,1,90
448,152,237526,2,0,L|352:152,1,90
56,216,237776,2,0,L|168:216,1,90
328,216,238026,6,0,L|232:216,2,90,0|0|0,0:0|0:0|0:0,0:0:0:0:
136,216,238401,1,0,0:0:0:0:
352,144,238776,2,0,L|248:144,1,90
48,144,239026,2,0,L|168:144,2,90,0|0|0,0:0|0:0|0:0,0:0:0:0:
360,152,239526,2,0,L|256:152,2,90,0|0|0,0:0|0:0|0:0,0:0:0:0:
184,256,240026,6,0,L|288:256,2,90,0|0|0,0:0|0:0|0:0,0:0:0:0:
336,256,240401,1,0,0:0:0:0:
216,256,240776,2,0,L|112:256,1,90
288,256,241026,2,0,L|392:256,1,90
128,168,241276,2,0,L|32:168,1,90
376,168,241526,1,0,0:0:0:0:
256,192,242026,12,0,245401,0:0:0:0:
144,192,245776,6,0,L|272:192,2,90,0|0|0,0:0|0:0|0:0,0:0:0:0:
424,200,246401,2,0,L|320:200,1,90
240,200,246651,1,0,0:0:0:0:
496,200,246901,1,0,0:0:0:0:
136,168,247526,6,0,L|336:168,1,180
24,168,248026,1,0,0:0:0:0:
344,160,248526,2,0,L|208:160,1,90
496,160,248901,1,0,0:0:0:0:
144,288,249151,5,0,0:0:0:0:
320,288,249276,1,0,0:0:0:0:
144,288,249401,1,0,0:0:0:0:
320,288,249526,1,0,0:0:0:0:
144,288,249651,1,0,0:0:0:0:
320,288,249776,1,0,0:0:0:0:
144,288,249901,1,0,0:0:0:0:
424,288,250026,1,0,0:0:0:0:
240,224,250276,6,0,L|352:224,1,90
128,224,250651,1,0,0:0:0:0:
472,128,250901,2,0,L|368:128,1,90
64,120,251276,2,0,L|160:120,1,90
320,120,251651,1,0,0:0:0:0:
64,232,251901,6,0,L|160:232,1,90
288,240,252276,1,0,0:0:0:0:
64,232,252401,1,0,0:0:0:0:
288,240,252651,1,0,0:0:0:0:
472,128,252901,6,0,L|336:128,1,90
256,120,253276,1,0,0:0:0:0:
56,120,253401,1,0,0:0:0:0:
256,120,253651,1,0,0:0:0:0:
176,312,253901,1,0,0:0:0:0:
32,328,254026,2,0,L|488:40,1,540
136,192,255026,5,0,0:0:0:0:
384,192,255151,1,0,0:0:0:0:
72,192,255276,1,0,0:0:0:0:
448,192,255401,1,0,0:0:0:0:
24,192,255526,1,0,0:0:0:0:
80,280,255651,6,0,L|184:280,1,90
16,280,255901,1,0,0:0:0:0:
136,280,256026,1,0,0:0:0:0:
240,280,256151,1,0,0:0:0:0:
96,280,256276,1,0,0:0:0:0:
288,280,256401,1,0,0:0:0:0:
480,248,256776,6,0,L|360:248,1,90
240,248,257026,1,0,0:0:0:0:
128,248,257151,1,0,0:0:0:0:
24,248,257276,1,0,0:0:0:0:
192,256,257401,1,0,0:0:0:0:
336,248,257526,1,0,0:0:0:0:
320,128,257776,6,0,L|432:128,1,90
232,128,258026,1,0,0:0:0:0:
368,128,258151,1,0,0:0:0:0:
160,128,258276,1,0,0:0:0:0:
288,128,258401,1,0,0:0:0:0:
224,240,258651,6,0,L|120:240,1,90
304,240,258901,2,0,L|408:240,1,90
394,240,259276,1,0,0:0:0:0:
128,240,259401,1,0,0:0:0:0:
384,144,259651,6,0,L|272:144,2,90,0|0|0,0:0|0:0|0:0,0:0:0:0:
200,152,260026,1,0,0:0:0:0:
56,152,260151,1,0,0:0:0:0:
144,152,260276,1,0,0:0:0:0:
264,152,260401,1,0,0:0:0:0:
448,272,260776,6,0,L|328:272,1,90
224,280,261026,1,0,0:0:0:0:
112,280,261151,1,0,0:0:0:0:
272,280,261276,1,0,0:0:0:0:
176,280,261401,1,0,0:0:0:0:
48,280,261526,1,0,0:0:0:0:
320,136,261776,6,0,L|200:136,2,90,0|0|0,0:0|0:0|0:0,0:0:0:0:
160,136,262151,1,0,0:0:0:0:
8,152,262276,2,0,L|112:152,2,90,0|0|0,0:0|0:0|0:0,0:0:0:0:
144,208,262651,2,0,L|240:208,3,90,0|0|0|0,0:0|0:0|0:0|0:0,0:0:0:0:
272,208,263276,1,0,0:0:0:0:
424,208,263526,1,0,0:0:0:0:
384,264,263651,6,0,L|280:264,2,90,0|0|0,0:0|0:0|0:0,0:0:0:0:
456,264,264026,1,0,0:0:0:0:
336,264,264151,1,0,0:0:0:0:
224,264,264276,1,0,0:0:0:0:
288,264,264401,1,0,0:0:0:0:
32,264,264776,6,0,L|152:264,1,90
456,264,265026,1,0,0:0:0:0:
336,264,265151,1,0,0:0:0:0:
208,264,265276,1,0,0:0:0:0:
280,264,265401,1,0,0:0:0:0:
144,264,265526,1,0,0:0:0:0:
240,176,265776,5,0,0:0:0:0:
240,176,265901,1,0,0:0:0:0:
400,176,266026,1,0,0:0:0:0:
296,176,266151,1,0,0:0:0:0:
104,176,266401,1,0,0:0:0:0:
416,112,266651,6,0,L|320:112,3,90,0|0|0|0,0:0|0:0|0:0|0:0,0:0:0:0:
80,80,267276,2,0,L|184:80,1,90
336,128,267651,6,0,L|224:128,2,90,0|0|0,0:0|0:0|0:0,0:0:0:0:
160,128,268026,1,0,0:0:0:0:
56,136,268151,1,0,0:0:0:0:
248,136,268276,1,0,0:0:0:0:
320,208,268776,6,0,L|208:208,1,90
472,160,269026,2,0,L|368:160,4,90,0|0|0|0|0,0:0|0:0|0:0|0:0|0:0,0:0:0:0:
80,160,269776,6,0,L|184:160,1,90
176,160,270026,1,0,0:0:0:0:
312,160,270151,1,0,0:0:0:0:
208,160,270276,1,0,0:0:0:0:
96,160,270401,1,0,0:0:0:0:
248,160,270526,5,0,0:0:0:0:
368,160,270651,1,0,0:0:0:0:
216,160,270776,1,0,0:0:0:0:
112,160,270901,1,0,0:0:0:0:
48,160,271026,1,0,0:0:0:0:
80,280,271276,5,0,0:0:0:0:
376,280,271526,1,0,0:0:0:0:
24,280,271776,1,0,0:0:0:0:
320,280,272026,1,0,0:0:0:0:
136,280,272276,1,0,0:0:0:0:
264,288,272526,1,0,0:0:0:0:
64,280,272776,1,0,0:0:0:0:
120,152,273026,6,0,L|120:248,1,90
368,136,273276,2,0,L|368:232,1,90
40,144,273526,2,0,L|40:240,1,90
256,152,273776,2,0,L|256:248,1,90
448,144,274026,6,0,L|448:240,1,90
176,280,274276,2,0,L|176:176,1,90
424,168,274526,2,0,L|424:272,1,90
40,320,274776,2,0,L|40:224,1,90
336,208,275026,6,0,L|336:344,1,90
96,88,275276,2,0,L|96:192,1,90
472,320,275526,2,0,L|472:224,1,90
256,80,275776,2,0,L|256:184,1,90
256,192,276026,12,0,276776,0:0:0:0:
128,152,277026,6,0,L|128:256,1,90
416,136,277276,2,0,L|416:248,1,90
208,120,277526,2,0,L|208:216,1,90
368,128,277776,2,0,L|368:232,1,90
56,104,278026,6,0,L|56:224,1,90
312,96,278276,2,0,L|312:208,1,90
184,96,278526,2,0,L|184:192,1,90
456,88,278776,2,0,L|456:192,1,90
200,344,279026,6,0,L|200:240,1,90
408,328,279276,2,0,L|408:232,1,90
96,336,279526,2,0,L|96:224,1,90
480,336,279776,2,0,L|480:240,1,90
256,192,280026,12,0,280776,0:0:0:0:
96,64,281026,6,0,L|96:160,1,90
352,64,281276,2,0,L|352:160,1,90
168,240,281526,2,0,L|168:336,1,90
440,192,281776,2,0,L|440:288,1,90
96,144,282026,6,0,L|96:240,1,90
320,104,282276,2,0,L|320:208,1,90
144,96,282526,2,0,L|144:192,1,90
448,88,282776,2,0,L|448:192,1,90,0|0,0:0|0:0,0:0:0:0:
168,320,283026,6,0,L|168:216,1,90
392,216,283276,2,0,L|392:320,1,90
48,304,283526,2,0,L|48:200,1,90
272,192,283776,2,0,L|272:312,1,90
256,192,284026,12,0,284776,0:0:0:0:
104,104,285026,6,0,L|104:208,1,90
224,96,285276,2,0,L|224:200,1,90
464,80,285526,2,0,L|464:208,1,90
344,80,285776,2,0,L|344:184,1,90
88,312,286026,6,0,L|88:216,1,90
408,320,286276,2,0,L|408:208,1,90
144,320,286526,2,0,L|144:216,1,90
456,320,286776,2,0,L|456:216,1,90
96,96,287026,6,0,L|96:200,1,90
384,200,287276,2,0,L|384:104,1,90
88,192,287526,2,0,L|88:288,1,90
296,192,287776,2,0,L|304:296,1,90
256,192,288026,12,0,291901,0:0:0:0:
