osu file format v13

[General]
AudioFilename: Megurine Luka Atama No Taisou.mp3
AudioLeadIn: 0
PreviewTime: 2276
Countdown: 0
SampleSet: None
StackLeniency: 0.7
Mode: 3
LetterboxInBreaks: 1
SpecialStyle: 0
WidescreenStoryboard: 1

[Editor]
DistanceSpacing: 1
BeatDivisor: 2
GridSize: 8
TimelineZoom: 1.500001

[Metadata]
Title:Atama No Taisou
TitleUnicode:Atama No Taisou
Artist:Megurine Luka
ArtistUnicode:Megurine Luka
Creator:Litepastistime
Version:4K WIP
Source:Vocaloid
Tags:
BeatmapID:470288
BeatmapSetID:198273

[Difficulty]
HPDrainRate:6.2
CircleSize:4
OverallDifficulty:9
ApproachRate:9
SliderMultiplier:1.8
SliderTickRate:2

[Events]
//Background and Video events
0,0,"luka-megurine-hatsune-miku-vocaloid-hi-179905.jpg",0,0
//Break Periods
//Storyboard Layer 0 (Background)
//Storyboard Layer 1 (Fail)
//Storyboard Layer 2 (Pass)
//Storyboard Layer 3 (Foreground)
//Storyboard Sound Samples
//Background Colour Transformations
3,100,56,48,211

[TimingPoints]
2026.08152012071,500,4,2,0,100,1,0
9151,-50,4,2,0,100,0,0
62026,250,4,2,0,100,1,0

[HitObjects]
64,192,2026,5,0,0:0:0:0:
320,192,2526,1,0,0:0:0:0:
192,192,3026,1,0,0:0:0:0:
320,192,3526,1,0,0:0:0:0:
192,192,4026,1,0,0:0:0:0:
448,192,4526,1,0,0:0:0:0:
320,192,5026,1,0,0:0:0:0:
64,192,5526,1,0,0:0:0:0:
192,192,6026,128,0,6776:0:0:0:0:
320,192,6026,128,0,6776:0:0:0:0:
64,192,7026,128,0,7526:0:0:0:0:
320,192,8026,1,0,0:0:0:0:
192,192,8526,1,0,0:0:0:0:
448,192,9026,1,0,0:0:0:0:
64,192,9276,1,0,0:0:0:0:
192,192,9526,1,0,0:0:0:0:
320,192,9776,1,0,0:0:0:0:
448,192,10026,1,0,0:0:0:0:
192,192,10026,1,0,0:0:0:0:
64,192,10276,1,0,0:0:0:0:
448,192,10526,1,0,0:0:0:0:
320,192,10526,1,0,0:0:0:0:
64,192,10776,128,0,11526:0:0:0:0:
320,192,11026,1,0,0:0:0:0:
192,192,11526,1,0,0:0:0:0:
448,192,11526,1,0,0:0:0:0:
448,192,11776,1,0,0:0:0:0:
64,192,12026,1,0,0:0:0:0:
448,192,12026,128,0,12526:0:0:0:0:
64,192,12276,1,0,0:0:0:0:
192,192,12526,1,0,0:0:0:0:
320,192,12526,1,0,0:0:0:0:
320,192,12776,1,0,0:0:0:0:
448,192,13026,1,0,0:0:0:0:
64,192,13026,1,0,0:0:0:0:
320,192,13526,1,0,0:0:0:0:
448,192,13526,1,0,0:0:0:0:
320,192,13776,1,0,0:0:0:0:
192,192,14026,1,0,0:0:0:0:
448,192,14276,128,0,14776:0:0:0:0:
64,192,14776,1,0,0:0:0:0:
192,192,15276,128,0,15526:0:0:0:0:
320,192,15276,1,0,0:0:0:0:
448,192,15526,128,0,15776:0:0:0:0:
64,192,15526,1,0,0:0:0:0:
320,192,15776,1,0,0:0:0:0:
192,192,15776,128,0,16026:0:0:0:0:
64,192,16026,1,0,0:0:0:0:
320,192,16026,128,0,16526:0:0:0:0:
64,192,16526,128,0,16776:0:0:0:0:
192,192,16526,1,0,0:0:0:0:
448,192,16776,1,0,0:0:0:0:
