osu file format v9

[General]
AudioFilename: Anderutse.mp3
AudioLeadIn: 0
PreviewTime: 235930
Countdown: 0
SampleSet: Soft
StackLeniency: 0.7
Mode: 0
LetterboxInBreaks: 0

[Editor]
Bookmarks: 44230,110830,164830,177430,191830,206230,235030,235930,252130,282730
DistanceSpacing: 2
BeatDivisor: 4
GridSize: 8

[Metadata]
Title:Anderutse
Artist:Megurine Luka
Creator:goodbye
Version:Normal
Source:owataP
Tags:Vocaloid NatsumeRin eveless

[Difficulty]
HPDrainRate:2
CircleSize:3
OverallDifficulty:3
ApproachRate:3
SliderMultiplier:0.400000005960464
SliderTickRate:1

[Events]
//Background and Video events
0,0,"bg.jpg"
//Break Periods
2,89416,102177
2,165017,175977
//Storyboard Layer 0 (Background)
//Storyboard Layer 1 (Fail)
//Storyboard Layer 2 (Pass)
//Storyboard Layer 3 (Foreground)
//Storyboard Sound Samples
//Background Colour Transformations
3,100,163,162,255

[TimingPoints]
42417,300,3,2,1,60,1,0

[Colours]
Combo1 : 128,64,64
Combo2 : 255,193,193
Combo3 : 255,255,255

[HitObjects]
248,64,44217,2,0,B|272:96,2,40.0000005960464,0|0|0
178,23,45117,6,0,B|166:58|178:103,1,80.0000011920928,4|2
208,175,46017,1,0
208,175,46617,1,2
264,231,46917,6,0,B|295:197|287:151,1,80.0000011920928,0|2
358,119,47817,1,0
357,119,48417,1,2
288,80,48717,6,0,B|272:88|248:80|248:80|240:96|216:96,1,80.0000011920928,0|2
200,176,49617,6,0,B|216:168|240:176|240:176|248:160|272:160,1,80.0000011920928,0|2
328,224,50517,5,0
248,360,51117,1,2
296,296,51417,2,0,B|376:320,1,80.0000011920928,0|2
448,344,52317,5,4
448,101,53217,1,0
216,152,54117,6,0,B|208:184|175:189|144:176,1,80.0000011920928,0|2
151,98,55017,1,0
312,72,55617,6,0,B|352:80,1,40.0000005960464,2|0
424,224,56517,2,0,B|392:192,1,40.0000005960464,2|0
256,272,57417,2,0,B|240:312,1,40.0000005960464,2|0
136,192,58317,2,0,B|104:160,1,40.0000005960464,2|0
256,104,59217,1,2
336,104,59517,6,0,B|376:96|416:112,1,80.0000011920928,4|2
376,184,60417,2,0,B|424:208|408:248,1,80.0000011920928,0|2
360,312,61317,6,0,B|320:288|328:240,1,80.0000011920928,0|2
251,219,62217,2,0,B|235:267|195:267,1,80.0000011920928,0|2
170,190,63117,6,0,B|130:177,1,40.0000005960464,0|2
270,96,64017,2,0,B|270:56,1,40.0000005960464,0|2
384,168,64917,2,0,B|424:155,1,40.0000005960464,0|2
288,246,65817,2,0,B|288:286,2,40.0000005960464,0|2|2
208,256,66717,6,0,B|200:296|160:320,1,80.0000011920928,4|2
120,248,67617,2,0,B|152:128,1,120.000001788139
312,136,69117,2,0,B|328:176,1,40.0000005960464,2|0
392,320,70017,1,2
472,320,70317,6,0,B|448:256|464:200,1,120.000001788139
384,64,71817,1,2
304,88,72117,2,0,B|280:128|304:168|280:208,1,120.000001788139
120,184,73617,1,2
56,232,73917,6,0,B|144:320,1,120.000001788139,4|0
304,312,75417,1,10
384,312,75717,6,0,B|408:192,1,120.000001788139
440,40,77217,1,10
360,48,77517,6,0,B|240:72,1,120.000001788139
88,96,79017,1,10
104,176,79317,6,0,B|88:296,1,120.000001788139
240,344,80817,1,10
320,360,81117,6,0,B|320:240,1,120.000001788139
464,176,82617,1,10
400,128,82917,6,0,B|304:56,1,120.000001788139
176,152,84417,1,10
102,184,84717,6,0,B|86:304,1,120.000001788139
248,272,86217,1,10
328,264,86517,6,0,B|368:200|344:144,1,120.000001788139
216,64,88017,1,10
184,136,88317,6,0,B|144:152,3,40.0000005960464,0|0|0|4
104,192,103617,6,0,B|184:192,1,80.0000011920928,4|2
264,192,104517,2,0,B|344:192,1,80.0000011920928,0|2
360,272,105417,6,0,B|280:272,1,80.0000011920928,0|2
200,272,106317,2,0,B|120:272,1,80.0000011920928,0|2
136,192,107217,6,0,B|216:192|232:128,1,120.000001788139
368,56,108717,1,2
400,128,109017,6,0,B|320:152,1,80.0000011920928,0|2
336,232,109917,2,0,B|256:248,1,80.0000011920928,0|2
208,312,110817,6,0,B|120:232,1,120.000001788139,4|0
256,152,112317,1,10
256,72,112617,6,0,B|376:96,1,120.000001788139,0|0
432,240,114117,1,10
376,296,114417,6,0,B|264:248,1,120.000001788139
120,184,115917,1,10
76,251,116217,6,0,B|36:235|28:179|36:139|60:107|116:99,1,200.000002980232
192,96,118017,1,4
408,192,118917,6,0,B|408:320,1,120.000001788139,4|0
256,352,120417,1,10
256,272,120717,2,0,B|216:280,2,40.0000005960464
256,192,121617,2,0,B|208:192|176:208,1,80.0000011920928,0|10
99,224,122517,6,0,B|83:160|131:111,1,120.000001788139
288,104,124017,1,10
328,34,124317,2,0,B|365:44|381:106|368:138,1,120.000001788139
256,256,125817,1,10
184,296,126117,6,0,B|128:184,1,120.000001788139
288,192,127617,2,0,B|312:232,3,40.0000005960464,10|0|0|0
380,190,128817,6,0,B|420:238|412:310,1,120.000001788139,0|10
256,344,130317,1,0
178,363,130617,2,0,B|116:344|90:283,1,120.000001788139,0|10
223,85,132417,6,0,B|215:125,2,40.0000005960464
303,85,133317,2,0,B|287:165,1,80.0000011920928,4|0
368,168,134217,6,0,B|376:248,1,80.0000011920928,4|2
456,232,135117,2,0,B|464:312,1,80.0000011920928,0|2
384,328,136017,6,0,B|344:328|304:352,1,80.0000011920928,0|2
224,352,136917,2,0,B|224:304|264:280,1,80.0000011920928,0|2
264,200,137817,6,0,B|184:208,1,80.0000011920928,0|2
144,136,138717,2,0,B|224:104,1,80.0000011920928,0|2
296,80,139617,6,0,B|344:80|376:112,1,80.0000011920928,0|2
344,184,140517,2,0,B|360:224|344:264,1,80.0000011920928,0|2
264,264,141417,6,0,B|184:280,1,80.0000011920928,0|2
120,232,142317,2,0,B|152:152,1,80.0000011920928,0|2
176,80,143217,6,0,B|224:80|256:104,1,80.0000011920928,0|2
312,152,144117,2,0,B|344:168|392:160,1,80.0000011920928,0|2
464,128,145017,6,0,B|488:184|456:248,1,120.000001788139
304,296,146517,1,2
304,296,146817,2,0,B|232:272|184:304,1,120.000001788139
118,341,148017,1,2
61,284,148317,1,2
61,204,148617,6,0,B|126:151,1,80.0000011920928,4|2
179,210,149517,2,0,B|261:189,1,80.0000011920928,0|2
279,266,150417,6,0,B|359:283,1,80.0000011920928,0|2
434,303,151317,2,0,B|464:273,2,40.0000005960464,0|2|2
402,229,152217,6,0,B|423:187|420:145,1,80.0000011920928,0|2
342,170,153117,2,0,B|315:198|268:203,1,80.0000011920928,0|2
272,120,154017,6,0,B|208:112|168:168,1,120.000001788139
128,240,155217,1,2
128,240,155517,1,2
176,304,155817,6,0,B|216:288|256:312,1,80.0000011920928,0|2
328,272,156717,2,0,B|352:304|400:312,1,80.0000011920928,0|2
472,336,157617,6,0,B|496:304|488:256,1,80.0000011920928,0|2
440,192,158517,2,0,B|432:152,2,40.0000005960464,0|2|2
360,184,159417,6,4,B|320:168|280:184,1,80.0000011920928
320,256,160317,2,0,B|279:271|240:256,1,80.0000011920928,0|2
174,299,161217,6,0,B|151:263|169:217,1,80.0000011920928,0|2
194,146,162117,1,0
59,59,162717,2,0,B|68:83|65:99,1,40.0000005960464,2|4
256,192,163167,12,0,164817
80,192,177417,6,0,B|152:144,1,80.0000011920928,4|2
110,77,178317,2,0,B|166:61|190:85,1,80.0000011920928,0|2
229,149,179217,6,0,B|272:152|307:133,1,80.0000011920928,0|2
360,192,180117,2,0,B|328:224|336:272,1,80.0000011920928,0|2
413,248,181017,6,0,B|445:280,1,40.0000005960464,0|2
282,304,181917,2,0,B|258:336,1,40.0000005960464,2|2
164,208,182817,2,0,B|132:176,1,40.0000005960464,2|2
223,45,183717,2,0,B|255:21,2,40.0000005960464,0|2|2
266,112,184617,6,0,B|275:157|319:174|368:169|397:132,1,160.000002384186,4|2
337,79,186117,1,10
267,39,186417,6,0,B|216:23|162:47|103:32,1,160.000002384186,0|2
39,74,187917,1,10
65,149,188217,6,0,B|96:184|80:231,1,80.0000011920928,0|2
15,267,189117,2,0,B|41:296|91:305,1,80.0000011920928,0|2
168,296,190017,6,0,B|240:264|328:304,1,160.000002384186,0|2
379,358,191517,1,8
451,324,191817,6,0,B|467:284|451:244,1,80.0000011920928,4|2
385,201,192717,2,0,B|368:160|390:121,1,80.0000011920928,0|2
415,48,193617,6,0,B|332:28,1,80.0000011920928,0|2
304,104,194517,2,0,B|224:120,1,80.0000011920928,0|2
148,142,195417,6,0,B|111:125|83:154|90:176,1,80.0000011920928,0|2
156,215,196317,2,0,B|112:229|135:281,1,80.0000011920928,0|2
54,292,197217,6,0,B|61:331,3,40.0000005960464,0|2|2|0
224,344,198717,1,2
224,344,199017,6,0,B|232:304|280:288,1,80.0000011920928,0|2
256,208,199917,2,0,B|311:164|272:96,1,120.000001788139
144,192,201417,2,0,B|128:272,1,80.0000011920928,2|2
112,348,202317,1,2
192,352,202617,6,0,B|192:304|224:280,1,80.0000011920928,0|2
272,344,203517,2,0,B|344:296,1,80.0000011920928,0|2
395,356,204417,5,0
473,338,204717,1,2
473,258,205017,1,2
416,201,205317,2,0,B|368:208|336:185,1,80.0000011920928,0|2
295,120,206217,5,4
65,190,207117,1,0
65,190,207417,1,2
65,190,207717,1,2
65,190,208017,6,0,B|89:257|160:256,1,120.000001788139
232,232,209217,1,2
288,168,209517,1,2
368,160,209817,6,0,B|400:184|392:240,1,80.0000011920928,0|2
352,301,210717,1,0
432,301,211017,1,2
471,231,211317,1,2
456,152,211617,6,0,B|432:120|448:72,1,80.0000011920928,0|2
390,18,212517,2,0,B|361:52|366:98,1,80.0000011920928,0|2
304,144,213417,5,0
224,144,213717,1,2
144,144,214017,1,2
64,144,214317,2,0,B|70:227,1,80.0000011920928,0|2
32,296,215217,5,0
107,322,215517,1,2
182,347,215817,1,2
258,369,216117,2,0,B|336:338,1,80.0000011920928,0|2
408,376,217017,6,0,B|416:336|448:304,1,80.0000011920928,0|2
384,256,217917,2,0,B|400:216|384:176,1,80.0000011920928,0|2
308,192,218817,2,0,B|314:142|273:121,1,80.0000011920928,0|2
229,184,219717,6,0,B|181:184,1,40.0000005960464,0|2
108,184,220317,1,2
28,184,220617,6,0,B|26:226|69:256,1,80.0000011920928,4|2
107,184,221517,2,0,B|91:144|123:104,1,80.0000011920928,0|2
198,94,222417,5,0
271,128,222717,2,0,B|313:133,1,40.0000005960464,2|2
336,208,223317,5,0
256,208,223617,2,0,B|232:240,1,40.0000005960464,2|2
248,320,224217,6,0,B|208:344|168:328,1,80.0000011920928,0|2
96,352,225117,2,0,B|64:320|72:280,1,80.0000011920928,0|2
88,200,226017,5,0
144,143,226317,2,0,B|120:103,1,40.0000005960464,2|2
45,128,226917,5,0
15,53,227217,2,0,B|55:37,1,40.0000005960464,2|2
128,16,227817,6,0,B|148:42|206:42,1,80.0000011920928,0|2
280,56,228717,2,0,B|268:99|224:120,1,80.0000011920928,0|2
260,191,229617,6,0,B|270:230,1,40.0000005960464,0|2
240,304,230217,1,2
160,312,230517,6,0,B|136:272,1,40.0000005960464,0|2
88,216,231117,1,2
16,184,231417,6,0,B|40:144,1,40.0000005960464,0|2
80,80,232017,1,2
160,72,232317,6,0,B|168:112,1,40.0000005960464,0|2
193,186,232917,1,2
269,209,233217,6,0,B|325:182|380:264|313:339|243:327|232:270,1,240.000003576278,0|4
