osu file format v5

[General]
AudioFilename: NihaoNyan.mp3
AudioLeadIn: 2000
PreviewTime: -1
Countdown: 0
SampleSet: Soft
StackLeniency: 0.7
Mode: 0
LetterboxInBreaks: 1
EditorBookmarks: 34787,56090,97826
EditorDistanceSpacing: 0.800000011920929

[Metadata]
Title:Nyan Nyan Song (Touhou Rock Remix)
Artist:Megumi Nakajima (Ranka Mei)
Creator:KIA
Version:Nya
Source:Nico Nico Douga
Tags:Nyan Nyan Touhou Rock Remix Nico Nico Douga Macross Frontier

[Difficulty]
HPDrainRate:3
CircleSize:4
OverallDifficulty:5
SliderMultiplier:1.4
SliderTickRate:2

[Events]
//Background and Video events
1,160,"NihaoNyan.avi"
0,0,"macross_frontier14.jpg"
//Break Periods
2,34527,40953
2,73658,75736
//Storyboard Layer 0 (Background)
//Storyboard Layer 1 (Failing)
//Storyboard Layer 2 (Passing)
//Storyboard Layer 3 (Foreground)
//Storyboard Sound Samples
//Background Colour Transformations
3,100,163,162,255

[TimingPoints]
415.649471405756,434.782608695652,4,2,0,54,1,0
19327,-100,4,1,0,45,0,0
83675,-100,4,2,0,58,0,0
87283,-100,4,2,0,60,0,0
89022,-100,4,2,0,51,0,0
90761,-100,4,2,0,43,0,0
91630,-100,4,2,0,36,0,0
92500,-100,4,2,0,28,0,0
93369,-100,4,2,0,25,0,0
94110,-100,4,2,0,0,0,0

[Colours]
Combo1 : 255,150,0
Combo2 : 40,205,31
Combo3 : 200,38,38

[HitObjects]
392,64,414,5,0
392,176,849,1,0
280,144,1284,1,0
168,112,1719,1,0
56,80,2153,5,0
96,184,2589,2,0,B|184:184,2,70,0|0|0
312,224,3893,5,0
424,224,4328,1,0
424,168,4546,2,0,B|360:104,1,70,0|0
320,120,4980,2,0,B|264:176,1,70,0|0
216,168,5415,6,0,B|160:112,1,70,0|0
160,176,5850,2,0,B|104:232,1,70,0|0
112,280,6285,2,0,B|200:280,1,70,0|0
296,280,6937,1,4
392,224,7372,5,0
392,112,7806,1,8
280,144,8241,1,0
168,112,8676,1,8
88,192,9111,5,0
168,264,9546,2,8,B|168:184,2,70,8|0|8
416,104,10850,5,0
304,104,11285,1,8
248,104,11502,2,0,B|248:200,1,70,0|0
248,232,11937,2,0,B|248:304,1,70,0|8
304,304,12372,6,0,B|376:304,1,70,0|0
424,280,12806,2,0,B|424:200,1,70,0|8
392,160,13241,2,8,B|336:104,1,70,0|4
240,64,13893,1,8
128,64,14328,5,0
216,128,14763,1,8
104,128,15198,1,0
192,192,15633,1,8
80,192,16067,5,0
168,256,16502,1,8
224,256,16719,1,0
224,256,16937,1,8
368,80,17806,5,0
288,160,18241,1,8
208,240,18676,1,0
128,320,19111,1,8
128,208,19546,6,12,B|128:120,1,70,12|12
128,80,19980,1,12
184,80,20198,2,12,L|240:136,1,70
312,208,20850,1,4
312,320,21285,5,0
200,320,21719,1,8
104,264,22154,1,0
200,208,22589,1,12
312,208,23024,5,4
424,208,23459,2,0,L|352:208,1,70,8|0
352,152,23893,1,0
240,152,24328,1,12
128,152,24763,5,4
72,152,24980,2,0,L|72:104,2,35,0|0|8
184,152,25633,1,0
296,152,26067,1,12
408,152,26502,5,4
464,152,26719,2,4,B|464:224,3,70,4|12|12|12
464,280,27589,2,0,B|360:280,1,70,0|0
280,280,28241,5,4
192,280,28567,2,0,B|192:320,1,35,0|8
80,280,29111,1,4
80,168,29546,1,12
192,168,29980,5,4
272,168,30306,2,0,B|316:168,1,35,0|8
304,224,30633,1,4
304,280,30850,1,12
240,336,31176,2,0,B|200:336,1,35
96,336,31719,6,8,B|144:344|168:296,1,70,4|0
184,264,32154,2,0,B|208:208|264:208,1,70,8|0
280,192,32589,2,0,B|336:176|312:112,1,70,0|0
304,88,33024,2,0,B|272:24|184:48|160:80,1,140,8|0
136,88,33676,2,0,B|88:112|80:168,1,70,0|8
72,192,34111,2,12,B|64:240|96:288,1,70,4|4
80,56,42154,5,0
192,56,42589,1,8
256,144,43024,1,0
320,56,43459,1,8
432,56,43893,5,4
368,144,44328,1,8
440,224,44763,1,0
328,224,45198,6,0,B|328:320,1,70,8|4
272,296,45633,1,0
160,280,46067,6,0,B|112:312|64:272,1,70,8|0
160,279,46502,2,0,B|200:231|168:191,1,70,0|0
152,168,46937,1,8
264,168,47372,5,4
320,168,47589,2,4,B|392:168,5,70
288,216,49111,6,0,B|256:248|200:200,1,70,0|0
256,168,49546,2,0,B|280:136|248:88,1,70,8|0
256,48,49980,2,0,B|288:24|336:56,1,70,0|0
328,104,50415,2,0,B|344:144|320:200,1,70,8|0
320,224,50850,6,0,B|288:248|232:216,1,70
224,176,51285,2,0,B|192:152|144:184,1,70,8|0
120,216,51719,2,0,B|96:256|128:296,1,70
160,320,52154,2,0,B|192:352|248:304,1,70,8|0
256,272,52589,6,0,B|224:232|272:200,1,70,0|0
288,168,53024,2,0,B|312:128|280:96,1,70,8|0
232,104,53459,1,0
120,104,53893,1,0
120,216,54328,1,0
232,216,54763,1,0
232,104,55198,6,12,B|232:64,2,35
288,104,55633,1,8
288,160,55850,2,12,B|288:208,2,35
200,232,56502,6,8,B|120:232,1,70,8|0
128,176,56937,1,0
216,112,57372,1,8
328,112,57806,5,4
328,224,58241,1,12
328,280,58459,1,0
272,280,58676,1,4
112,128,59546,5,4
224,128,59980,2,8,L|312:128,1,70,8|0
296,184,60415,1,0
296,296,60850,5,8
200,240,61285,1,0
312,240,61719,1,8
312,128,62154,1,0
200,128,62589,6,0,B|160:128,4,35,0|0|0|4|12
200,240,63459,2,0,L|200:312,1,70,8|0
240,272,63893,1,0
320,192,64328,2,0,L|384:128,1,70,8|0
416,104,64763,5,0
304,104,65198,2,0,B|224:104,1,70,8|0
176,104,65633,1,0
336,264,66502,5,4
336,152,66937,1,8
224,152,67372,1,0
224,40,67806,1,8
112,40,68241,5,0
112,152,68676,1,8
224,152,69111,1,0
328,200,69546,1,8
280,304,69980,5,0
328,200,70415,1,8
280,96,70851,1,0
232,200,71285,1,8
184,304,71719,5,0
72,304,72154,2,4,B|72:224,1,70,8|0
72,176,72589,1,4
184,176,73024,6,8,B|184:224,2,35
184,120,73459,1,4
96,232,76937,6,0,B|176:288|210:200,1,140,0|8
320,232,77806,2,0,B|248:288|207:202,1,140,0|8
368,168,78676,6,0,B|464:168,2,70,0|0|8
368,112,79328,1,0
368,112,79546,1,0
168,192,80415,5,0
168,304,80850,1,8
280,304,81285,1,0
392,304,81719,1,8
392,248,81937,6,0,B|392:176,1,70
336,176,82372,2,0,B|264:176,1,70,0|8
264,120,82806,2,0,L|216:120|190:119|190:119,1,70
192,48,83893,6,0,B|192:120,1,70,2|0
248,104,84328,2,0,B|248:200,1,70,2|0
304,160,84763,2,0,B|304:248,1,70,2|0
360,216,85198,2,0,B|360:288,1,70,2|4
416,288,85633,6,0,B|416:208,1,70,2|4
416,160,86067,2,0,B|328:160,1,70,2|0
344,104,86502,2,0,B|240:104,1,70,2|0
272,160,86937,2,0,B|200:160,1,70,2|4
144,160,87372,6,0,B|144:232,1,70,2|0
214,230,87806,2,0,B|142:230,1,70,2|0
74,230,88241,2,0,B|151:230,1,70,2|0
144,300,88676,2,0,B|144:228,1,70,2|4
144,176,89111,6,0,B|128:136|152:96,1,70,2|4
163,54,89546,2,0,B|200:35|249:59,1,70,2|0
224,120,89980,2,0,B|248:64|216:24,1,70,2|0
288,56,90415,2,0,B|328:24|368:64,1,70,2|4
288,56,90850,6,0,B|264:96|296:144,1,70,2|0
312,168,91285,2,0,B|344:208|312:256,1,70,2|0
288,280,91719,1,0
176,280,92154,1,0
176,168,92589,5,0
176,56,93024,1,0
288,56,93459,1,0
400,56,93893,1,0
256,192,94328,12,4,97806
