osu file format v9

[General]
AudioFilename: Cardcaptor Sakura - Fruits Candy.mp3
AudioLeadIn: 0
PreviewTime: 3805
Countdown: 0
SampleSet: Normal
StackLeniency: 0.7
Mode: 0
LetterboxInBreaks: 0

[Editor]
DistanceSpacing: 1
BeatDivisor: 4
GridSize: 4

[Metadata]
Title:Fruits Candy
Artist:Megumi Kojima
Creator:SapphireGhost
Version:Sweet
Source:Cardcaptor Sakura
Tags:3rd third season ED ending OzzyOzrock woodrockman

[Difficulty]
HPDrainRate:7
CircleSize:4
OverallDifficulty:7
ApproachRate:8
SliderMultiplier:2
SliderTickRate:2

[Events]
//Background and Video events
0,0,"BG Standard.jpg"
//Break Periods
2,71413,83405
2,136613,148605
//Storyboard Layer 0 (Background)
//Storyboard Layer 1 (Fail)
//Storyboard Layer 2 (Pass)
//Storyboard Layer 3 (Foreground)
Sprite,Foreground,Centre,"BG Sepia.jpg",320,240 F,0,71005,71405,0,1 F,0,71405,83805,1 F,0,83805,84205,1,0
Sprite,Foreground,Centre,"BG Sepia.jpg",320,240 F,0,136205,136605,0,1 F,0,136605,149005,1 F,0,149005,149405,1,0
//Storyboard Sound Samples
//Background Colour Transformations
3,100,163,162,255

[TimingPoints]
605,400,4,1,0,35,1,0
175005,-100,4,1,0,35,0,1
189405,-100,4,1,0,50,0,0

[Colours]
Combo1 : 251,214,4
Combo2 : 255,128,255
Combo3 : 0,128,255

[HitObjects]
92,256,3805,2,0,B|108:208|152:172|212:164|256:200,1,200,0|8
368,36,4605,2,0,B|472:36,2,100,0|0|8
420,120,5205,2,0,B|452:152|464:212|452:272|420:304,1,200
348,232,5805,1,8
348,232,6005,1,0
256,276,6205,2,0,B|256:56,1,200,0|8
156,76,6805,1,0
432,192,7405,5,8
364,268,7605,1,0
300,192,7805,2,0,B|288:176|256:164|224:176|212:192,2,100,0|0|8
252,100,8405,2,0,B|52:100,1,200
16,192,9005,1,8
52,288,9205,1,0
152,288,9405,1,0
352,288,9805,1,8
352,88,10205,5,0
152,88,10605,1,8
256,240,11005,1,0
184,308,11205,1,0
96,260,11405,1,8
96,160,11605,2,0,B|144:188|204:184|244:140|240:72,1,200
332,44,12205,2,0,B|432:44,1,100,8|0
492,124,12605,2,0,B|368:124,1,100
292,124,13005,1,8
292,124,13205,1,0
80,336,13805,5,8
124,248,14005,1,0
220,248,14205,1,0
272,336,14405,1,0
316,248,14605,1,8
364,336,14805,2,0,B|440:352|504:276|456:192,1,200
392,140,15405,2,0,B|188:140,2,200,8|0|8
328,64,16405,6,0,B|120:64,1,200
60,140,17005,1,8
60,140,17205,1,0
60,240,17405,5,0
76,240,17505,1,0
92,240,17605,1,0
108,240,17705,1,0
124,240,17805,1,0
140,240,17905,1,0
156,240,18005,1,0
172,240,18105,1,0
188,240,18205,1,0
384,192,18605,6,0,B|384:88,1,100,8|0
296,136,19005,2,0,B|296:276,2,100,0|0|8
216,76,19605,2,0,B|184:44|124:32|64:44|32:76,1,200
124,120,20205,1,8
124,120,20405,2,0,B|124:224,1,100
124,320,20805,2,0,B|24:320,2,100,0|8|0
224,320,21405,6,0,B|292:304|340:240|308:152,1,200,0|8
216,192,22005,1,0
192,96,22205,2,0,B|404:96,1,200,0|8
368,192,22805,1,0
452,136,23005,2,0,B|452:336,1,200,0|8
368,280,23605,1,0
168,280,24005,1,0
116,196,24205,1,8
216,196,24405,1,0
168,108,24605,6,0,B|200:72|256:48|312:72|344:108,1,200,0|8
296,196,25205,1,0
348,280,25405,2,0,B|244:280,2,100,0|0|8
400,196,26005,1,0
444,104,26205,2,0,B|480:136|504:192|480:248|444:280,1,200,0|8
376,352,26805,2,0,B|176:352,1,200
104,280,27405,1,8
104,280,27605,1,0
176,208,27805,6,0,B|152:152|180:104|228:68|284:80,1,200,0|8
264,180,28405,2,0,B|320:156|368:184|404:232|392:288,1,200,0|0
296,264,29005,1,8
296,264,29205,2,0,B|100:312,1,200
128,216,29805,1,8
128,216,30005,1,0
104,120,30205,5,0
120,120,30305,1,0
136,120,30405,1,0
152,120,30505,1,0
168,120,30605,1,0
184,120,30705,1,0
200,120,30805,1,0
216,120,30905,1,0
232,120,31005,1,0
420,192,31405,6,0,B|312:192,1,100,8|0
256,268,31805,2,0,B|376:268,1,100,0|0
306,356,32205,1,8
206,356,32405,2,0,B|170:324|146:268|170:212|206:180,1,200,0|0
304,160,33005,1,8
304,160,33205,2,0,B|304:44,1,100
388,116,33605,2,0,B|388:220,2,100,0|8|0
472,60,34205,6,0,B|472:260,1,200,0|8
400,332,34805,1,0
332,260,35005,2,0,B|332:48,1,200,0|8
256,128,35605,1,0
168,176,35805,2,0,B|124:188|92:216|72:280|120:336,1,200,0|8
216,360,36405,2,0,B|260:348|292:320|312:256|264:200,1,200,0|0
192,268,37005,1,8
192,268,37205,1,0
292,268,37405,6,0,B|360:304|448:276|472:200,1,200,0|8
368,192,38005,1,0
292,128,38205,2,0,B|224:164|136:136|112:60,1,200,0|8
216,52,38805,1,0
256,248,39205,1,0
204,332,39405,1,8
152,248,39605,1,0
204,164,39805,1,0
104,164,40005,1,0
48,248,40205,1,8
104,332,40405,1,0
204,332,40605,6,0,B|404:332,1,200,0|8
476,260,41205,1,0
404,192,41405,2,0,B|372:156|316:132|260:156|228:192,1,200,0|8
316,240,42005,2,0,B|284:276|228:300|172:276|140:240,1,200,0|0
88,152,42605,2,0,B|88:48,1,100,8|0
188,52,43005,2,0,B|188:156,1,100
288,152,43405,5,8
304,152,43505,1,0
320,152,43605,1,0
336,152,43705,1,0
352,152,43805,1,0
368,352,44205,6,0,B|300:352|268:312|240:268|264:196,1,200,8|0
168,176,44805,2,0,B|168:304,1,100,0|8
68,276,45205,2,0,B|68:60,1,200
168,96,45805,1,8
256,140,46005,2,0,B|288:104|344:80|400:104|432:140,1,200,0|0
344,192,46605,1,8
256,240,46805,1,0
168,192,47005,1,0
344,292,47405,5,8
416,220,47605,1,0
416,120,47805,1,0
344,48,48005,1,0
256,96,48205,1,8
168,48,48405,2,0,B|184:108|144:184|56:176,1,200
136,236,49005,1,8
204,312,49205,2,0,B|188:252|228:176|316:184,1,200
300,284,49805,1,8
300,284,50005,1,0
120,44,50605,6,0,B|324:44,1,200,8|0
392,116,51205,1,0
324,192,51405,1,8
256,120,51605,2,0,B|204:120|164:156|132:196|72:196,1,200
160,248,52205,1,8
72,296,52405,2,0,B|124:296|164:332|196:372|256:372,1,200
256,272,53005,1,8
352,248,53205,6,2,B|400:216|392:140|320:116|272:160,1,200
196,92,53805,2,0,B|96:92,1,100,2|0
96,192,54205,2,0,B|200:192,1,100,2|0
256,272,54605,1,2
256,272,54805,1,2
256,372,55005,5,4
256,192,55405,1,4
256,12,55805,5,8
256,28,55905,1,0
256,44,56005,1,0
256,60,56105,1,0
256,76,56205,1,8
256,92,56305,1,0
256,108,56405,1,0
256,124,56505,1,0
256,140,56605,1,0
252,340,57005,5,8
420,228,57405,2,0,B|444:228|468:244|484:264|484:300,2,100,0|0|8
372,316,58005,2,0,B|336:284|312:228|336:172|372:140,1,200,0|0
424,56,58605,2,0,B|316:56,1,100,8|0
224,56,59005,2,0,B|260:88|284:144|260:200|224:232,1,200,0|8
176,144,59605,1,0
472,192,60205,5,8
472,192,60405,1,0
416,276,60605,2,0,B|312:276,2,100,0|0|8
360,192,61205,2,0,B|328:156|272:132|216:156|184:192,1,200,0|0
236,276,61805,2,0,B|132:276,1,100,8|0
60,344,62205,2,0,B|60:112,1,200,0|8
256,96,63005,5,0
432,192,63405,1,8
256,288,63805,1,0
168,238,64005,1,0
168,338,64205,1,8
80,288,64405,2,0,B|48:232|60:176|112:124|156:128,1,200
248,128,65005,2,0,B|360:128,1,100,8|0
420,56,65405,2,0,B|420:280,1,200,0|8
420,356,66005,1,0
152,224,66605,5,8
104,312,66805,1,0
204,312,67005,1,0
256,224,67205,1,0
308,312,67405,1,8
360,224,67605,2,0,B|324:176|324:112|360:60|412:52,1,200
432,152,68205,2,0,B|468:200|468:264|432:316|380:324,2,200,8|0|8
360,80,69205,2,0,B|160:80,1,200
88,152,69805,1,8
160,224,70005,1,0
260,224,70205,5,0
276,224,70305,1,0
292,224,70405,1,0
308,224,70505,1,0
324,224,70605,1,0
340,224,70705,1,0
356,224,70805,1,0
372,224,70905,1,0
388,224,71005,1,0
256,44,84205,5,8
204,128,84405,1,0
256,212,84605,2,0,B|364:212,2,100,0|0|8
256,312,85205,2,0,B|192:344|112:304|112:224,1,200
44,152,85805,1,8
44,52,86005,2,0,B|260:52,1,200
344,52,86605,1,8
344,52,86805,1,0
444,52,87005,6,0,B|444:100|416:148|360:168|300:144,1,200,0|8
256,64,87605,1,0
156,64,87805,2,0,B|108:64|60:96|36:152|68:216,1,200,0|8
152,164,88405,1,0
112,256,88605,2,0,B|352:256,1,200,0|8
412,256,89205,1,0
256,132,89605,1,0
336,192,89805,1,8
416,132,90005,1,0
416,32,90205,1,0
216,60,90605,5,8
176,152,90805,1,0
256,212,91005,2,0,B|280:256|304:264|332:272,1,100
256,340,91405,2,0,B|232:296|208:288|180:280,1,100,8|0
100,340,91805,2,0,B|100:128,1,200,0|8
28,68,92405,2,0,B|28:272,1,200
28,368,93005,1,8
28,368,93205,1,0
128,368,93405,6,0,B|160:332|216:308|272:332|304:368,1,200,0|8
376,300,94005,2,0,B|340:268|316:212|340:156|376:124,1,200,0|0
452,192,94605,1,8
452,92,94805,2,0,B|416:40|364:28|304:60|284:128,1,200
256,200,95405,2,0,B|148:200,1,100,8|0
88,128,95805,2,0,B|192:128,1,100
256,56,96205,1,8
256,56,96405,1,0
256,56,96605,1,0
404,192,97005,6,0,B|404:296,1,100,8|0
316,244,97405,1,0
256,324,97605,1,0
196,244,97805,1,8
108,288,98005,2,0,B|76:232|104:168|160:124|232:152,1,200
256,72,98605,1,8
356,88,98805,2,0,B|392:144|360:208|308:260|236:220,1,200
204,304,99405,1,8
204,304,99605,1,0
296,340,99805,6,0,B|348:340|440:296|440:176,1,200,0|8
436,116,100405,1,0
336,116,100605,2,0,B|284:116|192:160|192:280,1,200,0|8
196,340,101205,1,0
96,340,101405,2,0,B|96:128,1,200,0|8
52,52,102005,1,0
152,40,102205,1,0
232,96,102405,1,0
316,40,102605,1,8
416,52,102805,1,0
476,132,103005,6,0,B|480:224|376:248|332:220,1,200,0|8
376,124,103605,1,0
284,160,103805,2,0,B|196:164|176:244|200:304,1,200,0|8
112,256,104405,2,0,B|112:48,1,200
208,88,105005,1,8
296,40,105205,1,0
384,88,105405,1,0
472,40,105605,1,0
472,140,105805,2,0,B|472:240,1,100,8|0
472,340,106205,6,0,B|408:344|356:304|348:224|396:184,1,200,0|8
308,136,106805,1,0
256,224,107005,2,0,B|260:288|208:336|136:344|96:296,1,200,0|8
160,224,107605,1,0
76,44,108005,1,0
176,44,108205,2,0,B|380:44,1,200,8|0
436,124,108805,5,0
436,140,108905,1,0
436,156,109005,1,0
436,172,109105,1,0
436,188,109205,1,0
436,204,109305,1,0
436,220,109405,1,0
212,324,109805,6,0,B|212:196,1,100,8|0
300,176,110205,2,0,B|300:304,2,100,0|0|8
300,76,110805,2,0,B|268:40|212:16|156:40|124:76,1,200,0|0
212,120,111405,1,8
124,168,111605,2,0,B|88:200|64:256|88:312|124:344,1,200,0|0
176,256,112205,2,0,B|280:256,1,100,8|0
376,256,112605,1,0
220,132,113005,5,8
256,40,113205,1,0
356,40,113405,1,0
400,132,113605,1,0
308,176,113805,1,8
344,268,114005,2,0,B|312:304|256:328|200:304|168:268,1,200,0|0
96,196,114605,1,8
168,124,114805,2,0,B|200:88|256:64|312:88|344:124,1,200,0|0
416,196,115405,1,8
416,196,115605,1,0
156,44,116205,6,0,B|364:44,1,200,8|0
456,44,116805,1,0
396,124,117005,1,8
300,152,117205,2,0,B|244:136|192:160|152:192|148:264,1,200
248,232,117805,1,8
192,316,118005,2,0,B|248:332|300:308|340:276|344:204,1,200
436,192,118605,1,8
436,92,118805,6,2,B|224:92,1,200
244,192,119405,2,0,B|140:192,1,100,2|0
72,120,119805,2,0,B|176:120,1,100,2|0
156,20,120205,1,2
156,20,120405,1,2
256,12,120605,5,4
256,192,121005,1,4
256,372,121405,5,8
256,356,121505,1,0
256,340,121605,1,0
256,324,121705,1,0
256,308,121805,1,8
256,292,121905,1,0
256,276,122005,1,0
256,260,122105,1,0
256,244,122205,1,0
368,76,122605,5,8
172,116,123005,1,0
72,116,123205,1,0
140,192,123405,1,8
40,192,123605,2,0,B|36:236|64:284|124:312|184:284,1,200
216,192,124205,2,0,B|328:192,1,100,8|0
416,192,124605,2,0,B|420:236|392:284|332:312|272:284,1,200,0|8
200,348,125205,1,0
256,52,125805,5,8
180,120,126005,1,0
256,184,126205,2,0,B|304:184|356:184,2,100,0|0|8
320,260,126805,2,0,B|116:260,1,200
56,184,127405,1,8
156,184,127605,1,0
108,96,127805,2,0,B|140:60|196:36|252:60|284:96,1,200,0|8
344,180,128405,1,0
404,256,128605,5,0
404,56,129005,1,8
256,192,129405,1,0
169,142,129605,1,0
169,243,129805,1,8
256,296,130005,2,0,B|308:300|348:268|388:224|348:128,1,200
304,76,130605,2,0,B|204:76,1,100,8|0
104,76,131005,2,0,B|68:108|44:164|68:220|104:252,1,200,0|8
40,328,131605,1,0
308,192,132205,5,8
220,240,132405,1,0
220,140,132605,1,0
308,96,132805,1,0
220,44,133005,1,8
136,96,133205,2,0,B|136:300,1,200
36,296,133805,2,0,B|36:192,1,100,8|0
36,96,134205,2,0,B|52:44|92:16,2,100,0|0|8
136,96,134805,2,0,B|336:96,1,200
436,96,135405,5,0
436,112,135505,1,0
436,128,135605,1,0
436,144,135705,1,0
436,160,135805,1,0
436,176,135905,1,0
436,192,136005,1,0
436,208,136105,1,0
436,224,136205,1,0
208,72,149405,6,0,B|256:48|304:72,1,100
376,144,149805,1,8
328,232,150005,2,0,B|316:284|256:316|196:284|184:232,1,200
136,144,150605,2,0,B|136:20,1,100,8|0
44,84,151005,2,0,B|76:108|77:172|44:172|10:172|12:236|44:260,1,200,0|8
96,344,151605,2,0,B|296:344,1,200
396,344,152205,1,8
396,324,152305,1,0
396,304,152405,1,0
396,284,152505,1,0
396,264,152605,6,0,B|396:216|396:216|396:148|344:128|292:148,1,200,0|8
352,68,153205,2,0,B|304:56|256:84|256:84|208:56|160:68,1,200
219,147,153805,2,0,B|168:128|116:148|116:216|116:216|116:264,1,200,8|0
172,348,154405,1,0
256,292,154605,1,8
340,348,154805,2,0,B|388:336|420:272|388:208|340:196,1,200
340,96,155405,1,8
320,96,155505,1,0
300,96,155605,1,0
280,96,155705,1,0
260,96,155805,6,0,B|60:96,1,200,0|8
32,192,156405,1,0
64,288,156605,1,0
160,288,156805,1,0
192,192,157005,1,8
256,268,157205,2,0,B|352:220|448:268,1,200
448,168,157805,2,0,B|448:56,1,100,8|0
356,104,158205,2,0,B|232:104,1,100
180,40,158605,1,8
104,104,158805,1,0
104,204,159005,6,0,B|180:204,4,50,0|0|0|0|8
156,288,159605,1,0
256,304,159805,6,0,B|256:244,4,50,0|0|0|0|8
356,288,160405,1,0
456,304,160605,5,0
456,284,160705,1,0
456,264,160805,1,0
456,244,160905,1,0
456,224,161005,1,0
456,204,161105,1,0
456,184,161205,1,0
456,164,161305,1,0
456,144,161405,1,0
456,124,161505,1,0
456,104,161605,1,0
456,84,161705,1,0
456,64,161805,1,8
256,40,162205,6,0,B|256:252,1,200,0|8
120,92,163005,1,0
88,188,163205,1,0
120,284,163405,1,8
216,308,163605,2,0,B|248:344|304:368|360:344|392:308,1,200,0|0
488,284,164205,1,8
488,284,164405,1,0
488,184,164605,2,0,B|268:184,1,200,0|8
188,184,165205,1,0
456,48,165805,6,0,B|328:48,1,100,8|0
256,48,166205,2,0,B|140:48,2,100,0|0|8
340,104,166805,2,0,B|376:132|396:192|376:252|340:280,1,200
256,244,167405,2,0,B|256:348,1,100,8|0
172,280,167805,2,0,B|136:252|116:192|136:132|172:104,1,200,0|8
256,76,168405,1,0
356,40,168605,5,0
156,40,169005,1,8
256,212,169405,1,0
208,300,169605,1,0
164,212,169805,1,8
116,300,170005,2,0,B|80:268|56:212|80:156|116:124,1,200,0|0
216,124,170605,2,0,B|320:124,1,100,8|0
416,124,171005,2,0,B|452:156|476:212|452:268|416:300,1,200,0|8
316,300,171605,1,0
40,180,172205,6,0,B|40:288,1,100,8|0
112,348,172605,2,0,B|-16:348,2,100,0|0|8
212,348,173205,2,0,B|160:280|180:196|244:136|372:136|436:196|456:280|404:348,1,500
308,312,174405,1,0
308,312,174605,1,0
308,312,174805,1,0
256,228,175005,6,0,B|40:228,1,200,0|8
120,40,175805,1,0
220,40,176005,1,0
160,120,176205,1,8
260,120,176405,2,0,B|292:156|348:180|404:156|436:120,1,200,0|0
472,212,177005,2,0,B|472:316,1,100,8|0
380,272,177405,2,0,B|348:236|292:212|236:236|204:272,1,200,0|8
132,340,178005,1,0
256,68,178605,5,8
308,156,178805,1,0
216,192,179005,2,0,B|104:192,2,100,0|0|8
256,284,179605,2,0,B|292:216|380:216|416:284,1,200
336,344,180205,1,8
336,344,180405,1,0
236,364,180605,2,0,B|32:364,1,200,0|8
140,192,181405,5,0
256,28,181805,1,8
256,228,182205,1,0
256,128,182405,1,0
340,180,182605,1,8
340,80,182805,2,0,B|404:84|452:132|456:224,1,200
456,320,183405,2,0,B|353:320,1,100,8|0
256,320,183805,2,0,B|52:320,1,200,0|8
56,220,184405,1,0
56,40,185005,5,8
156,40,185205,1,0
256,40,185405,1,0
356,40,185605,1,0
456,40,185805,1,8
456,140,186005,2,2,B|48:140,1,400
256,352,187405,5,0
256,352,187605,2,2,B|116:280|72:176|160:72|256:168|256:168|352:72|440:176|384:276|292:328,1,700
256,76,189405,5,4
