osu file format v9

[General]
AudioFilename: Cardcaptor Sakura - Fruits Candy.mp3
AudioLeadIn: 0
PreviewTime: 3805
Countdown: 0
SampleSet: Normal
StackLeniency: 0.7
Mode: 0
LetterboxInBreaks: 0

[Editor]
DistanceSpacing: 1
BeatDivisor: 2
GridSize: 4

[Metadata]
Title:Fruits Candy
Artist:Megumi Kojima
Creator:SapphireGhost
Version:Hard
Source:Cardcaptor Sakura
Tags:3rd third season ED ending OzzyOzrock woodrockman

[Difficulty]
HPDrainRate:5
CircleSize:4
OverallDifficulty:5
ApproachRate:5
SliderMultiplier:1.6
SliderTickRate:2

[Events]
//Background and Video events
0,0,"BG Standard.jpg"
//Break Periods
2,71413,83005
2,136613,148205
//Storyboard Layer 0 (Background)
//Storyboard Layer 1 (Fail)
//Storyboard Layer 2 (Pass)
//Storyboard Layer 3 (Foreground)
Sprite,Foreground,Centre,"BG Sepia.jpg",320,240 F,0,71005,71405,0,1 F,0,71405,83805,1 F,0,83805,84205,1,0
Sprite,Foreground,Centre,"BG Sepia.jpg",320,240 F,0,136205,136605,0,1 F,0,136605,149005,1 F,0,149005,149405,1,0
//Storyboard Sound Samples
//Background Colour Transformations
3,100,255,128,255

[TimingPoints]
605,400,4,1,0,35,1,0
175005,-100,4,1,0,35,0,1
189405,-100,4,1,0,50,0,0

[Colours]
Combo1 : 251,214,4
Combo2 : 255,128,255
Combo3 : 0,128,255

[HitObjects]
256,88,3805,1,8
256,88,4205,1,0
376,192,4605,6,2,B|124:192,1,240
256,296,5605,1,0
96,296,6005,1,0
28,256,6205,2,0,B|-12:232|-29:192|-12:152|28:128,1,160,8|0
336,52,7405,5,0
176,52,7805,1,8
256,196,8205,5,0
188,240,8405,2,2,B|212:276|256:288|300:276|324:240,2,160
256,196,9405,1,8
96,192,9805,1,0
176,56,10205,5,0
176,216,10605,1,0
336,216,11005,1,8
108,288,11605,2,2,B|68:264|51:224|68:184|108:160,2,160
156,224,12605,2,0,B|196:248|213:288|196:328|156:352,1,160,8|0
96,40,13805,6,0,B|420:40,1,320
344,192,15005,2,0,B|316:260|256:292|196:260|168:192,2,240,8|0|0
424,192,16405,2,2,B|376:356|256:364|136:356|88:192,1,480
100,112,17805,1,0
256,76,18205,1,8
256,236,18605,6,0,B|96:236,1,160,0|8
76,76,19405,1,0
156,76,19605,2,0,B|400:76,1,240,8|0
344,228,20605,2,0,B|384:252|401:292|384:332|344:356,1,160,2|0
196,292,21405,6,0,B|104:272|116:168,1,160,8|0
192,192,22005,1,0
168,116,22205,2,0,B|376:116,1,160,8|0
308,192,22805,1,0
388,192,23005,6,2,B|420:268|392:352,1,160,0|0
312,348,23605,2,2,B|140:348,1,160,0|0
180,272,24205,2,2,B|100:272,2,80,0|0|0
256,132,25005,6,0,B|264:48,2,80,0|0|8
180,104,25605,2,0,B|172:200,2,80,0|8|0
104,132,26205,2,0,B|52:208|104:280,1,160,2|0
180,260,26805,2,0,B|256:312|332:260,1,160,2|0
372,192,27405,2,8,B|452:192,1,80
452,112,27805,6,0,B|308:40,1,160,2|0
228,40,28405,2,0,B|84:111,1,160,2|0
84,192,29005,1,0
84,272,29205,2,2,B|136:332|136:332|136:220|256:118|376:220|376:332|376:332|428:272,1,560,0|0
416,112,31005,1,8
256,112,31405,5,0
176,96,31605,1,0
96,88,31805,2,0,B|52:164|96:240,1,160,2|0
136,308,32405,2,0,B|316:308,1,160,2|0
376,308,33005,5,8
376,308,33205,1,0
256,204,33605,1,8
256,204,33805,1,0
96,192,34205,6,2,B|112:112|164:28|164:28|204:116|256:132|256:132|308:116|348:28|348:28|400:112|416:192,1,640,0|0
348,336,36205,2,0,B|304:272|256:264|256:264|208:272|164:336,2,240,8|8|0
156,192,38005,1,0
144,112,38205,6,0,B|168:12|256:-12|344:12|368:112,2,320,0|2|0
216,148,40005,1,0
296,148,40205,1,8
360,296,40605,6,0,B|252:392|144:296,1,240,0|8
104,228,41405,2,0,B|164:192|216:208|208:252|256:257|304:252|296:208|348:192|408:228,2,320,2|0|2
52,52,44205,5,0
52,212,44605,2,0,B|52:260|52:296,2,80,8|0|0
104,152,45205,2,0,B|180:108|256:152,1,160,2|0
332,292,46005,2,0,B|256:336|180:292,1,160,2|0
460,52,47405,5,0
336,152,47805,1,8
256,136,48005,1,0
176,152,48205,1,0
116,204,48405,6,0,B|160:280|116:356,1,160,2|0
256,280,49205,2,0,B|420:280,1,160,2|8
496,280,49805,1,8
496,280,50005,1,0
352,88,50605,5,0
192,88,51005,2,0,B|192:184,2,80,2|0|0
112,88,51605,2,0,B|48:120|36:184|48:248|112:280,1,240,8|8
192,280,52405,2,0,B|256:248|268:184|256:120|192:88,1,240,8|8
256,40,53205,2,2,B|416:40,1,160,0|0
472,96,53805,6,0,B|472:176,1,80,8|0
400,140,54205,2,0,B|400:240,1,80,8|0
328,180,54605,2,8,B|328:260,1,80
256,292,55005,5,4
132,192,55405,1,0
256,92,55805,1,4
380,192,56205,1,0
336,344,56605,5,2
176,344,57005,1,0
256,204,57405,1,8
256,204,57605,1,0
104,256,58005,2,0,B|64:232|47:192|64:152|104:128,2,160,2|0|0
184,272,59005,2,0,B|184:88,1,160,8|0
464,272,60205,6,0,B|464:192,1,80,8|0
392,160,60605,2,0,B|368:124|324:113|280:124|256:160,1,160,8|0
324,200,61205,2,0,B|300:236|256:247|212:236|188:200,2,160,2|0|0
360,272,62205,2,0,B|320:312|256:312|256:312|256:364,1,160,0|2
104,312,63005,5,0
104,152,63405,1,8
188,288,63805,2,0,B|212:256|256:249|256:249|300:256|324:288,1,160,2|0
380,232,64405,2,0,B|320:180|292:176|292:176|304:136|304:136|256:112|256:112|208:136|208:136|220:176|220:176|192:180|132:232,1,400,2|0
256,332,65805,1,8
40,96,66605,6,0,B|120:96,1,80,2|0
80,168,67005,2,0,B|176:168,1,80,2|0
120,240,67405,1,2
200,240,67605,6,0,B|276:240|276:240|292:280|340:288,1,160
344,208,68205,2,0,B|391:216|407:256|407:256|487:256,2,160,8|0|0
400,152,69205,2,2,B|344:120|292:148|292:148|372:64|372:64|256:4|256:4|140:64|140:64|220:148|220:148|168:120|112:152,1,720
256,192,84205,5,8
132,92,84605,2,0,B|84:116|48:192|84:268|132:292,2,240,2|0|0
212,92,86005,2,0,B|396:92,1,160,2|0
452,92,86605,1,2
480,168,86805,1,0
404,192,87005,6,0,B|288:246|172:192,1,240,2|0
172,272,87805,2,0,B|288:326|404:272,1,240,2|0
404,352,88605,1,0
296,52,89405,6,8,B|296:136,1,80,8|0
220,104,89805,2,8,B|220:196,1,80
296,216,90205,5,0
136,192,90605,2,0,B|96:172|56:192,1,80,2|0
20,260,91005,2,0,B|96:304|172:260,1,160,2|0
312,340,91805,6,0,B|476:340,1,160,8|0
444,264,92405,2,0,B|272:264,1,160,8|0
204,264,93005,1,8
124,264,93205,1,0
88,192,93405,6,0,B|88:112|156:44|248:44,2,240,2|0|0
168,192,94805,2,0,B|180:120|256:116|332:120|344:192,1,240,2|0
256,328,95805,5,0
400,260,96205,1,0
440,192,96405,1,0
256,40,97005,6,0,B|152:40,1,80,2|0
96,40,97405,2,2,B|36:112|96:184,1,160,0|0
153,128,98005,2,2,B|213:200|153:272,1,160,0|0
96,332,98605,1,8
176,340,98805,2,0,B|356:340,1,160
416,332,99405,1,8
328,200,99805,6,0,B|356:140|320:80|256:56|192:80|156:140|184:200,2,320,2|0|2
56,192,102205,6,8,B|56:280,1,80,8|0
136,272,102605,2,8,B|136:364,1,80
216,352,103005,6,0,B|244:260|364:260|392:352,1,240,2|0
471,351,103805,2,2,B|456:260|396:204|320:180|232:208|216:240,1,320
456,192,105405,6,8,B|456:104,1,80,8|0
376,112,105805,2,8,B|376:20,1,80
296,32,106205,6,0,B|268:124|148:124|120:32,1,240,2|0
41,33,107005,2,2,B|56:124|116:180|192:204|280:176|296:144,1,320
336,316,108205,1,8
176,316,108605,1,0
256,176,109005,1,8
96,176,109405,1,0
44,44,109805,5,0
192,104,110205,2,0,B|208:68|256:44|304:68|320:104,1,160,2|0
256,152,110805,2,2,B|256:328,1,160
152,192,111605,2,2,B|152:360,1,160
468,44,113005,5,0
320,104,113405,2,0,B|304:68|256:44|208:68|192:104,1,160,2|0
256,152,114005,2,0,B|256:328,1,160,8|0
360,192,114805,2,0,B|360:360,1,160,8|0
432,320,115405,1,0
432,240,115605,1,8
256,76,116205,5,0
192,224,116605,2,0,B|208:260|256:284|304:260|320:224,1,160,2|0
444,120,117405,2,2,B|380:272,1,160,0|0
336,332,118005,2,2,B|96:332,1,240,0|0
96,252,118805,2,0,B|120:160|256:120|392:160|416:252,1,400,2|2
176,44,120605,5,8
336,44,121005,1,0
336,204,121405,1,8
176,204,121805,1,8
192,364,122205,6,0,B|208:328|256:304|304:328|320:364,1,160,2|2
452,272,123005,2,0,B|452:188,1,80,8|0
452,112,123405,1,0
384,156,123605,2,0,B|356:248|236:248|208:156,1,240,8|0
256,308,124605,1,2
96,308,125005,1,0
256,32,125805,6,0,B|256:116,1,80,8|0
192,160,126205,2,0,B|208:196|256:220|304:196|320:160,1,160,8|0
400,160,126805,2,0,B|436:176|460:224|436:272|400:288,1,160,2|0
256,356,127605,1,0
256,276,127805,2,0,B|256:108,1,160,2|0
116,192,128605,5,0
44,336,129005,1,8
176,248,129405,2,0,B|336:248,1,160,2|0
384,312,130005,2,0,B|420:296|444:248|420:200|384:184,1,160,2|0
320,140,130605,2,8,B|256:92,2,80,8|0|8
256,288,131405,1,0
468,48,132205,6,0,B|360:48,1,80,2|0
416,124,132605,2,0,B|336:124,1,80,2|0
256,124,133005,1,8
188,168,133205,2,0,B|56:176|90:344|200:356|256:256|312:156|422:168|456:336|324:344,1,560,8|8
244,344,134805,2,0,B|160:384|24:380|4:264|-8:140|60:100|148:72|232:76|272:120,1,560,8|0
32,224,149405,6,0,B|-4:136|44:48|144:0|244:48|292:136|256:224,1,480,8|0
376,268,151005,2,0,B|332:192|376:116,1,160,8|0
440,164,151605,2,2,B|484:240|440:316,1,160,2|0
368,348,152205,2,0,B|200:348,1,160,8|0
120,40,153405,6,2,B|160:104|256:144|352:104|392:40,2,320,2|8|2
64,192,155405,1,8
180,304,155805,2,2,B|256:260|332:304,1,160,2|0
360,228,156405,2,0,B|256:168|256:168|152:228,1,240,8|0
136,68,157405,2,2,B|376:68,2,240,2|8|2
36,192,159005,6,0,B|40:312|168:364|256:228|256:228|344:364|472:312|476:192,1,640,8|2
388,60,161005,1,2
256,152,161405,1,0
124,60,161805,1,2
256,40,162205,5,8
256,40,162605,1,0
104,256,163005,6,0,B|180:300|256:256,1,160,2|0
180,116,163805,2,0,B|256:72|332:116,1,160,8|0
408,256,164605,2,0,B|332:300|256:256,1,160,2|2
28,32,165805,5,0
180,88,166205,2,0,B|256:44|332:88,1,160,8|0
376,156,166805,2,2,B|256:156|136:156,1,240,0|0
176,312,167805,1,0
336,312,168205,1,8
440,192,168605,6,0,B|440:352,1,160,2|2
360,212,169405,2,0,B|288:274|216:212,1,160,8|0
208,292,170005,2,0,B|136:230|64:292,2,160,8|0|0
136,332,171005,1,2
136,172,171405,1,0
456,192,172205,6,0,B|376:192,1,80
344,120,172605,2,0,B|432:120,2,80
304,192,173205,2,2,B|256:264|168:288|80:264|32:192,1,320
96,144,174205,2,0,B|168:84|240:144,1,160,2|2
256,304,175005,5,8
372,192,175405,1,8
256,84,175805,2,0,B|176:104|148:192,1,160,2|0
228,192,176405,2,0,B|208:272|120:300,1,160,2|0
56,152,177205,1,0
56,72,177405,1,8
212,40,177805,1,0
336,336,178605,6,0,B|252:336,1,80,2|0
256,256,179005,2,0,B|340:256,1,80,2|0
384,192,179405,1,0
328,136,179605,2,0,B|256:198|184:136,1,160,8|0
36,192,180405,2,0,B|36:340,1,80,0|8
36,112,181005,1,0
184,52,181405,6,0,B|256:-10|328:52,1,160,2|0
328,212,182205,2,0,B|256:274|184:212,1,160,2|0
156,136,182805,2,0,B|316:136,1,160,0|8
396,136,183405,1,8
408,296,183805,1,0
256,344,184205,1,0
256,24,185005,6,0,B|256:112,1,80,8|0
256,184,185405,2,0,B|256:280,1,80,2|0
256,344,185805,1,4
256,192,186205,12,4,189405
