osu file format v5

[General]
AudioFilename: Towaie.mp3
AudioLeadIn: 0
PreviewTime: -1
Countdown: 0
SampleSet: Soft
StackLeniency: 0.7
Mode: 0
LetterboxInBreaks: 1

[Editor]
DistanceSpacing: 0.800000011920929
BeatDivisor: 4
GridSize: 16

[Metadata]
Title:Towaie
Artist:Megumi Hayashibara
Creator:tieff
Version:Hard
Source:Shaman King
Tags:

[Difficulty]
HPDrainRate:7
CircleSize:5
OverallDifficulty:7
SliderMultiplier:1.7
SliderTickRate:2

[Events]
//Background and Video events
0,0,"SK BG.jpg"
//Break Periods
2,71504,80004
2,106171,107471
2,109904,121604
//Storyboard Layer 0 (Background)
//Storyboard Layer 1 (Fail)
//Storyboard Layer 2 (Pass)
//Storyboard Layer 3 (Foreground)
//Storyboard Sound Samples
//Background Colour Transformations
3,100,163,162,255

[TimingPoints]
4115,533.333333333333,4,2,1,40,1,0
81971,-100,4,2,1,21,0,0
82371,-100,4,2,1,40,0,0
103304,-100,4,2,1,0,0,0
122238,-100,4,2,1,40,0,0
134904,-100,4,2,1,20,0,0
135170,-100,4,2,1,40,0,0
150771,-100,4,2,1,20,0,0
151171,-100,4,2,1,40,0,0
157304,-100,4,2,1,21,0,0
157570,-100,4,2,1,40,0,0
158771,-100,4,2,1,21,0,0
159171,-100,4,2,1,40,0,0
162238,-100,4,1,1,23,0,0
162638,-100,4,2,1,40,0,0
168638,-100,4,2,1,20,0,0
169038,-100,4,2,1,40,0,0
171838,-100,4,2,1,20,0,0
172238,-100,4,2,1,40,0,0
187571,-100,4,2,1,20,0,0
187971,-100,4,2,1,40,0,0
227838,-50,4,1,1,60,0,0

[Colours]
Combo1 : 255,255,128
Combo2 : 255,255,255
Combo3 : 255,170,255
Combo4 : 128,255,255

[HitObjects]
144,80,32914,1,0
208,112,33181,2,0,B|304:112,2,85,2|2|4
176,176,33981,1,0
112,176,34248,2,0,B|0:176,1,85,0|2
64,240,34781,5,0
128,240,35048,1,2
192,240,35314,1,4
160,304,35581,2,0,B|64:304,1,85,2|2
64,240,36114,5,0
64,176,36381,2,0,B|64:80,2,85,2|0|6
128,208,37181,2,0,B|240:208,2,85,2|0|2
176,304,38114,5,0
176,304,38248,1,2
240,272,38514,1,4
288,224,38781,1,4
288,160,39048,1,4
352,192,39315,6,0,B|400:272|336:368,1,170,0|2
416,352,40115,2,0,B|240:352,1,170,4|4
272,288,40915,1,0
224,240,41181,1,2
224,240,41448,1,0
272,192,41715,2,0,B|272:96,2,85,4|0|0
336,160,42515,6,0,B|336:320,1,127.5,4|2
336,287,43048,1,0
272,256,43315,2,0,B|272:144,1,85,4|4
272,171,43848,1,2
272,171,44115,1,4
192,96,44515,5,2
192,96,44648,1,0
144,144,44915,2,0,B|64:224,2,85,4|4|4
192,96,45715,6,0,B|288:96,1,85,2|0
304,160,46248,2,0,B|208:160,1,85,0|4
192,224,46781,2,0,B|304:224,2,85,0|2|0
192,320,47715,5,0
192,320,47848,2,0,B|304:320,2,85,2|4|0
224,256,48648,1,4
192,320,48915,5,2
144,272,49181,1,0
96,224,49448,1,0
144,176,49715,1,4
192,128,49981,1,0
144,80,50248,1,0
192,128,50515,2,0,B|272:176|368:128,1,170,0|2
352,64,51315,2,4,B|462:62,2,85,4|4|4
288,64,52115,6,0,B|320:144|288:240,1,170,4|2
224,224,52915,2,0,B|400:224,1,170,4|2
368,288,53715,2,0,B|176:288,1,170,4|2
224,224,54515,2,0,B|416:224,1,170,4|2
368,160,55315,2,0,B|208:160,1,127.5,4|2
240,160,55848,1,0
176,192,56115,1,4
128,240,56381,1,4
128,304,56648,1,4
192,272,56915,5,0
320,272,57181,1,2
208,208,57448,1,2
336,208,57715,1,4
352,144,57981,5,2
384,144,58115,1,4
416,144,58248,1,4
448,144,58381,1,4
480,144,58515,6,0,B|432:320,1,170,0|2
368,336,59315,2,0,B|416:160,1,170,4|4
368,128,60115,1,2
304,160,60381,1,0
240,128,60648,1,2
176,160,60915,2,4,B|112:352,1,170
192,304,61715,5,4
224,240,61981,2,0,B|272:240,2,42.5,2|0|2
192,176,62515,1,4
144,128,62781,2,0,B|96:128,2,42.5,2|0|2
192,80,63315,1,4
240,128,63581,5,2
240,128,63715,1,0
240,128,63848,1,2
304,128,64115,1,4
368,128,64381,1,0
368,128,64515,1,2
368,128,64648,1,0
336,192,64915,6,0,B|384:272|336:368,1,170,0|2
272,352,65715,2,0,B|480:352,1,170,4|4
416,288,66515,1,4
352,256,66781,1,2
400,208,67048,1,0
336,192,67315,1,4
304,128,67581,1,2
304,128,67715,1,0
304,128,67848,1,0
240,128,68115,6,0,B|144:128,2,85,4|2|0
240,192,68915,2,0,B|336:192,2,85,4|0|0
240,256,69715,2,0,B|128:256,2,85,0|2|0
240,320,70515,1,4
240,256,70781,1,4
240,224,70915,1,4
240,192,71048,1,4
240,160,71181,1,4
240,128,71315,5,4
96,64,80914,5,4
208,144,81181,2,0,B|336:144,1,85,2|0
272,272,81714,2,0,B|144:272,2,85,0|4|4
384,192,82514,5,4
304,80,82781,1,4
304,80,82914,1,4
304,80,83048,1,4
240,192,83314,1,4
160,80,83581,1,4
160,80,83714,1,4
160,80,83848,1,4
80,192,84114,5,4
144,224,84381,1,2
96,272,84648,1,2
144,320,84914,2,0,B|336:320,1,170,4|2
352,256,85714,1,0
288,256,85981,1,2
256,256,86114,1,2
224,256,86248,1,2
256,192,86514,2,4,B|432:192,1,170,4|2
400,128,87314,6,0,B|304:128,1,85,0|2
112,192,87848,2,0,B|208:192,1,85,0|4
400,272,88381,2,0,B|288:272,2,85,0|2|0
400,208,89181,5,0
112,208,89448,1,0
112,208,89581,1,4
112,208,89714,1,4
400,208,89981,5,4
112,208,90248,1,4
224,320,90514,6,4,B|336:320,2,85,4|2|2
256,256,91314,2,2,B|48:256,1,170,4|4
112,192,92114,1,4
192,192,92381,1,2
192,192,92514,1,2
192,192,92648,1,2
144,128,92914,2,4,B|352:128,1,170,4|4
272,192,93714,5,0
352,192,93981,2,2,B|400:192,2,42.5
304,128,94514,1,4
224,128,94781,2,0,B|176:128,2,42.5,0|0|2
256,64,95314,1,0
336,64,95581,5,4
336,192,95848,1,4
336,64,96114,2,4,B|368:64,2,21.25
336,128,96381,1,4
336,272,96648,1,4
336,128,96914,6,0,B|176:128,1,127.5,4|2
208,208,97581,1,2
208,240,97714,2,4,B|304:240,2,85,4|2|0
240,304,98514,6,0,B|80:304,1,127.5,4|2
112,224,99181,1,2
112,192,99314,2,0,B|208:192,2,85,4|2|0
144,128,100114,6,0,B|272:128,1,85,4|2
229,128,100514,1,2
229,128,100648,1,2
304,128,100914,2,0,B|416:128,2,85,4|0|0
336,192,101714,5,0
336,272,101981,1,4
336,304,102114,1,0
336,336,102248,1,0
272,304,102514,2,4,B|240:304,2,21.25
272,272,102781,1,4
272,192,103048,1,4
256,192,103314,12,4,105981
176,208,108381,6,4,B|144:208,4,21.25,4|4|4|4|4
256,208,108914,1,4
256,208,109181,1,4
176,208,109448,1,4
256,208,109714,1,4
256,96,122514,5,4
208,144,122781,2,0,B|128:224,2,85,2|2|4
256,96,123581,2,0,B|352:96,1,85
336,160,124114,6,0,B|336:272,1,85,0|2
272,208,124648,2,0,B|160:208,1,85,2|4
128,256,125181,2,0,B|128:160,1,85
160,112,125714,5,4
224,112,125981,2,0,B|272:112,2,42.5,2|0|0
160,112,126514,1,4
96,112,126781,2,0,B|48:112,2,42.5,2|0|0
96,176,127314,6,0,B|48:256|96:352,1,170,0|2
16,336,128114,2,0,B|224:336,1,170,4|0
256,112,128914,5,4
256,208,129314,1,2
256,240,129448,2,0,B|256:336,2,85,0|4|0
256,176,130248,1,0
256,176,130514,6,0,B|176:128|64:192,1,170,4|2
112,240,131314,1,4
176,240,131581,1,4
240,240,131848,1,4
256,192,132114,12,2,134514
128,80,134781,5,0
208,80,135048,1,4
256,192,135314,12,4,137714
368,80,138514,5,0
432,96,138781,1,2
400,160,139048,1,2
336,160,139314,1,4
304,96,139581,1,0
368,80,139848,2,0,B|368:192,1,85,0|0
368,272,140514,5,2
368,272,140648,1,0
304,272,140914,2,0,B|192:272,2,85,4|2|0
272,208,141714,5,2
208,176,141981,1,0
272,144,142248,1,0
208,112,142514,1,4
160,160,142781,1,0
160,160,142914,1,0
160,160,143048,1,0
224,160,143314,2,0,B|160:240|224:336,1,170,0|2
256,272,144114,2,0,B|368:272,2,85,4|0|0
256,208,144914,5,0
304,160,145181,1,2
352,112,145448,1,2
304,160,145714,2,0,B|448:288,1,170,4|0
368,272,146514,1,2
304,272,146781,1,0
240,272,147048,1,0
304,272,147314,2,0,B|304:368,2,85,4|0|0
304,208,148114,6,0,B|224:160|128:224,1,170,0|2
144,144,148914,2,0,B|144:320,1,170,4|0
208,288,149714,2,0,B|208:112,1,170,2|2
272,128,150514,2,0,B|272:240,2,85,4|4|4
208,96,151314,5,0
272,64,151581,1,2
336,96,151848,1,2
400,64,152114,1,4
464,96,152381,1,0
400,64,152648,2,0,B|400:176,1,85,0|0
400,256,153314,5,2
400,256,153448,1,0
336,288,153714,2,0,B|336:192,2,85,4|0|0
272,256,154514,5,0
224,208,154781,2,0,B|192:176,2,42.5,2|0|2
272,256,155314,1,4
224,304,155581,2,0,B|176:336,2,42.5
272,256,156114,2,0,B|368:208|464:272,1,170,0|2
432,320,156914,2,0,B|432:144,1,170,4|4
384,96,157715,5,2
336,144,157981,2,0,B|272:208,1,85,0|2
224,160,158515,2,0,B|144:240,2,85,4|4|4
176,112,159315,5,4
80,112,159715,1,2
80,112,159848,2,0,B|80:224,1,85,0|4
80,304,160515,1,2
80,304,160648,2,0,B|192:304,1,85,0|4
304,304,161448,1,0
352,256,161715,2,0,B|352:80,1,170,4|0
288,112,162515,5,0
272,176,162781,1,2
208,176,163048,1,2
224,112,163315,1,4
160,112,163581,1,0
128,112,163715,1,4
96,112,163848,1,4
64,112,163981,1,4
32,112,164115,6,0,B|64:192|16:288,1,170,4|2
96,272,164915,2,0,B|64:192|112:96,1,170,4|0
176,112,165715,2,0,B|176:208,2,85,2|0|2
240,112,166515,2,0,B|416:112,1,170,4|2
400,176,167315,5,0
304,176,167715,1,0
272,176,167848,1,2
208,176,168115,1,4
208,240,168381,2,0,B|208:336,2,85,2|4|4
208,96,169448,1,4
208,32,169715,2,0,B|384:32,1,170,4|4
448,32,170515,5,4
432,96,170781,2,0,B|432:192,1,85,0|2
384,224,171315,1,4
352,288,171581,2,0,B|352:416,1,85,2|4
288,336,172115,2,0,B|288:160,1,170,4|0
224,192,172915,6,0,B|224:96,2,85,4|2|0
288,192,173715,2,0,B|336:288|272:384,1,170,4|2
352,352,174515,2,0,B|144:352,1,170,4|2
224,288,175315,5,4
192,224,175581,1,4
192,224,175715,1,4
192,224,175848,1,4
256,192,176115,1,4
208,144,176381,1,4
208,144,176515,1,4
208,144,176648,1,4
256,192,176915,5,4
320,192,177181,1,2
240,304,177715,2,4,B|64:304,1,170
96,240,178515,1,4
160,240,178781,2,4,B|352:240,2,170
192,176,180115,5,4
192,112,180381,1,2
256,112,180648,1,0
256,48,180915,1,4
256,112,181181,1,0
320,112,181448,1,2
320,176,181715,1,4
256,176,181981,1,2
256,240,182248,1,0
192,240,182515,1,4
192,304,182781,1,4
128,304,183048,1,4
256,192,183448,12,4,186515
256,80,186781,5,0
256,144,187048,1,0
256,208,187315,2,0,B|256:320,2,85,2|4|4
192,240,188115,6,4,B|192:48,1,170
256,48,188915,2,4,B|256:240,1,170
256,288,189715,5,4
320,272,189981,1,2
336,208,190248,1,2
336,144,190515,2,2,B|144:144,1,170,4|4
192,208,191315,2,4,B|16:208,1,170
48,272,192115,2,4,B|240:272,1,170
288,272,192915,6,4,B|400:272,2,85
320,208,193715,2,4,B|208:208,2,85
288,144,194515,1,4
112,144,194781,5,4
112,320,195048,1,0
112,320,195181,1,4
112,320,195315,1,4
256,224,195581,1,4
432,224,195848,1,4
256,224,196115,6,0,B|256:112,2,85,4|0|2
320,224,196915,2,0,B|368:144|320:48,1,170,4|4
400,64,197715,2,0,B|192:64,1,170,4|4
256,128,198515,2,4,B|464:128,1,170
416,192,199315,5,4
368,240,199581,1,0
320,192,199848,1,2
368,240,200115,2,0,B|368:352,1,85,4|0
304,288,200648,2,0,B|304:192,1,85,0|4
304,128,201181,5,4
272,128,201315,1,0
240,128,201448,1,0
176,128,201715,2,4,B|144:128,2,21.25
176,160,201981,2,4,B|176:256,1,85
240,224,202515,6,4,B|240:336,1,85,4|2
304,272,203048,1,0
352,224,203315,2,4,B|304:144|352:48,1,170
416,64,204115,2,4,B|224:64,1,170
272,128,204915,2,4,B|64:128,1,170
128,192,205715,5,4
128,256,205981,2,0,B|128:352,2,85,2|0|4
128,192,206781,2,2,B|128:112,2,42.5
128,256,207315,1,4
192,256,207581,5,0
352,208,207848,1,0
352,208,207981,1,4
352,208,208115,1,4
192,144,208381,1,4
352,96,208648,1,4
192,144,208915,6,0,B|80:144,1,85,4|2
128,208,209448,1,0
192,208,209715,2,0,B|368:208,1,170,4|4
336,272,210515,1,0
272,272,210781,1,2
272,272,210915,1,2
272,272,211048,1,2
208,272,211315,2,4,B|208:80,1,170
272,128,212115,5,4
336,160,212381,2,0,B|432:160,1,85,2|0
384,224,212915,2,0,B|288:224,1,85,4|0
336,288,213448,2,0,B|448:288,1,85,2|0
384,224,213981,5,4
384,192,214115,1,0
384,160,214248,1,0
256,48,214515,2,4,B|256:16,2,21.25
256,128,214781,5,4
256,304,215048,1,4
256,128,215315,6,0,B|256:304,1,170,4|2
320,272,216115,1,4
320,208,216381,1,0
320,144,216648,1,2
368,96,216915,5,4
416,144,217181,1,2
416,144,217315,1,2
416,144,217448,1,2
368,192,217715,1,4
416,240,217981,1,0
368,288,218248,1,2
320,240,218515,6,0,B|208:240,1,85,0|2
235,240,218915,1,2
235,240,219048,1,2
256,176,219315,2,0,B|160:176,2,85,4|0|2
240,112,220115,5,0
304,112,220381,1,4
336,112,220515,1,0
368,112,220648,1,0
368,176,220915,6,4,B|368:208,2,21.25
288,176,221181,1,4
112,176,221448,1,4
288,176,221715,1,4
