osu file format v5

[General]
AudioFilename: Towaie.mp3
AudioLeadIn: 0
PreviewTime: -1
Countdown: 0
SampleSet: Soft
StackLeniency: 0.7
Mode: 0
LetterboxInBreaks: 1

[Editor]
DistanceSpacing: 0.5
BeatDivisor: 4
GridSize: 16

[Metadata]
Title:Towaie
Artist:Megumi Hayashibara
Creator:tieff
Version:Easy
Source:Shaman King
Tags:

[Difficulty]
HPDrainRate:2
CircleSize:3
OverallDifficulty:3
SliderMultiplier:1.7
SliderTickRate:2

[Events]
//Background and Video events
0,0,"SK BG.jpg"
//Break Periods
2,71241,81068
//Storyboard Layer 0 (Background)
//Storyboard Layer 1 (Fail)
//Storyboard Layer 2 (Pass)
//Storyboard Layer 3 (Foreground)
//Storyboard Sound Samples
//Background Colour Transformations
3,100,163,162,255

[TimingPoints]
4115,533.333333333333,4,2,1,40,1,0
45042,-100,4,2,1,24,0,0
45575,-100,4,2,1,40,0,0
57971,-100,4,2,1,20,0,0
58238,-100,4,2,1,40,0,0
81971,-100,4,2,1,21,0,0
82371,-100,4,2,1,40,0,0

[Colours]
Combo1 : 255,255,128
Combo2 : 255,255,255
Combo3 : 255,170,255
Combo4 : 128,255,255

[HitObjects]
128,80,32914,2,0,B|400:80,2,255,0|4|0
128,160,35048,1,2
128,208,35314,2,0,B|128:320,2,85,4|0|0
128,160,36114,6,0,B|400:160,1,255,0|4
383,160,37714,1,0
384,288,38514,2,0,B|208:288,1,170,4|2
176,288,39315,5,0
176,208,39848,1,2
176,160,40115,2,0,B|384:160,1,170,4|0
336,112,40915,2,0,B|128:112,1,170,0|2
128,112,41715,1,4
128,240,42515,2,0,B|416:240,2,255,0|4|0
128,160,44648,1,2
128,112,44915,1,4
128,64,45181,2,4,B|224:64,1,85
256,64,45715,5,0
256,144,46248,1,2
256,192,46515,1,4
256,272,47048,1,0
256,320,47315,1,2
384,320,48115,2,0,B|384:144,1,170,4|0
384,112,48915,5,2
336,112,49181,2,0,B|208:112,2,85,0|2|4
336,192,50248,1,2
336,240,50515,2,0,B|128:240,1,170,2|0
166,240,51315,2,0,B|-16:240,1,170,4|2
16,192,52115,6,0,B|96:80|320:80|416:224,1,425,0|2
392,197,53715,2,0,B|464:256|432:368|304:368,2,255,4|4|0
144,208,56915,6,0,B|432:208,1,255,0|4
336,96,58515,5,4
288,96,58781,2,2,B|192:96,1,85
160,96,59315,1,4
160,224,60115,6,0,B|160:352,2,85,2|2|2
160,176,60915,2,0,B|336:176,1,170,4|2
368,176,61715,5,4
288,80,62515,2,0,B|16:80,2,255,4|2|4
288,208,64915,5,0
208,208,65448,1,2
208,208,65715,1,4
128,208,66248,1,0
128,208,66515,1,2
128,80,67315,5,4
128,208,68115,2,0,B|416:208,1,255,4|4
352,80,69715,2,0,B|240:80,1,85,2|0
267,80,70248,2,0,B|144:80,1,85,0|4
182,80,70781,2,0,B|64:80,1,85,0|2
256,64,82514,6,4,B|256:336,1,255
160,240,84114,5,0
128,208,84381,2,0,B|48:128,2,85,2|0|4
256,208,85714,2,0,B|432:208,1,170,2|2
426,208,86514,1,4
352,96,87314,6,0,B|224:96,1,85,0|2
272,144,87848,2,0,B|160:144,1,85,0|4
192,192,88381,2,0,B|64:192,1,85,0|2
112,240,88914,1,4
368,240,90514,5,2
368,192,90781,2,0,B|368:80,1,85,2|2
368,64,91314,2,0,B|80:64,1,255,4|2
112,144,92648,1,0
112,144,92914,1,4
112,272,93714,5,0
160,272,93981,2,0,B|288:272,1,85,2|0
288,272,94514,2,0,B|416:272,1,85,4|0
416,272,95048,2,0,B|512:272,1,85,2|4
416,176,96114,5,4
416,128,96381,1,4
416,80,96648,1,4
256,192,96914,12,0,98514
112,80,99314,5,4
112,128,99581,1,0
112,176,99848,1,0
256,192,100114,12,0,101714
256,272,102514,5,4
256,224,102781,1,0
256,176,103048,1,4
256,128,103314,1,4
