osu file format v9

[General]
AudioFilename: mm.mp3
AudioLeadIn: 1004
PreviewTime: 68539
Countdown: 1
SampleSet: Soft
StackLeniency: 0
Mode: 0
LetterboxInBreaks: 1

[Editor]
DistanceSpacing: 0.2
BeatDivisor: 4
GridSize: 8

[Metadata]
Title:Shuuketsu no Sonoe
Artist:Megumi Hayashibara
Creator:akarina
Version:Hard
Source:
Tags:EVA

[Difficulty]
HPDrainRate:6
CircleSize:4
OverallDifficulty:7
ApproachRate:8
SliderMultiplier:2
SliderTickRate:1

[Events]
//Background and Video events
Video,0,"dv.avi"
0,0,"untitled.jpg"
//Break Periods
//Storyboard Layer 0 (Background)
//Storyboard Layer 1 (Fail)
//Storyboard Layer 2 (Pass)
//Storyboard Layer 3 (Foreground)
//Storyboard Sound Samples
//Background Colour Transformations
3,100,163,162,255

[TimingPoints]
1255,857.142857142857,4,2,0,40,1,0
20969,428.571428571429,4,2,0,90,1,0
20969,-100,4,1,0,45,0,0
22683,-100,4,2,0,90,0,0
29539,-100,4,2,0,80,0,0
30825,-100,4,2,0,90,0,0
38539,-100,4,2,0,80,0,0
68539,-100,4,2,0,90,0,0
68968,-100,4,2,0,90,0,1
101111,-100,4,2,0,90,0,0
142682,-100,4,2,0,90,0,1
174825,-133.333333333333,4,2,0,90,0,0
227326,-100,4,2,0,90,0,0
234826,-200,4,2,0,90,0,0
236111,428.571428571429,4,2,0,90,1,0
295253,-133.333333333333,4,2,0,90,0,0

[Colours]
Combo1 : 255,255,255
Combo2 : 0,0,255
Combo3 : 255,255,0
Combo4 : 240,5,5

[HitObjects]
424,280,1255,2,0,B|344:328|344:328|336:316,2,100,2|0|0
424,184,2540,1,2
424,160,2969,1,2
416,64,3397,2,0,B|368:72|368:72|312:64,1,100,0|2
216,48,4255,1,0
40,200,6826,5,2
88,288,7254,2,0,B|144:304|192:288,1,100
240,208,8112,1,2
264,224,8540,1,2
344,288,8969,2,0,B|347:293|347:293|424:232,1,100,0|2
488,160,9826,1,0
88,80,12397,6,0,B|192:80,1,100,2|0
288,80,13254,1,0
320,80,13683,1,2
424,80,14112,2,0,B|424:200,1,100,2|0
424,280,14969,1,2
424,280,15397,1,0
216,176,17969,6,0,B|184:224|216:272,1,100,2|0
296,272,18826,2,0,B|328:224|296:176,1,100,2|0
256,88,19683,1,0
160,240,20112,1,2
352,240,20540,1,0
256,16,20969,5,0
16,192,21397,1,0
256,368,21826,1,0
496,192,22255,1,4
256,192,22683,5,6
251,192,22790,1,0
256,192,22897,1,0
260,192,23005,1,0
264,192,23112,1,2
260,192,23219,1,0
256,192,23326,1,0
251,192,23433,1,0
246,192,23540,1,2
251,192,23647,1,0
256,192,23755,1,0
260,192,23862,1,0
256,192,23969,2,0,B|256:140,2,50,6|4|0
408,280,24397,6,0,B|512:328,2,100,4|0|2
296,320,25039,1,8
392,128,25254,1,2
368,120,25361,1,0
344,112,25468,1,0
320,104,25575,1,0
296,96,25682,1,2
184,56,25897,1,0
72,96,26111,5,8
192,184,26325,1,2
48,232,26539,1,8
168,328,26754,1,2
336,312,26968,5,2
336,312,27075,1,0
336,312,27182,2,0,B|336:320|336:320|424:296,1,100,0|2
328,168,27611,2,0,B|328:160|328:160|240:184,1,100,2|0
128,216,28039,1,0
160,96,28254,5,2
160,96,28468,1,2
248,296,28682,2,0,B|272:248|248:200,1,100,2|0
408,80,29111,2,0,B|384:128|408:176,1,100,2|0
472,264,29539,2,0,B|416:312,1,50,8|0
400,320,29754,5,0
288,192,29968,1,8
312,360,30182,1,0
392,208,30397,1,8
240,288,30611,1,0
120,96,30825,5,4
120,96,30932,2,0,B|120:160,1,50,0|0
112,296,31254,2,0,B|8:344,2,100,4|0|2
224,248,31897,1,10
280,64,32111,1,2
304,72,32218,1,0
328,80,32325,1,0
352,88,32432,1,0
376,96,32539,1,2
488,136,32754,1,0
392,208,32968,6,0,B|344:232|344:304,1,100,8|0
240,232,33397,2,0,B|288:208|288:136,1,100,8|0
168,136,33825,1,2
168,136,33932,1,0
168,136,34039,1,0
72,64,34254,1,2
184,24,34468,1,0
352,56,34682,5,2
368,64,34789,1,0
384,72,34897,1,0
400,80,35004,1,0
416,88,35111,1,2
432,96,35218,1,0
448,104,35325,1,0
464,112,35432,1,0
480,120,35539,2,0,B|480:224,1,100,4|0
352,296,35968,6,0,B|352:240,2,50,4|0|0
352,344,36289,1,2
144,296,36611,2,0,B|144:240,2,50,4|0|0
144,344,36932,1,2
56,64,37254,5,4
56,64,37361,1,0
56,64,37468,2,0,B|120:104,1,50
136,96,37682,2,0,B|192:80,1,50,2|0
224,80,37897,2,0,B|280:112,1,50
304,120,38111,1,4
472,56,38539,6,0,B|504:112|472:160,1,100,2|0
368,200,38968,1,8
400,312,39182,1,0
400,312,39289,1,0
272,240,39504,2,0,B|216:264,1,50
48,264,39825,2,0,B|104:240,1,50,2|0
352,48,40254,6,2,B|384:96|352:152,1,100
160,48,40682,2,0,B|128:96|160:152,1,100,2|0
256,104,41111,1,0
256,112,41218,1,0
256,120,41325,1,0
256,296,41539,1,4
88,240,41968,5,2
96,232,42075,1,0
104,224,42182,1,0
112,216,42289,1,0
120,208,42397,1,2
128,200,42504,1,0
136,192,42611,2,0,B|200:256|248:208,1,100,0|2
320,152,43039,6,0,B|400:160|408:200,1,100,4|0
384,288,43468,2,0,B|304:280|296:240,1,100,4|0
160,80,43897,6,0,B|239:88|245:121,1,100,4|0
160,320,44325,2,0,B|82:313|75:279,1,100,4|0
160,192,44754,5,2
352,192,44968,1,6
64,128,45397,6,0,B|40:80|64:32,1,100,2|0
176,80,45825,1,8
288,120,46039,1,0
304,128,46147,1,0
432,200,46361,2,0,B|392:248,1,50
248,248,46682,2,0,B|216:288,1,50,2|0
80,80,47111,6,0,B|128:104|184:80,1,100,2|0
256,176,47539,1,0
272,184,47647,1,0
288,192,47754,1,0
408,64,47968,1,8
464,168,48182,1,0
416,280,48397,1,8
168,88,48825,5,2
168,88,48932,2,0,B|112:136,1,50
96,144,49147,2,0,B|64:192|96:248,1,100
128,248,49468,1,2
248,232,49682,1,8
344,304,49897,1,0
344,304,50111,2,0,B|408:224,1,100,8|0
472,128,50539,5,2
440,104,50647,1,0
408,80,50754,2,0,B|368:48,1,50
328,48,50968,2,0,B|272:88,1,50,2|0
248,80,51182,2,0,B|128:80,2,100,0|8|8
352,208,51825,6,0,B|248:224|240:360,1,200,2|0
232,64,52682,2,0,B|216:168|80:176,1,200,2|0
112,72,53539,1,8
400,312,53968,1,8
400,72,54397,5,2
400,72,54611,1,2
256,144,54825,1,4
112,72,55254,2,0,B|48:168|112:272,1,200,2|0
406,260,56111,2,0,B|464:168|400:72,1,200,2|0
256,264,56968,5,2
256,72,57182,2,0,B|256:136,2,50,0|0|2
256,72,57611,1,0
112,120,57825,1,2
96,144,57932,1,0
80,168,58039,1,0
64,192,58147,1,0
48,216,58254,2,0,B|48:328,1,100,2|0
160,304,58682,6,0,B|256:352|368:304,1,200,6|0
352,80,59539,2,0,B|256:32|144:80,1,200,2|0
256,192,60397,1,8
256,192,60825,1,8
256,72,61039,5,2
128,192,61254,1,0
256,320,61468,1,2
384,192,61682,1,0
456,64,61897,6,0,B|344:64,1,100,0|2
256,128,62325,1,0
64,200,62539,2,0,B|176:200,1,100,2|0
256,280,62968,1,2
272,288,63075,1,0
288,296,63182,2,0,B|352:336,2,50,0|0|2
352,192,63611,5,0
504,192,63825,1,2
432,56,64039,1,0
432,56,64147,2,0,B|352:72|320:48,1,100
296,48,64468,1,8
208,8,64682,1,2
120,56,64897,5,8
152,320,65111,1,2
376,144,65325,1,2
232,200,65539,5,4
152,72,66182,1,4
56,200,66397,2,0,B|24:248|56:304,2,100,2|0|0
400,200,67039,1,0
256,56,67254,1,2
112,192,67468,1,0
360,336,67682,5,2
160,336,67897,1,2
256,168,68111,1,0
256,176,68219,1,0
256,184,68326,1,0
256,192,68433,1,0
256,200,68540,2,0,B|256:256,2,50,4|0|0
64,80,68968,6,0,B|32:128|64:184,2,100,4|0|0
168,136,69611,1,0
288,136,69825,1,2
472,80,70039,2,0,B|432:176,1,100,0|2
376,280,70468,1,0
256,280,70682,1,2
316,79,70897,6,0,B|344:128|320:176,1,100,0|2
200,152,71325,1,0
112,72,71539,1,2
88,88,71647,1,0
64,104,71754,1,0
64,280,71968,1,8
208,256,72182,6,0,B|256:288|312:256,1,100,0|2
256,152,72611,1,0
112,184,72825,1,8
256,48,73039,1,0
400,192,73254,1,8
256,152,73468,1,0
64,96,73682,6,0,B|176:96,1,100,2|0
64,288,74111,2,0,B|176:288,1,100,4|0
312,288,74539,5,8
432,288,74754,1,2
200,96,74968,1,8
80,96,75183,1,2
136,296,75397,5,4
136,296,75504,1,0
136,296,75611,1,0
376,88,75825,2,0,B|408:136|384:184,1,100,4|0
264,184,76254,1,2
144,184,76468,1,0
32,80,76682,6,0,B|80:56|136:80,2,100,2|0|2
88,184,77325,1,0
40,296,77539,2,0,B|88:317|136:293,1,100,8|0
240,224,77968,1,8
344,288,78182,1,0
240,224,78397,1,8
432,80,78611,5,2
432,80,78718,2,0,B|432:136,1,50
432,280,79039,1,4
64,88,79468,1,4
184,184,79682,1,6
304,88,79897,1,2
184,296,80111,1,4
480,200,80539,6,0,B|408:248|336:200,1,150,2|0
312,168,80968,1,4
152,16,81289,1,2
56,216,81611,1,4
176,136,81825,1,4
416,264,82254,5,4
416,264,82361,1,0
416,264,82469,1,0
344,120,82682,2,0,B|264:184,1,100,4|0
144,264,83111,1,10
32,216,83325,2,0,B|0:264|32:320,1,100,0|2
112,144,83754,2,0,B|144:96|112:40,1,100,0|2
296,96,84182,1,0
296,248,84397,5,8
384,128,84611,1,0
240,176,84825,1,8
384,224,85039,1,0
296,96,85254,1,8
128,88,85468,2,0,B|80:56,2,50,0|0|2
56,159,85897,6,0,B|8:248|50:353,1,200
168,240,86539,1,2
256,320,86754,1,0
344,240,86968,1,8
344,240,87182,1,2
456,200,87397,2,0,B|480:248|456:304,1,100,8|0
296,312,87825,6,0,B|176:368,1,100,2|0
216,72,88254,2,0,B|336:16,1,100,2|0
256,192,88682,1,8
256,192,88897,1,0
96,96,89111,5,4
96,96,89219,1,0
96,96,89326,1,0
200,312,89539,2,0,B|224:264|200:208,1,100,4|0
96,264,89968,1,8
208,112,90182,6,0,B|256:128|312:112,1,100,0|2
416,64,90611,1,0
416,64,90719,1,0
416,64,90826,1,0
440,256,91039,1,0
328,208,91254,2,0,B|272:208|256:272,1,100,8|0
184,328,91682,2,0,B|240:328|256:264,1,100,8|0
144,216,92111,1,2
56,80,92325,5,2
56,80,92432,2,0,B|120:104,1,50
256,80,92754,1,4
96,312,93182,1,4
256,192,93397,1,6
416,312,93611,1,4
256,192,93825,1,6
80,64,94254,6,0,B|32:136|80:208,1,150,2|0
120,208,94683,1,4
320,104,95004,1,2
320,328,95326,1,4
256,216,95539,2,0,B|208:240,4,50,4|0|0|0|2
416,320,96182,5,4
256,136,96611,1,2
256,256,96825,1,4
256,136,97039,1,2
104,320,97254,1,4
104,320,97682,2,0,B|56:232|104:104,1,200,2|0
256,192,98218,12,0,101111
