osu file format v6

[General]
AudioFilename: northern_lights.mp3
AudioLeadIn: 66
PreviewTime: -1
Countdown: 0
SampleSet: Soft
StackLeniency: 0.2
Mode: 0
LetterboxInBreaks: 1

[Editor]
DistanceSpacing: 0.800000011920929
BeatDivisor: 2
GridSize: 16

[Metadata]
Title:Northern Lights
Artist:Megumi Hayashibara
Creator:Kisaragi Justice
Version:No Light
Source:
Tags:

[Difficulty]
HPDrainRate:3
CircleSize:5
OverallDifficulty:2
SliderMultiplier:1.5
SliderTickRate:1

[Events]
//Background and Video events
0,0,"wallpaper_0027.jpg"
//Break Periods
//Storyboard Layer 0 (Background)
//Storyboard Layer 1 (Fail)
//Storyboard Layer 2 (Pass)
//Storyboard Layer 3 (Foreground)
Sprite,Foreground,Centre,"arrowsmall.png",320,240 M,0,52951,,356,119
//Storyboard Sound Samples
//Background Colour Transformations
3,100,163,162,255

[TimingPoints]
1135,444.378610576211,4,2,0,85,1,0
26020,-100,4,1,0,85,0,0

[Colours]
Combo1 : 27,202,245
Combo2 : 235,235,235

[HitObjects]
16,80,11800,1,0
80,32,12244,1,0
144,80,12688,1,2
208,32,13133,1,0
272,80,13577,1,0
336,32,14021,1,0
400,80,14466,1,2
432,32,14910,6,0,L|480:32,2,37.5
496,80,15355,1,2
480,192,15577,6,0,L|416:128,1,75
384,208,16021,2,0,L|320:144,1,75,0|2
224,176,16688,1,0
144,112,17132,1,2
64,176,17577,1,0
64,272,18021,1,2
208,272,18465,2,0,L|288:304,1,75
480,336,19132,5,0
432,304,19354,2,0,L|368:256,1,75
400,208,19798,2,0,L|464:160,1,75,2|0
464,96,20243,1,0
400,48,20687,1,2
336,112,21132,5,0
256,176,21354,2,0,L|192:240,1,75,0|2
415,159,21909,1,0
352,240,22242,2,0,L|288:304,1,75,0|2
464,352,22687,6,0,L|384:352,1,75,2|0
320,352,23131,1,0
224,352,23353,2,0,L|144:352,1,75,2|0
64,352,23798,1,0
64,256,24020,2,0,L|144:256,1,75
256,208,24464,12,0,26020
32,32,26464,5,0
112,96,26908,1,0
192,32,27353,1,0
272,96,27797,1,0
336,96,28131,2,0,L|480:96,1,112.5
480,320,29575,5,0
416,256,30019,2,0,L|256:256,1,150
208,336,30908,1,0
144,272,31352,1,0
112,336,31686,1,0
48,352,32019,1,0
64,288,32463,2,0,L|64:208,2,75
32,128,33130,6,0,L|96:80|176:160,1,150
208,128,34019,2,0,L|272:80|352:160,1,150,0|0
384,128,34907,6,0,L|448:80|528:160,2,150
256,208,36018,12,0,39795
32,32,42017,5,4
96,96,42462,1,0
176,48,42906,1,4
240,112,43350,1,0
304,48,43795,2,0,B|352:96|320:192,1,150,4|0
288,256,44684,1,0
464,336,45128,5,0
400,272,45572,2,0,B|240:352,1,150
224,288,46461,1,4
176,336,46905,2,0,B|16:336,2,150
32,32,48683,6,0,B|32:192,2,150,0|4|0
112,32,50016,2,0,B|112:208,2,150,4|0|0
480,160,52238,6,0,B|480:80,2,75
400,160,53127,1,0
304,160,53571,1,0
224,160,54016,2,0,B|224:80,2,75
144,160,54682,2,0,B|144:80,1,75
