osu file format v6

[General]
AudioFilename: northern_lights.mp3
AudioLeadIn: 66
PreviewTime: -1
Countdown: 0
SampleSet: Normal
StackLeniency: 0.2
Mode: 0
LetterboxInBreaks: 1

[Editor]
Bookmarks: 70459
DistanceSpacing: 0.800000011920929
BeatDivisor: 4
GridSize: 8

[Metadata]
Title:Northern Lights
Artist:Megumi Hayashibara
Creator:Kisaragi Justice
Version:Dim
Source:
Tags:

[Difficulty]
HPDrainRate:2
CircleSize:5
OverallDifficulty:4
SliderMultiplier:1.5
SliderTickRate:0.5

[Events]
//Background and Video events
0,0,"wallpaper_0027.jpg"
//Break Periods
2,63549,69361
//Storyboard Layer 0 (Background)
//Storyboard Layer 1 (Fail)
//Storyboard Layer 2 (Pass)
//Storyboard Layer 3 (Foreground)
//Storyboard Sound Samples
//Background Colour Transformations
3,100,163,162,255

[TimingPoints]
1135.4347826087,444.382608695655,4,1,0,100,1,0
11911,-100,4,2,0,100,0,0
25909,-100,4,1,0,100,0,0
36797,-100,4,1,0,25,0,0
37241,-100,4,1,0,50,0,0
37685,-100,4,1,0,74,0,0
38130,-100,4,1,0,100,0,0

[Colours]
Combo1 : 5,148,209
Combo2 : 235,235,235

[HitObjects]
32,48,12022,1,0
96,48,12245,2,0,B|96:160,1,75
160,160,12689,1,2
168,104,12911,2,0,B|232:120|216:184,1,75
256,80,13355,1,0
280,144,13578,2,0,B|320:128|328:72,1,75
392,80,13911,1,0
376,152,14133,2,0,B|344:192,1,37.5
480,344,15577,5,2
416,328,15800,2,0,B|368:312|368:264,1,75
432,264,16244,1,2
488,264,16466,2,0,B|488:224,1,37.5
432,264,16799,1,0
432,264,16911,6,0,B|400:216|360:208,1,75,0|2
360,272,17355,2,0,B|320:288|280:272,1,75,0|0
248,320,17799,1,0
224,264,18021,2,0,B|176:256|160:320,1,75,2|0
136,352,18466,1,0
64,352,18688,2,0,B|80:296|128:288,1,75,0|2
32,232,19132,5,0
88,216,19354,2,0,B|128:176|176:192,2,75,2|0|2
32,168,20021,2,0,B|28:150|7:136,2,37.5
88,144,20466,1,0
88,80,20688,2,0,B|168:96|144:176,1,112.5
112,216,21243,2,0,B|160:216,1,37.5
472,32,22687,6,0,B|488:64|464:104,1,75
416,64,23132,1,0
360,72,23354,2,0,B|352:112|376:144,1,75,2|0
432,136,23687,2,0,B|440:184|376:208,1,75
360,232,24021,1,0
472,352,24465,5,0
472,288,24687,2,0,B|416:296|400:344|424:352,1,75
472,352,25132,1,2
352,360,25354,2,0,B|312:360,1,37.5
360,320,25687,2,0,B|320:312,1,37.5
256,328,26020,5,0
224,280,26243,2,0,B|176:296|200:368,2,75,0|0|0
136,296,26909,1,0
48,280,27131,2,0,B|96:296|72:368,2,75,0|0|0
16,208,27798,6,0,B|128:160|8:112,1,150
8,48,28464,1,0
472,48,29575,6,0,B|440:32|384:48,1,75
424,96,30020,2,0,B|392:112|344:96,1,75
344,40,30464,2,0,B|304:32|264:40,1,75
232,88,30909,1,0
200,32,31353,2,0,B|152:80|176:136|224:144,2,112.5
96,360,33130,6,0,B|56:232|16:376,2,150
160,320,34464,1,0
248,328,34908,2,0,B|304:376|368:304,2,112.5
296,288,36019,2,0,B|288:240|248:224,1,75
296,288,36463,2,0,B|304:240|344:224,1,75
264,168,36908,6,0,B|232:144,2,37.5
320,120,37352,2,0,B|352:96,2,37.5
248,80,37797,2,0,B|216:56,2,37.5
304,48,38241,1,0
376,48,38463,2,0,L|440:88|472:176,1,150
400,168,39352,2,0,L|384:248|432:312,1,150
488,288,40241,2,0,L|472:344|408:368,2,112.5
480,48,41352,5,0
488,112,41574,2,0,B|424:112|424:56,1,75
376,24,42018,1,4
336,80,42240,6,0,B|306:137|257:111,1,75
272,48,42685,1,0
216,24,42907,2,0,B|192:24|192:48,1,37.5,0|4
144,120,43351,1,0
168,184,43573,2,0,B|152:200|128:192,1,37.5
40,328,44907,5,0
8,288,45129,2,0,B|24:264|48:264,1,37.5
88,288,45462,2,0,B|232:296|192:152,1,187.5,4|0
144,152,46240,2,0,B|176:104|224:128,2,75,0|4|0
104,216,46906,1,0
72,160,47129,2,0,B|72:112|32:104,3,75
16,200,48462,5,0
80,200,48684,1,0
144,200,48906,1,0
200,176,49128,2,0,B|240:144|296:200,2,75,4|0|4
232,224,49795,2,0,B|272:256|320:216,2,75,4|0|4
328,176,50461,2,0,B|376:200|352:272,1,75,0|0
408,192,50795,1,0
480,224,52017,5,0
464,160,52239,2,0,B|432:176|432:200,1,37.5
440,240,52572,2,0,B|376:248|376:160,1,112.5
312,168,53128,1,0
320,104,53350,2,0,B|256:104|256:160,1,75,0|4
256,200,53794,2,0,B|208:200|200:136,1,75,0|0
144,152,54239,1,0
112,96,54461,2,0,B|64:120|88:184,2,75,4|0|0
256,208,56016,12,4,58905
24,224,59793,5,0
80,152,60127,1,0
144,232,60460,1,0
192,152,60682,1,0
256,208,61015,5,0
336,232,61349,5,0
424,216,61571,1,0
360,144,61904,1,0
464,120,62238,1,4
256,208,62460,12,4,63349
24,56,70681,5,0
32,120,70903,2,0,B|88:104|88:40,1,75
136,104,71347,2,0,B|152:88|176:96,1,37.5
136,32,71681,2,0,B|152:40|176:32,1,37.5
232,72,72014,1,0
344,32,72236,2,0,B|384:72|336:128,1,75
296,72,72569,1,0
336,152,72792,2,0,B|352:160|376:152,1,37.5,0|0
480,160,74236,5,0
464,216,74458,2,0,B|456:248|400:216,2,37.5
416,168,74902,1,0
376,224,75125,2,0,B|336:248|280:216,1,75
336,176,75569,2,0,B|280:160|240:200,1,75
224,232,76013,5,0
168,224,76125,1,0
136,184,76236,2,0,B|112:144|144:112,2,75
112,240,76902,2,0,B|72:240|40:208,2,75
160,280,77569,1,0
80,328,77791,6,0,B|56:352|24:336,2,37.5
128,304,78235,1,0
192,336,78458,2,0,B|224:368|280:328,1,75
224,288,78791,1,0
264,240,79013,2,0,B|288:256|280:280,1,37.5
320,336,79346,1,0
376,328,79568,2,0,B|376:288|320:272,2,75
480,344,81346,6,0,B|448:304|480:264,2,75
408,272,82013,1,0
400,216,82235,2,0,B|368:216|368:248,1,37.5
352,288,82568,2,0,B|352:320|384:320,1,37.5
256,336,83124,5,0
224,296,83235,1,0
184,336,83346,2,0,B|176:336|128:312|176:280,2,75
128,360,84012,2,0,B|88:344|112:320,1,37.5
128,248,84346,2,0,B|88:272|112:296,1,37.5
16,304,84679,5,0
24,240,84901,2,0,B|16:224|24:200,2,37.5
80,264,85345,2,0,B|88:248|112:248,2,37.5
80,320,85790,2,0,B|88:336|120:328,2,37.5
24,312,86234,5,0
8,264,86345,1,0
32,216,86456,2,0,B|88:184|144:216|144:216,2,112.5
16,152,87345,2,0,B|40:136|64:144,1,37.5
112,144,87567,2,0,B|144:144|152:160,1,37.5
96,48,88234,6,0,B|48:56|16:40,2,75
144,72,88901,1,0
192,48,89123,2,0,B|224:64|288:32,2,75
216,128,90011,2,0,B|224:168|280:200|320:152,2,112.5
296,88,91122,2,0,B|352:64|384:120,2,75
328,144,91789,6,0,B|336:192|432:216|456:128,2,150
256,144,93122,1,0
136,152,93567,2,0,B|96:224|176:256,1,112.5
192,192,94233,1,0
312,200,94677,5,0
400,264,94900,1,0
312,336,95122,1,0
216,264,95344,1,0
144,296,95566,6,0,B|112:320,2,37.5
160,224,96011,2,0,B|136:192,2,37.5
64,240,96455,2,0,B|24:216,2,37.5
104,136,96899,2,0,B|96:88,2,37.5
240,96,97344,2,0,B|200:80|160:112,1,75
224,152,97788,2,0,B|272:168|312:128,2,75
304,80,98455,1,0
256,208,98788,12,0,99788
88,64,100677,6,0,B|40:96|8:48,2,75
112,120,101343,1,0
160,152,101565,2,0,B|208:184|248:136,2,75
104,184,102232,2,0,B|96:200|104:224,1,37.5
480,248,103565,5,0
432,288,103787,2,0,B|384:312|424:360,1,75
416,224,104232,1,0
472,176,104454,2,0,B|456:136|392:128,1,75
504,104,104898,2,0,B|448:96|456:40,1,75
512,40,105343,1,0
448,48,105565,6,0,B|384:72|352:56,1,75
312,64,106009,1,0
256,168,106231,1,0
264,104,106454,1,0
