osu file format v7

[General]
AudioFilename: Infinity (TV Size).mp3
AudioLeadIn: 0
PreviewTime: 43932
Countdown: 0
SampleSet: Normal
StackLeniency: 0.7
Mode: 0
LetterboxInBreaks: 1

[Editor]
DistanceSpacing: 0.800000011920929
BeatDivisor: 4
GridSize: 8

[Metadata]
Title:Infinity (TV Size)
Artist:Megumi Hayashibara
Creator:Astom
Version:Insane
Source:Lost Universe
Tags:Sallad4ever orioncomet

[Difficulty]
HPDrainRate:6
CircleSize:5
OverallDifficulty:8
SliderMultiplier:1.5
SliderTickRate:2

[Events]
//Background and Video events
0,0,"BG.jpg"
//Break Periods
//Storyboard Layer 0 (Background)
//Storyboard Layer 1 (Fail)
//Storyboard Layer 2 (Pass)
//Storyboard Layer 3 (Foreground)
//Storyboard Sound Samples
//Background Colour Transformations
3,100,0,0,0

[TimingPoints]
2980,413.793103448276,4,1,0,60,1,0
3303,-100,4,1,0,30,0,0
3691,-100,4,1,0,40,0,0
4104,-100,4,1,0,50,0,0
4311,-100,4,1,0,60,0,0
4570,-100,4,2,0,60,0,0
8242,-100,4,2,0,70,0,0
8656,-100,4,2,0,80,0,0
10467,-100,4,1,0,60,0,0
11346,-100,4,2,0,60,0,0
30277,-100,4,1,0,60,0,0
57393,-100,4,2,0,60,0,0
57600,-100,4,2,0,40,0,1
57846,-100,4,1,0,60,0,1
60704,-100,4,1,0,60,0,0
70842,-100,4,1,0,60,0,1
83773,-100,4,1,0,0,0,1
83980,-100,4,1,0,50,0,1
85324,-100,4,1,0,60,0,0
85531,-100,4,2,0,60,0,0
90794,-100,4,1,0,60,0,0

[Colours]
Combo1 : 0,128,255
Combo2 : 128,128,128

[HitObjects]
256,344,3393,1,0
280,328,3497,1,0
296,304,3600,1,0
296,272,3704,1,0
272,256,3807,1,0
248,240,3911,1,0
232,216,4014,1,0
224,184,4117,1,0
240,160,4221,1,0
256,136,4324,1,0
272,112,4428,1,4
264,80,4531,1,4
256,56,4635,5,4
80,192,5048,1,2
256,360,5462,1,2
432,192,5876,1,2
256,32,6290,5,2
256,120,6600,1,2
256,208,6911,1,2
256,328,7324,5,0
256,264,7531,1,2
256,264,7635,1,2
176,224,7945,5,2
256,136,8359,1,2
336,224,8773,1,2
424,136,9186,1,6
336,56,9600,5,0
336,144,9911,1,0
336,56,10221,1,0
272,56,10428,5,4
272,56,10531,1,0
272,56,10635,1,0
216,56,10842,1,0
216,56,10945,1,0
216,56,11048,1,0
160,56,11255,5,4
64,128,11669,1,2
88,248,12083,1,2
184,320,12497,1,2
296,288,12911,1,2
320,200,13221,1,2
256,136,13531,1,2
376,136,13945,5,0
432,112,14152,1,2
432,112,14255,1,0
472,192,14566,5,2
256,96,14979,1,2
40,192,15393,1,2
256,280,15807,1,6
256,40,16221,5,0
224,88,16428,1,2
256,96,16531,1,2
288,88,16635,1,2
328,128,16842,5,2
304,144,16945,1,2
272,152,17048,1,2
240,152,17152,1,2
208,144,17255,1,2
184,128,17359,1,2
176,104,17462,1,2
144,56,17669,1,2
112,104,17876,6,0,B|112:160|176:208|224:216|224:216,2,150,6|0|0
32,192,19117,1,0
120,272,19531,2,6,B|120:216|184:168|232:160|232:160,2,150,2|0|0
296,296,20979,5,2
344,264,21186,2,2,B|392:248|432:208|392:144|352:136|336:176|336:176,3,150
256,96,22842,5,2
256,184,23152,1,2
256,272,23462,1,2
256,328,23669,1,2
256,168,24290,5,2
256,224,24497,1,2
208,256,24704,1,0
256,288,24911,1,2
256,288,25014,1,2
320,224,25324,1,2
256,120,25738,5,2
256,8,26152,2,2,B|192:8|128:40|120:96|152:184|152:184,1,225
168,216,26979,1,2
344,216,27600,5,2
368,160,27807,1,2
256,112,28221,1,2
256,232,28635,1,0
152,288,29048,1,2
256,344,29462,1,2
360,288,29876,1,2
360,288,30083,1,2
200,192,31117,5,4
320,192,31531,1,0
440,192,31945,1,0
384,88,32359,1,0
320,192,32773,2,0,B|368:264|368:264,1,75
400,304,33186,2,0,B|464:240|464:240,1,75
440,192,33600,1,4
200,192,34428,5,0
200,72,34842,1,0
304,128,35255,1,0
200,192,35669,5,0
200,312,36083,1,0
248,232,36393,1,0
152,232,36704,1,0
200,192,36911,1,0
200,192,37117,1,4
384,192,37738,5,0
320,88,38152,1,0
256,192,38566,1,0
192,88,38980,1,0
128,192,39393,1,0
168,272,39704,1,0
256,296,40014,1,0
320,296,40221,1,0
312,264,40324,1,0
288,240,40428,1,0
224,240,40635,1,4
256,184,40842,5,0
256,120,41048,1,0
352,192,41462,1,0
472,192,41876,1,0
456,304,42290,1,0
344,304,42704,1,4
312,248,42911,1,0
376,248,43117,1,4
480,192,43531,5,0
464,136,43738,1,0
432,144,43842,1,0
408,160,43945,1,0
384,176,44048,1,0
352,184,44152,1,0
320,184,44255,1,0
288,192,44359,5,4
48,192,44773,1,4
184,72,45393,5,0
176,128,45600,1,0
208,176,45807,1,0
264,192,46014,1,0
264,192,46221,1,0
320,184,46428,1,0
352,136,46635,1,0
256,64,47048,5,0
224,112,47255,1,0
208,168,47462,1,0
224,224,47669,1,0
256,272,47876,1,0
312,288,48083,1,0
368,280,48290,1,0
408,240,48497,1,0
416,184,48704,1,0
384,136,48911,1,0
328,120,49117,1,0
272,136,49324,6,0,B|232:192|256:240|320:264|392:240|368:160|368:160,1,225
352,120,50152,2,0,B|312:64|336:16|400:-8|472:16|448:96|448:96,1,225
464,136,50980,2,0,B|504:192|480:240|416:264|344:240|368:160|368:160,1,225
256,128,52014,5,0
256,128,52221,1,0
256,192,52428,1,4
256,224,52531,1,0
256,376,53048,1,0
200,272,53462,5,0
256,296,53669,1,0
312,272,53876,1,0
256,192,54083,12,4,55117
256,192,55324,5,0
216,144,55531,1,0
176,192,55738,1,0
176,192,55842,1,0
176,192,55945,1,0
216,240,56152,1,0
216,272,56255,1,0
240,296,56359,1,0
288,328,56566,1,0
320,336,56669,1,0
352,328,56773,1,0
376,304,56876,1,0
384,272,56980,1,0
376,240,57083,1,0
352,216,57186,1,0
296,192,57393,5,0
264,192,57497,2,2,B|232:192|232:192,5,18.75
168,192,58014,1,0
120,152,58221,5,0
168,192,58428,1,0
168,136,58635,1,0
168,192,58842,1,0
216,152,59048,1,0
168,192,59255,5,0
168,280,59566,1,0
168,312,59669,1,0
136,360,59876,1,0
168,368,59980,1,0
200,360,60083,1,4
256,192,60704,5,0
280,248,60911,1,0
336,224,61117,1,0
312,168,61324,1,0
256,192,61531,1,0
312,168,61738,1,0
288,112,61945,1,0
232,136,62152,1,0
256,192,62359,1,0
256,192,62462,12,4,63393
256,248,64014,5,0
256,248,64117,1,0
256,248,64221,1,0
352,192,64428,1,0
256,160,64635,1,0
160,192,64842,1,0
200,96,65048,5,0
200,96,65152,1,0
312,96,65359,1,0
312,96,65462,1,0
256,160,65669,5,0
256,248,65876,1,0
256,248,65980,1,0
256,248,66083,1,0
256,160,66290,1,0
256,72,66497,5,0
256,72,66600,1,0
256,72,66704,1,4
256,248,67324,6,0,B|256:288|256:288,2,37.5
152,192,67945,1,0
256,136,68359,1,0
360,192,68773,5,0
120,192,69186,1,4
480,192,69807,1,0
360,192,70014,1,4
200,112,70635,5,0
200,176,70842,1,4
168,232,71048,1,0
200,288,71255,1,0
256,320,71462,5,0
312,288,71669,1,0
336,272,71773,1,0
344,240,71876,1,0
336,208,71980,1,0
320,184,72083,1,0
272,144,72290,5,0
256,88,72497,1,0
256,32,72704,1,0
256,32,72807,1,0
256,32,72911,1,0
256,88,73117,1,0
272,144,73324,1,4
376,192,73945,5,0
432,192,74152,2,0,B|464:208|464:280|432:296|432:296,1,112.5,0|0
344,296,74773,2,0,B|320:312|320:344|344:360|344:360,1,75,0|0
392,328,75186,1,0
440,296,75393,1,0
392,256,75600,1,0
392,192,75807,6,0,B|392:144|360:112|288:112|256:144|256:224|256:224,1,225
256,248,76531,1,0
256,280,76635,1,4
184,128,77255,6,0,B|136:104|136:104,2,37.5,0|0|0
256,168,77669,1,0
248,88,77876,1,0
256,168,78083,1,0
328,128,78290,5,0
328,128,78393,1,0
256,168,78600,1,0
256,168,78704,1,0
328,216,78911,1,0
256,168,79117,1,0
256,248,79324,6,0,B|256:296|256:296,2,37.5
256,168,79738,1,0
184,208,79945,1,4
256,40,80566,5,0
192,40,80773,1,0
256,136,81186,1,0
320,40,81600,1,0
320,160,82014,5,0
192,160,82428,1,4
256,328,83048,1,0
256,264,83255,6,0,B|312:208|160:208|256:88|256:32|256:32,1,225
256,192,84083,12,4,85324
256,32,85738,5,2
384,144,86152,1,2
256,264,86566,1,2
128,144,86980,1,2
296,96,87393,1,2
360,200,87704,1,2
256,264,88014,1,2
192,224,88221,1,2
392,88,89048,5,2
360,192,89462,1,2
256,256,89876,1,2
152,192,90290,1,6
256,136,90704,1,2
256,200,90911,5,0
272,224,91014,1,0
280,256,91117,1,0
224,280,91324,1,0
192,272,91428,1,0
176,248,91531,1,0
192,224,91635,1,0
200,192,91738,1,0
176,176,91842,1,0
152,152,91945,1,0
200,120,92152,1,0
104,48,92566,1,4
