osu file format v7

[General]
AudioFilename: slayersnextop.mp3
AudioLeadIn: 0
PreviewTime: 50127
Countdown: 0
SampleSet: Normal
StackLeniency: 0.7
Mode: 0
LetterboxInBreaks: 1

[Editor]
DistanceSpacing: 0.800000011920929
BeatDivisor: 4
GridSize: 8

[Metadata]
Title:Give a Reason
Artist:Megumi Hayashibara
Creator:arimnaes
Version:Normal
Source:Slayers NEXT
Tags:Lina Inverse Gourry Zelgadis Amelia Anime

[Difficulty]
HPDrainRate:4
CircleSize:4
OverallDifficulty:4
SliderMultiplier:1.4
SliderTickRate:1

[Events]
//Background and Video events
0,0,"background_by_KatHart.png"
Video,0,"slayersnextop.avi"
//Break Periods
//Storyboard Layer 0 (Background)
//Storyboard Layer 1 (Fail)
//Storyboard Layer 2 (Pass)
//Storyboard Layer 3 (Foreground)
//Storyboard Sound Samples
//Background Colour Transformations
3,100,163,162,255

[TimingPoints]
9827,428.755180791768,4,2,0,100,1,0
10034,-100,4,2,1,100,0,0
10248,-100,4,2,0,100,0,0
16250,-100,4,2,0,80,0,0
19466,-100,4,2,0,100,0,0
19895,-100,4,2,0,80,0,0
22467,-100,4,2,0,70,0,0
23110,-100,4,2,0,80,0,0
25897,-100,4,2,0,70,0,0
26540,-100,4,2,0,80,0,0
32756,-100,4,2,0,85,0,0
33185,-100,4,2,0,90,0,0
33507,-100,4,2,0,95,0,0
33721,-100,4,2,0,100,0,0
49155,-100,4,1,0,100,0,0
50987,-100,4,1,0,100,0,1
64064,-100,4,1,0,100,0,0
71127,-100,4,2,0,100,0,0
73914,-100,4,1,0,100,0,0

[Colours]
Combo1 : 128,0,255
Combo2 : 255,0,0
Combo3 : 5,5,240

[HitObjects]
80,112,9826,6,6,B|192:48,1,105
248,24,10470,2,2,B|360:88,1,105
408,120,11113,1,2
384,232,11542,2,2,B|272:296,1,105
256,208,12185,1,2
256,208,12399,1,4
160,320,13257,6,2,B|48:256,1,105
104,192,13900,2,2,B|168:80,1,105
200,32,14543,1,6
304,64,14972,2,2,B|368:176,1,105
336,232,15615,1,2
336,232,15829,1,4
136,128,16687,6,0,B|176:56|264:48|360:64|376:144,3,280
368,240,19688,1,6
368,352,20117,5,0
256,352,20545,1,0
144,352,20974,1,2
32,232,21617,1,0
32,232,21832,1,0
144,232,22260,1,0
256,232,22689,1,4
368,32,23547,5,0
256,32,23975,1,0
144,32,24404,1,2
32,152,25047,1,0
32,152,25262,1,0
144,152,25690,1,0
256,152,26119,1,4
344,128,26977,6,0,B|384:192|368:256|328:272|328:272|328:272,2,140
176,128,28477,1,0
176,128,28692,2,0,B|136:192|152:256|192:272|192:272|192:272,2,140
256,16,30407,5,0
256,128,30836,1,0
256,240,31264,1,0
144,360,31907,1,0
144,360,32122,1,4
256,360,32551,1,4
368,360,32979,2,4,B|440:344|432:256,2,105
312,360,33837,5,6
256,200,34480,1,2
256,200,34694,1,2
368,88,35337,1,2
368,88,35552,2,2,B|440:112|464:184|448:224,2,140
256,64,36838,1,2
144,40,37267,5,6
192,136,37696,1,2
240,240,38124,2,2,B|280:248|328:216|344:184,2,105
184,240,38982,2,2,B|120:240|88:272|80:296,2,105
240,240,39839,2,6,B|304:240|336:272|344:296,1,105
432,176,40697,5,6
368,88,41126,1,2
256,88,41554,1,2
144,88,41983,1,2
80,176,42412,2,2,B|112:176|152:176,3,70
208,176,43269,2,6,B|288:184|296:256|304:264,1,105
256,64,44127,5,4
360,112,44556,1,2
400,216,44984,2,2,B|440:208|480:168|472:120,2,105
344,216,45842,5,4
240,168,46271,1,2
136,216,46699,2,2,B|128:176|88:136|40:144,2,105
144,272,47557,5,6
256,272,47986,1,6
256,160,48414,2,4,B|256:80|256:48,2,105
256,216,49272,1,4
256,328,49701,1,4
440,320,50987,5,4
328,320,51416,1,0
240,248,51845,2,0,B|176:248|144:200|152:168,2,105
272,200,52702,2,0,B|336:200|368:152|360:120,2,105
256,144,53560,1,4
72,64,54417,5,0
184,64,54846,1,0
272,136,55275,2,0,B|336:136|368:184|360:216,2,105
240,184,56132,2,0,B|176:184|144:232|152:264,2,105
256,240,56990,1,4
256,344,57847,5,0
256,232,58276,1,0
224,120,58705,2,0,B|160:120|128:168|136:200,2,105
288,120,59562,2,0,B|352:120|384:168|376:200,2,105
256,168,60420,1,4
168,80,61277,5,2
280,80,61706,1,2
392,80,62135,2,6,B|392:136|392:176|392:208,1,105
392,264,62778,5,2
392,264,62992,2,2,B|296:264|272:264,1,105
200,264,63635,1,2
200,264,63850,1,6
312,72,64707,5,2
200,72,65136,1,6
152,176,65565,2,0,B|216:208|312:208|376:168|376:168,1,210
360,232,66422,2,0,B|296:264|200:264|136:224|136:224,1,210
104,216,67280,1,4
312,352,68137,5,2
200,352,68566,1,2
216,240,68995,2,0,B|344:200|344:200,1,105
384,152,69638,1,0
328,136,69852,2,0,B|200:96|200:96,1,105
256,24,70495,1,0
256,24,70710,1,4
152,88,71567,5,6
104,192,71996,1,2
152,296,72425,1,6
256,336,72854,1,2
360,296,73282,1,6
408,192,73711,1,2
360,88,74140,1,4
256,192,74569,12,4,80142
