osu file format v7

[General]
AudioFilename: slayersnextop.mp3
AudioLeadIn: 0
PreviewTime: 50127
Countdown: 0
SampleSet: Normal
StackLeniency: 0.7
Mode: 0
LetterboxInBreaks: 1

[Editor]
DistanceSpacing: 1
BeatDivisor: 4
GridSize: 8

[Metadata]
Title:Give a Reason
Artist:Megumi Hayashibara
Creator:arimnaes
Version:Hard
Source:Slayers NEXT
Tags:Lina Inverse Gourry Zelgadis Amelia Anime

[Difficulty]
HPDrainRate:5
CircleSize:4
OverallDifficulty:5
SliderMultiplier:1.5
SliderTickRate:1

[Events]
//Background and Video events
0,0,"background_by_KatHart.png"
Video,0,"slayersnextop.avi"
//Break Periods
//Storyboard Layer 0 (Background)
//Storyboard Layer 1 (Fail)
//Storyboard Layer 2 (Pass)
//Storyboard Layer 3 (Foreground)
//Storyboard Sound Samples
//Background Colour Transformations
3,100,163,162,255

[TimingPoints]
9827,428.755180791768,4,2,0,100,1,0
10034,-100,4,2,1,100,0,0
10248,-100,4,2,0,100,0,0
16250,-100,4,2,0,80,0,0
19144,-100,4,2,0,90,0,0
19466,-100,4,2,0,100,0,0
19895,-100,4,2,0,80,0,0
22574,-100,4,2,0,70,0,0
23217,-100,4,2,0,80,0,0
26004,-100,4,2,0,70,0,0
26647,-100,4,2,0,80,0,0
32863,-100,4,2,0,85,0,0
33185,-100,4,2,0,90,0,0
33507,-100,4,2,0,95,0,0
33732,-100,4,2,0,100,0,0
49155,-100,4,1,0,90,0,0
50987,-100,4,1,0,90,0,1
64064,-100,4,1,0,90,0,0
71127,-100,4,2,0,100,0,0
74021,-100,4,1,0,90,0,0
74450,-100,4,2,0,100,0,0
76486,-100,4,1,0,90,0,0

[Colours]
Combo1 : 128,0,255
Combo2 : 255,0,0
Combo3 : 5,5,240

[HitObjects]
80,104,9826,2,6,B|176:24,1,112.5
224,128,10470,1,2
312,56,10791,1,2
368,152,11113,2,2,B|456:104,2,75
336,256,11863,1,2
232,296,12185,1,2
168,328,12399,1,6
432,96,13257,5,2
344,32,13578,1,2
256,96,13900,1,2
168,32,14221,1,2
80,96,14543,1,6
80,96,14757,1,2
80,96,14972,1,4
168,168,15293,1,4
136,272,15615,1,2
200,304,15829,1,4
168,24,16687,6,0,B|208:24|240:56|248:72|264:144|312:144|376:144,1,225
312,208,17544,2,0,B|277:208|229:208|208:136|200:120|168:88|112:88,1,225
96,160,18402,2,0,B|136:160|168:192|176:208|192:280|240:280|304:280,1,225
344,296,19259,1,6
480,352,19688,1,6
368,368,20117,6,0,B|296:368|280:368,1,75
224,352,20545,2,0,B|128:296,1,75
96,272,20974,1,2
96,272,21189,1,2
16,144,21617,1,0
88,144,21832,2,0,B|168:144,1,75
240,144,22260,2,0,B|320:144,1,75
392,144,22689,1,4
392,144,22904,1,4
144,16,23547,6,0,B|216:16|232:16,1,75
288,32,23975,2,0,B|384:88,1,75
416,112,24404,1,2
416,112,24619,1,2
496,240,25047,1,0
424,240,25262,2,0,B|344:240,1,75
272,240,25690,2,0,B|192:240,1,75
120,240,26119,1,4
120,240,26334,1,4
352,200,26977,6,0,B|352:264|352:296,4,75
352,128,28049,1,0
160,128,28477,5,0
160,200,28692,2,0,B|160:264|160:296,4,75
160,128,29764,1,0
256,24,30407,5,0
312,72,30621,1,0
256,120,30836,1,0
312,168,31050,1,0
256,216,31264,1,0
312,264,31479,1,0
144,344,31907,5,0
144,344,32122,2,0,B|224:344,1,75
288,344,32551,2,0,B|368:344,1,75
416,288,32979,1,4
368,184,33301,1,4
272,120,33622,1,4
208,88,33837,5,6
16,200,34480,1,2
72,248,34694,2,2,B|104:304|176:304,2,112.5
88,176,35552,2,2,B|128:120|168:128,1,75
208,96,35981,2,2,B|248:88|296:88|304:96,1,75
360,96,36409,1,6
464,136,36731,1,4
256,176,37267,5,4
384,256,37696,1,2
320,288,37910,1,2
248,280,38124,2,2,B|192:280|144:232|136:200,2,112.5
216,344,38982,2,2,B|160:344|112:296|104:272,2,112.5
288,344,39839,1,4
392,312,40161,1,4
480,96,40697,5,4
328,96,41126,1,2
256,96,41340,1,2
184,96,41554,2,2,B|136:96|88:128|88:168,2,112.5
216,168,42412,2,2,B|280:168|312:168,4,75
136,248,43591,1,4
256,32,44127,5,4
360,136,44556,1,2
392,200,44770,1,2
424,264,44984,2,2,B|464:256|504:216|496:168,2,112.5
352,264,45842,5,4
256,144,46271,1,2
192,176,46485,1,2
128,208,46699,2,2,B|120:168|80:128|32:136,2,112.5
128,280,47557,5,6
192,320,47771,1,2
256,280,47986,1,6
256,208,48200,1,2
256,136,48414,2,4,B|256:56|256:8,2,112.5
256,208,49272,1,4
256,360,49701,1,4
328,312,50987,5,4
184,312,51416,1,0
256,184,51845,1,0
152,152,52166,1,0
256,112,52488,1,0
256,112,52702,1,0
360,80,53024,1,0
256,40,53345,1,0
256,40,53560,1,4
256,192,53988,1,4
128,120,54417,5,0
128,264,54846,1,0
256,192,55275,1,0
288,296,55596,1,0
328,192,55918,1,0
328,192,56132,1,0
360,88,56454,1,0
400,192,56775,1,0
400,192,56990,1,4
256,192,57418,1,4
256,40,57847,5,0
256,192,58276,1,0
112,192,58705,1,0
56,288,59026,1,0
168,288,59348,1,0
240,288,59562,1,0
352,288,59884,1,0
296,192,60205,1,0
256,128,60420,1,4
152,232,60848,1,4
104,176,61063,5,2
104,176,61277,1,2
192,56,61706,1,2
344,56,62135,2,6,B|432:152,1,112.5
472,240,62778,5,2
472,240,62992,2,2,B|368:304,1,112.5
264,304,63635,1,2
192,304,63850,1,6
256,168,64278,1,4
328,72,64707,5,2
184,72,65136,1,6
224,216,65565,2,0,B|144:216|104:216,2,112.5
288,176,66422,2,0,B|384:176|432:176,2,112.5
224,144,67280,1,4
256,288,67708,1,4
328,344,67923,5,2
328,344,68137,1,2
184,344,68566,1,2
80,240,68995,2,0,B|208:200|208:200,1,105
296,168,69638,1,0
224,144,69852,2,0,B|96:104|96:104,1,105
224,48,70495,1,0
288,16,70710,1,4
328,112,71567,5,6
184,112,71996,1,2
96,232,72425,1,6
152,328,72746,1,2
256,368,73068,1,2
256,368,73282,1,6
360,328,73604,1,2
416,232,73925,1,2
416,232,74140,1,4
256,32,74783,5,2
256,32,74890,1,2
256,32,74997,1,6
184,168,75426,1,4
328,216,75855,1,4
256,304,76176,1,4
256,192,76498,12,4,80142
